Thanks, fixed both of those.

iR0b0t wrote:
Cyo.the.vile wrote:

Hello.
Is there any progress on this functionality or should I purchase and dump for other preservation groups?

Hello, i will do it.
Wanted to work on the other stuff first, but however.
There is no need to rage quit.
It took me a long time to come back to this topic, but please try to understand that things need time.
If people would be raging to not fullfiled promises of all the politicians the world would be burning.
Cheers.

Please could you elaborate?

[delete]

4

(2 replies, posted in Guests & account requests)

For the NPDP cartrdiges, you may want to submit them to No-Intro, which is basically the equivalent to Redump for cartridges (and other things). Redump only accepts discs.

Yes I know, however the dump has not been verified, and also, serials are not 100% correlated to game versions.

Those don't seem to be game-related, so probably wouldn't be eligible for submission. But dumps of your Adidas Power Soccer 98 discs would still be appreciated.

You may have a version that is not in the database, plus the two demo discs that are in the database are not verified, so your contribution would still be very much appreciated.

Common Disc Info:
    Title: Cube DVD 29
    Disc Number / Letter: 
    Disc Title: 48
    System: DVD-Video
    Media Type: DVD-ROM-5
    Category: Coverdiscs
    Matching IDs: 89330
    Region: Europe
    Languages: English
    Disc Serial: 

    Ringcode Information:
        Data Side Mastering Code (laser branded/etched): THIN ICE MEDIA \ WWW.CODEJUNKIES.COM | CUBE MAGAZINE | DVD VIDEO DISC ISSUE 48 | 05070702
        Data Side Mastering SID Code: IFPI LL31
        Data Side Toolstamp or Mastering Code (engraved/stamped): 
        Data Side Mould SID Code: 
        Data Side Additional Mould: 
        Label Side Mould SID Code: 
    Barcode: 
    Comments: [T:VOL] DVDVolume
    Contents:

Battalion Wars
Welcome to Max.TV
Chibi.Robo
DS/GBA Action Replay
Dance Dance Revolution Mario Mix
Motorised Skateboard
Fire Emblem: Path of Radiance
Spy Cam
Geist
Retro Arcade Sticks
Kirby's Adventure
Mario Baseball
Mario Party 7
Odama
Pokemon XD: Gale of Darkness
Digitylish Series
Donkey Kong COuntry 3
Dynasty Warriors Advance
Fire Emblem: The Sacred Stones
Mario Tennis Advance
Pokemon Emerald
Screw Breaker
Wario Ware Twisted
Yoshi Topsy-Turvy
Advance Wars: Dual Strike
Animal Crossing DS
Electroplankton
Kirby Canvas Curse
Mario Kart DS
Mario & Luigi 2
Meteos
Metroid Prime Hunters
Metroid Prime Pinball

Version and Editions:
    Version: 
    Edition/Release: Original

Extras:
    Primary Volume Descriptor (PVD):

0320 : 20 20 20 20 20 20 20 20  20 20 20 20 20 30 30 30                000
0330 : 30 30 30 30 30 30 30 30  30 30 30 30 30 00 30 30   0000000000000.00
0340 : 30 30 30 30 30 30 30 30  30 30 30 30 30 30 00 30   00000000000000.0
0350 : 30 30 30 30 30 30 30 30  30 30 30 30 30 30 30 00   000000000000000.
0360 : 30 30 30 30 30 30 30 30  30 30 30 30 30 30 30 30   0000000000000000
0370 : 00 01 00 00 00 00 00 00  00 00 00 00 00 00 00 00   ................

Copy Protection:
    Copy Protection:

Region: 1 2 3 4 5 6
Copyright Protection System Type: No

Size & Checksum:
    Size: 4304699392
    CRC32: 3931b57b
    MD5: 63ec33a8ea199400142c6a3970dbd52a
    SHA1: 7cfb63a915975746b277842413b4aa8eb9da750a

Logs and photos: https://mega.nz/folder/5cQj0RwL#YCa1oGRbsR-Pc54yaCxFRw

9

(0 replies, posted in Verifications)

Common Disc Info:
    Title: Nintendo E3 Blowout!
    Disc Number / Letter: 
    Disc Title: 
    System: IBM PC compatible
    Media Type: CD-ROM
    Category: Multimedia
    Matching IDs: 54159
    Region: UK
    Languages: English
    Disc Serial: 

    Ringcode Information:
        Data Side Mastering Code (laser branded/etched): > 42499 < COMPACT disc   BC6450
        Data Side Mastering SID Code: IFPI LH11
        Data Side Toolstamp or Mastering Code (engraved/stamped): 
        Data Side Mould SID Code: IFPI 4P34
        Data Side Additional Mould: 
        Label Side Mould SID Code: 
    Barcode: 
    Error Count: 0
    Comments:

[T:VOL] NOM E3 Blowout
Came with the Nintendo Official Magazine Issue 142 (July 2004)

    Contents:

<b>Preview Videos:</b>
Animal Crossing DS
Mario Kart DS
Metroid Prime: Hunters
PictoChat
Super Mario 64x4
New Super Mario Bros.
Wario Ware, Inc. DS
Advance Wars: Under Fire
DK: King of Swing
Donkey Kong Country 2 (GBA)
Donkey Kong Jungle Beat
Donkey Konga
F-Zero GP Legend
Geist
Hamtaro Ham-Ham Games
Kirby and the Amazing Mirror
Mario Golf Advance Tour
Mario Pinball
Mario vs. Donkey Kong
Metroid Prime 2: Echoes
Paper Mario 2
Pikmin 2
Pokémon Fire Red and Leaf Green
Star Fox (GameCube)
The Legend of Zelda: Four Swords Adventures
The Legend of Zelda: Magical Hood
The Legend of Zelda (GameCube)
<b>Other:</b>
E3 Photos
Nintendo Stand Tour (Video)

Version and Editions:
    Version: 
    Edition/Release: Original

Extras:
    Primary Volume Descriptor (PVD):

0320 : 20 20 20 20 20 20 20 20  20 20 20 20 20 32 30 30                200
0330 : 34 30 35 32 34 32 33 33  33 30 31 30 30 00 32 30   4052423330100.20
0340 : 30 34 30 35 32 34 32 33  33 33 30 31 30 30 00 00   04052423330100..
0350 : 00 00 00 00 00 00 00 00  00 00 00 00 00 00 00 00   ................
0360 : 00 00 00 00 00 00 00 00  00 00 00 00 00 00 00 00   ................
0370 : 00 01 00 00 00 00 00 00  00 00 00 00 00 00 00 00   ................

Copy Protection:
    Copy Protection: None found

Tracks and Write Offsets:
    DAT:

<rom name="NOM E3 Blowout.bin" size="572131056" crc="2f27cd23" md5="fe321c3ad46512d64949f373b6ae5602" sha1="a8f67bf942df8ef068320959f471e4894343cc07" />

    Cuesheet:

FILE "NOM E3 Blowout.bin" BINARY
  TRACK 01 MODE1/2352
    INDEX 01 00:00:00

    Write Offset: 0

Logs and photos: https://mega.nz/folder/IZpjGBoK#3YQlE3eEjTH6E5iaV0CO3w

RibShark said he still has his, so this is apparently a different disc despite the same ringcodes (although I'm told two discs having the same ringcode isn't actually that unusual).

10

(0 replies, posted in Verifications)

Verification of: http://redump.org/disc/33102/

Common Disc Info:
    Title: Half-Life
    Foreign Title (Non-latin): 
    Disc Number / Letter: 
    Disc Title: 
    System: IBM PC compatible
    Media Type: CD-ROM
    Category: Games
    Region: UK
    Languages: English
    Disc Serial: S0013145

    Ringcode Information:
        Data Side Mastering Code (laser branded/etched): HALFLIFEE 10 NOV 98  MPO  0 1@@ 9
        Data Side Mastering SID Code: IFPI L033
        Data Side Toolstamp or Mastering Code (engraved/stamped): 04
        Data Side Mould SID Code: IFPI 1215
        Data Side Additional Mould: 
        Label Side Mould SID Code: 
    Barcode: 3 348542 030138
    Error Count: 0
    Comments:

[T:VOL] HALFLIFE
<b>Sierra ID</b>: S0013147
Box Serial: RCV 10000502
CD KEY NUMBER: 0740-13354-6202
Serial at end of copyright notice on back of case: 7036530

    Contents: 

Version and Editions:
    Version: 1.0.0.5
    Edition/Release: Original

Extras:
    Primary Volume Descriptor (PVD):

0320 : 20 20 20 20 20 20 20 20  20 20 20 20 20 31 39 39                199
0330 : 38 31 31 30 39 32 30 34  33 32 33 30 30 00 31 39   8110920432300.19
0340 : 39 38 31 31 31 30 30 33  30 32 33 36 30 30 00 00   98111003023600..
0350 : 00 00 00 00 00 00 00 00  00 00 00 00 00 00 00 00   ................
0360 : 00 00 00 00 00 00 00 00  00 00 00 00 00 00 00 00   ................
0370 : 00 01 00 00 00 00 00 00  00 00 00 00 00 00 00 00   ................

Copy Protection:
    Copy Protection: (CHECK WITH PROTECTIONID)

Tracks and Write Offsets:
    DAT:

<rom name="HALFLIFE (Track 01).bin" size="420010752" crc="c33b4074" md5="3181d6e4451327778978f99bf4d3de4e" sha1="a0562ab476894bdfe22a0b51a1ff2755823c8b2e" />
<rom name="HALFLIFE (Track 02).bin" size="23263632" crc="52b50d80" md5="68b2a03fb630b8e56f939629ad8ca4c7" sha1="4fea9dab7b1025379f5434dee710eb17d4a43c87" />
<rom name="HALFLIFE (Track 03).bin" size="23599968" crc="0e6fc049" md5="648fc2c1aa2f59dc69eec1fa21e6a6bf" sha1="dfa78d5c93a3c19b952474f9debf3e58be3f26c3" />
<rom name="HALFLIFE (Track 04).bin" size="10960320" crc="74e332d9" md5="2069b7cb3ea8816c4153506e171c35b7" sha1="54495cdffb3db0290b11e2b576d5ef51a94b259f" />
<rom name="HALFLIFE (Track 05).bin" size="17310720" crc="e3973582" md5="7b8fd54d12225521e668cfe469c0d93b" sha1="23714baf23cd72201e76b53b0fb61fb72c85d297" />
<rom name="HALFLIFE (Track 06).bin" size="17988096" crc="719ba217" md5="254b491f6ab392fbdb7b31603fb514b3" sha1="38306a1a356126c34f15317fadd0cf4f503c8392" />
<rom name="HALFLIFE (Track 07).bin" size="4449984" crc="ea93ef95" md5="05d43063283976669cf5a34b9e6fd1a3" sha1="3548da6461856317c2f06555843256c10e04652f" />
<rom name="HALFLIFE (Track 08).bin" size="1909824" crc="e170001d" md5="6518568023e0a2845f8280f21cbde743" sha1="99f90626c3bd93124315d6258e00e00a447b8afb" />
<rom name="HALFLIFE (Track 09).bin" size="16800336" crc="9126b7a3" md5="746739beff1817234106530865097b3a" sha1="c9bbc301c2e5290a9fc90ccadaa8cea21a68155b" />
<rom name="HALFLIFE (Track 10).bin" size="18790128" crc="833c4e4a" md5="c33259ed066c1a237f71e2b0e50e45bb" sha1="b08313ae0eabb0a80c7d377149e113cfc485478f" />
<rom name="HALFLIFE (Track 11).bin" size="14951664" crc="5a69e48d" md5="fb1483def55e02e3f68ded087f5f3146" sha1="3c41065448ff45a502edb6c27d874403460bd0d4" />
<rom name="HALFLIFE (Track 12).bin" size="22971984" crc="704375d7" md5="834788cb45197170fa91fb85fb0b84d3" sha1="a1cacb9f197af0e9d46a01d618fbb59fc8aca082" />
<rom name="HALFLIFE (Track 13).bin" size="6750240" crc="b9913d4a" md5="e23e06d5c29c750d5f2d140137911c7c" sha1="fd9e592d2c679a3d37f519f5b34df99519f27ddb" />
<rom name="HALFLIFE (Track 14).bin" size="13220592" crc="a7e7b8b4" md5="7815bde391e2258be9ff328da421f1ee" sha1="ddf00e3096eb4d675750885b0b5bfeab995f5883" />
<rom name="HALFLIFE (Track 15).bin" size="21603120" crc="bc26da21" md5="a1c25290de40688cc59a0be2a52f5689" sha1="6a78c4d7d84c9c535a32fc725e9b3843cbc6ac30" />
<rom name="HALFLIFE (Track 16).bin" size="3217536" crc="844d6c5e" md5="778621d80d2b9630ea7892022a41d27a" sha1="2600b0a786c7b59083ba408113f0c4a5e0062b78" />
<rom name="HALFLIFE (Track 17).bin" size="22216992" crc="21ffe810" md5="0b470a2a6d82a873b0623c76264dc58b" sha1="de2fe2dcda0fc5d086156c454c0cc94588583ac2" />
<rom name="HALFLIFE (Track 18).bin" size="18065712" crc="3f0c6693" md5="18728cd3b46f940b3baff062a017584f" sha1="dd721e3c7909aeec050742d71032b094088e9d99" />
<rom name="HALFLIFE (Track 19).bin" size="20751696" crc="a51529e1" md5="71b31c4379b5fdd5e1180bb9c428479f" sha1="6bcd779ce93f1f8b4230976fdf17d396af71bd64" />
<rom name="HALFLIFE (Track 20).bin" size="15339744" crc="ba4546e7" md5="0533a709a0582995b634d1131d3c217e" sha1="e629493c8a8f847d0c1a5ece80002032b96a6fa0" />
<rom name="HALFLIFE (Track 21).bin" size="15271536" crc="da7a13ab" md5="e11d0c56ae6d6b6364432d1d64ef8abd" sha1="e869f1e5b5ecda302b97555ff335ef485ab146c6" />
<rom name="HALFLIFE (Track 22).bin" size="14577696" crc="3e90a1a5" md5="4e8c243985ec7f0b948c5350a82ece73" sha1="aaaec54983ec90a2152e58d9e9fc6f226c5395ac" />
<rom name="HALFLIFE (Track 23).bin" size="19707408" crc="f2f90b7e" md5="1a536932be079981c2a9d078c523a515" sha1="207cccff65be9a5159aa682e5cff54b1c9d25f06" />
<rom name="HALFLIFE (Track 24).bin" size="14008512" crc="ef44e10c" md5="f651c26c8be217b2a26e2a01b8c60235" sha1="d271ce1ef6c36e9dea595b0d61d3298aa6bbc809" />
<rom name="HALFLIFE (Track 25).bin" size="17898720" crc="22d9c6a4" md5="1dca4a2b385273bd81e71c2cbe01ba8a" sha1="a7b062b14ee4473b130403afee32cdbd88b5ec36" />
<rom name="HALFLIFE (Track 26).bin" size="6968976" crc="622fd753" md5="8950fd8e21fd9b8dcc20838eb8daca80" sha1="d2c7e1b6387d31dc775d3600fc51a31275180118" />
<rom name="HALFLIFE (Track 27).bin" size="3419808" crc="f9ae7b67" md5="665347c5250cf4e4b4c1870defe9ec67" sha1="b2f39d4db06a964e2f730110570b2e91c8a55660" />
<rom name="HALFLIFE (Track 28).bin" size="1841616" crc="59112915" md5="00f7e8af052c2f944279678b57d21d6a" sha1="0667e0bb5141de31454f1371eee1c41389a99a9f" />

    Cuesheet:

FILE "HALFLIFE (Track 01).bin" BINARY
  TRACK 01 MODE2/2352
    INDEX 01 00:00:00
FILE "HALFLIFE (Track 02).bin" BINARY
  TRACK 02 AUDIO
    INDEX 00 00:00:00
    INDEX 01 00:02:01
FILE "HALFLIFE (Track 03).bin" BINARY
  TRACK 03 AUDIO
    INDEX 00 00:00:00
    INDEX 01 00:01:74
FILE "HALFLIFE (Track 04).bin" BINARY
  TRACK 04 AUDIO
    INDEX 00 00:00:00
    INDEX 01 00:01:74
FILE "HALFLIFE (Track 05).bin" BINARY
  TRACK 05 AUDIO
    INDEX 00 00:00:00
    INDEX 01 00:01:74
FILE "HALFLIFE (Track 06).bin" BINARY
  TRACK 06 AUDIO
    INDEX 00 00:00:00
    INDEX 01 00:01:74
FILE "HALFLIFE (Track 07).bin" BINARY
  TRACK 07 AUDIO
    INDEX 00 00:00:00
    INDEX 01 00:01:74
FILE "HALFLIFE (Track 08).bin" BINARY
  TRACK 08 AUDIO
    INDEX 00 00:00:00
    INDEX 01 00:01:74
FILE "HALFLIFE (Track 09).bin" BINARY
  TRACK 09 AUDIO
    INDEX 00 00:00:00
    INDEX 01 00:01:74
FILE "HALFLIFE (Track 10).bin" BINARY
  TRACK 10 AUDIO
    INDEX 00 00:00:00
    INDEX 01 00:01:74
FILE "HALFLIFE (Track 11).bin" BINARY
  TRACK 11 AUDIO
    INDEX 00 00:00:00
    INDEX 01 00:01:74
FILE "HALFLIFE (Track 12).bin" BINARY
  TRACK 12 AUDIO
    INDEX 00 00:00:00
    INDEX 01 00:01:74
FILE "HALFLIFE (Track 13).bin" BINARY
  TRACK 13 AUDIO
    INDEX 00 00:00:00
    INDEX 01 00:01:74
FILE "HALFLIFE (Track 14).bin" BINARY
  TRACK 14 AUDIO
    INDEX 00 00:00:00
    INDEX 01 00:01:74
FILE "HALFLIFE (Track 15).bin" BINARY
  TRACK 15 AUDIO
    INDEX 00 00:00:00
    INDEX 01 00:01:74
FILE "HALFLIFE (Track 16).bin" BINARY
  TRACK 16 AUDIO
    INDEX 00 00:00:00
    INDEX 01 00:01:74
FILE "HALFLIFE (Track 17).bin" BINARY
  TRACK 17 AUDIO
    INDEX 00 00:00:00
    INDEX 01 00:01:74
FILE "HALFLIFE (Track 18).bin" BINARY
  TRACK 18 AUDIO
    INDEX 00 00:00:00
    INDEX 01 00:01:74
FILE "HALFLIFE (Track 19).bin" BINARY
  TRACK 19 AUDIO
    INDEX 00 00:00:00
    INDEX 01 00:01:74
FILE "HALFLIFE (Track 20).bin" BINARY
  TRACK 20 AUDIO
    INDEX 00 00:00:00
    INDEX 01 00:01:74
FILE "HALFLIFE (Track 21).bin" BINARY
  TRACK 21 AUDIO
    INDEX 00 00:00:00
    INDEX 01 00:01:74
FILE "HALFLIFE (Track 22).bin" BINARY
  TRACK 22 AUDIO
    INDEX 00 00:00:00
    INDEX 01 00:01:74
FILE "HALFLIFE (Track 23).bin" BINARY
  TRACK 23 AUDIO
    INDEX 00 00:00:00
    INDEX 01 00:01:74
FILE "HALFLIFE (Track 24).bin" BINARY
  TRACK 24 AUDIO
    INDEX 00 00:00:00
    INDEX 01 00:01:74
FILE "HALFLIFE (Track 25).bin" BINARY
  TRACK 25 AUDIO
    INDEX 00 00:00:00
    INDEX 01 00:01:74
FILE "HALFLIFE (Track 26).bin" BINARY
  TRACK 26 AUDIO
    INDEX 00 00:00:00
    INDEX 01 00:01:74
FILE "HALFLIFE (Track 27).bin" BINARY
  TRACK 27 AUDIO
    INDEX 00 00:00:00
    INDEX 01 00:01:74
FILE "HALFLIFE (Track 28).bin" BINARY
  TRACK 28 AUDIO
    INDEX 00 00:00:00
    INDEX 01 00:01:74

    Write Offset: -12

Logs: https://mega.nz/file/YdoTma7J#GZ5h89blU … Qs0R1zfd9I

olofolleola4 on VGPC might have been looking at this.

Nothing in spam, even after using http://forum.redump.org/request/password/ ?
You may have to try a non-gmail/hotmail provider - those two can reject some emails, apparently.

13

(13 replies, posted in General discussion)

iR0b0t wrote:
Aringon wrote:

there are no 0s in the third position

Picture in post #3 has an image that shows a zero as a number on the 3rd position, there is no doubt it is a zero.

The simple solution would be to allow images attachments, like DAT-o-MATIC,

I can vouch for Matthew.

Just to clarify, you have the original discs and want to share the dump metadata for them?

Mirrored the logs:
https://mega.nz/folder/NYgk0JIS#yFONX5GhqNf4jQfTWx03XQ

Edit 2021-12-21:
added disc scans

17

(2 replies, posted in Guests & account requests)

Bumping this thread on your behalf...

Reuploaded rusted_planet's google drive files to mega: https://mega.nz/folder/YNxWDR5C#qK1V1louE7CCJr3EErZlPQ

Sometimes people don't include certain serials/barcodes from discs/boxes, so it can be useful to fill that info out.

Lamhirh wrote:

What do I need to do in order to checking the read methods of those drives?

Well I think testing them with DiscImageCreator, and checking if you get the same hashes for some discs that are already in the database, would be a good start.

21

(4 replies, posted in General discussion)

Yes, like other systems, there are hashes for the disc images - CRC32, MD5 and SHA1.

I've PM'd you the Wii U dat and a PDF of the Wii U disc listing so you can compare.

The publisher code is stored in the company_code field in /meta/meta.xml. Human readable publisher name info is stored in the same file, in the publisher_* fields, where * is the language (en,fr,de,it,es,zhs,ko,nl,pt,ru or zht in the one i have at least).

24

(2 replies, posted in Guests & account requests)

I invited Voodooween here as he has an undumped Wii U demo disc.

I think you need around 5 dumps to get dumper status.