1

(1 replies, posted in Dumps)

I picked this up at Goodwill recently, so I'm adding it here.

The md5 of game.key matches the key in the database.

Just Dance 2016
http://redump.org/disc/41706/
Mastering Ring Code: 615H1901   WUP-P-AJ6E-00 JPN S0
Mastering SID code: IFPI  LL40
Toolstamp: F1
Mould SID: IFPI HHUF
Additional Mould Text:  MADE IN JAPAN
Ubisoft serial: UBP10801065-DISC

2

(1 replies, posted in Dumps)

Wii U Verfications
These are the only two Wii U games I own. As you can imagine, my Wii U has been very busy gathering dust since 2012.

cat game_part1.wud game_part2.wud game_part3.wud game_part4.wud game_part5.wud game_part6.wud game_part7.wud game_part8.wud game_part9.wud game_part10.wud game_part11.wud game_part12.wud > GAME.ISO && md5sum GAME.ISO && wudcompress GAME.ISO

Nintendo Land
http://redump.org/disc/41041/
Mastering Ring Code: 512J0602 WUP-P-ALCE-00 JPN S0
Mastering SID code: IFPI LL39
Toolstamp: F4
Mould SID: IFPI HHUF
Additional Mould Text: MADE IN JAPAN

New Super Mario Bros. U
http://redump.org/disc/41040/
Mastering Ring Code: 512J0502   WUP-P-ARPE-02 JPN S0
Mastering SID code: LL39
Toolstamp: F1
Mould SID: IFPI HHUE
Additional Mould Text: MADE IN JAPAN



These discs are all rented from a video store. Due to the fact that these discs have a label over the central region of the disc, I am unable to read the mould SID codes without peeling off the label. I was willing to risk that with shovelware games for the regular Wii, but I am unwilling to risk it for Wii U discs. I was able to read the "MADE IN JAPAN/USA" bit for all of these discs, but that was only with the use of a microscope, and I could only read the very bottom of the text, so I wouldn't be able to read the mould SID even if I could find it.

However, sometimes the label would be off-center enough for me to read the mould sid codes for a select few. I also decided to bite the bullet and carefully peel back the label for any discs with a new ringcode.


The Legend of Zelda: Breath of the Wild
http://redump.org/disc/41081/
Mastering Ring Code: 517A0501   WUP-P-ALZE-00 JPN S0
Mastering SID code: LL39
Toolstamp: F3
MOuld Text: MADE IN JAPAN

Hyrule Warriors
http://redump.org/disc/41322/
Mastering Ring Code: J14G3103   WUP-P-BWPE-00 USA S0
Mastering SID code: LL12
Toolstamp: S3
Additional Mould Text: MADE IN USA PDMC. CA

The Amazing Spider-Man 2q
http://redump.org/disc/42163/
Mastering Ring Code: G14C1201   WUP-AM9E-00 USA S0
Mastering SID code: LL11
Toolstamp: S1
Additional Mould Text: MADE IN USA  PCMC. CA

Call of Duty: Black Ops II
http://redump.org/disc/42077/
Mastering Ring Code: G12J1904   WUP-P-AECE-00 USA S0
Mastering SID code: LL11
Toolstamp: S3
Additional Mould Text: MADE IN USA PDMC. CA

Star Fox Guard
http://redump.org/disc/41048/
Mastering Ring Code: 616B0902   WUP-P-BWFE-00 JPN S0
Mastering SID code: LL40
Toolstamp:F3
Additional Mould Text: MADE IN JAPAN

Star Fox Zero
http://redump.org/disc/41049/
Mastering Ring Code: 616B1202       WUP-P-AFXE-00 JPN S0
Mastering SID code: LL40
Toolstamp: F4
Additional Mould Text: MADE IN JAPAN

Super Mario 3D World 1.00
http://redump.org/disc/41050/ 097d8ae0b4e6848bbde051b5c5104036
Mastering Ring Code: G13J0702   WUP-P-ARDE-00 USA S0
Mastering SID code: IFPI LL11
Toolstamp: S4
Mould SID: IFPI V9R5
Additional Mould Text: MADE IN USA PDMC.CA

Super Mario Maker
http://redump.org/disc/41051/
Mastering Ring Code:G15G1701    WUP-P-AMAE-00 JPN S0
Mastering SID code: IFPI LL40
Toolstamp:F1
Additional Mould Text: MADE IN JAPAN

Super Smash Bros. for Wii U
http://redump.org/disc/41052/
Mastering Ring Code: J14J2401   WUP-P-AXFE-00 USA S0
Mastering SID code: IFPI LL12
Toolstamp: S2
Mould SID: IFPI V9B0
Additional Mould Text: MADE IN USA  PDMC. CA

Pokkén Tournament
http://redump.org/disc/41044/
Mastering Ring Code: 516A2601   WUP-P-APKE-00 JPN S0
Mastering SID code: IFPI LL39
Toolstamp: F2
Additional Mould Text: MADE IN JAPAN

Pikmin 3
http://redump.org/disc/41043/
Mastering Ring Code:G13F1801    WUP-P-AC3E-01 USA S0
Mastering SID code: IFPI LL11
Toolstamp: S12
That toolstamp might be a typo. I'm going to look at it again. Don't enter it until I get a good look at it.
EDIT: It's S1
Mould SID: IFPI  V9R2
Additional Mould Text: MADE IN USA  PCMC. CA


Paper Mario: Color Splash
http://redump.org/disc/41042/
Mastering Ring Code: 516C1101   WUP-P-CNFE-00 JPN S0
CMastering SID code: IFPI   LL39
Toolstamp: F2
Additional Mould Text: MADE IN JAPAN

Game & Wario
http://redump.org/disc/42002/
Mastering Ring Code: J13D2061   WUP-ASAE-00 USA 0
Mastering SID code: IFPI LL12
Toolstamp: S4
Additional Mould Text: MADE IN USA  PDMC. CA

Captain Toad: Treasure Tracker
http://redump.org/disc/41026/
Mastering Ring Code: J14J0701   WUP-P-AKBE-00 USA S0
Mastering SID code: IFPI LL12
Toolstamp: S1
Additional Mould Text:MADE IN USA   PDMC. CA


Kirby and the Rainbow Curse
http://redump.org/disc/41030/
Mastering Ring Code: J15A0701   WUP-P-AXYE-00 USA S0
Mastering SID code: IFPI LL12
Toolstamp: S1
Additional Mould Text: MADE IN USA  PDMC. CA

The Legend of Zelda: The Wind Waker HD
http://redump.org/disc/41031/
Mastering Ring Code: G13H1902   WUP-P-BCZE-00 USA
Mastering SID code: IFPI LL11
Toolstamp: S2
Additional Mould Text: MADE IN USA  PDMC. CA


Sonic Boom: Rise of Lyric
http://redump.org/disc/42038/
Mastering Ring Code: J25I1105   WUP-P-BSSE-00 USA S0
Mastering SID code: IFPI LL12
Toolstamp: S2
Additional Mould Text: MADE IN USA  PDMC. CA

Sonic Lost World
http://redump.org/disc/41046/
Mastering Ring Code: G13H3102   WUP-P-ASNE-00 USA S0
Mastering SID code: IFPI LL11
Toolstamp: S1
Additional Mould Text: MADE IN USA  PDMC. CA

Sonic & All-Stars Racing Transformed
http://redump.org/disc/42081/
Mastering Ring Code: G12J2407    WUP-P-AS2E-00 USA S0
Mastering SID code: IFPI LL11
Toolstamp:  S2
Mould SID: IFPI V9R4
Additional Mould Text: MADE IN USA PDMC. CA


Shovel Knight
http://redump.org/disc/41461/
Mastering Ring Code: 515I1001   WUP-P-WKNE-00 JPN S0
Mastering SID Code: IFPI LL39
Toolstamp: F2
Additional Mould Text: MADE IN JAPAN

Mario & Sonic at the Rio 2016 Olympic Games
http://redump.org/disc/42076/
Mastering Ring Code: 616D2101    WUP-P-ABJE-00 JPN S0
Mastering SID Code: IFPI LL40
Toolstamp:  F1
Mould SID Code: IPFI HHUK
Additonal Mould Text: MADE IN JAPAN

Mario & Sonic at the Sochi 2014 Olympic Winter Games
http://redump.org/disc/41033/
Mastering Ring Code: G13I2701   WUP-P-AURE-00 USA S0
Mastering SID Code: IFPI
Toolstamp: S2
Mould SID Code: IFPI V9R1
Additional Mould Text: MADE IN USA  PDMC. CA

Mario Party 10
http://redump.org/disc/41036/
Mastering Ring Code: J15A1401   WUP-P-ABAE-00 USA S0
Mastering SID Code: IFPI LL12
Toolstamp: S1
Additional Mould Text: MADE IN USA  PDMC. CA

Animal Crossing: Amiibo Festival
http://redump.org/disc/41021/
Mastering Ring Code: 515I2802   WUP-P-AALE-00 JPN S0
Mastering SID Code: IFPI LL39
Toolstamp: F3
Additional Mould Text: MADE IN JAPAN

Yoshi's Woolly World
http://redump.org/disc/41061/
Mastering Ring Code: 615G1002   WUP-P-AYCE-00 JPN S0
Mastering SID Code: IFPI LL40
Toolstamp: F1
Additional Mould Text: MADE IN JAPAN

NES Remix Pack
http://redump.org/disc/41633/
Mastering Ring Code: G14C2501   WUP-P-AFDE-00 USA S0
Mastering SID Code: IFPI LL11
Toolstamp:S2
Mould SID Code: IFPI V9R0
Additional Mould Text: MADE IN USA  PDMC. CA


Mario Tennis: Ultra Smash
http://redump.org/disc/41037/
Mastering Ring Code: 515I2402   WUP-P-AVXE-00 JPN S0
Mastering SID Code: IFPI LL39
Toolstamp: F1
Mould SID Code: IFPI HHUG
Additional Mould Text: MADE IN JAPAN

LEGO Batman 3: Beyond Gotham
http://redump.org/disc/41466/
Mastering Ring Code: J14J1501   WUP-P-BTME-00 USA S0
Mastering SID Code: IFPI LL12
Toolstamp: S3
Additional Mould Text: MADE IN USA  PDMC. CA

LEGO The Hobbit
http://redump.org/disc/41125/
Mastering Ring Code: G14C2603   WUP-P-ALHE-00 USA S0
Mastering SID Code: IFPI LL11
Toolstamp: S3
Mould SID Code: IFPI V9R1
Additional Mould Text: MADE IN USA  PDMC. CA

LEGO Marvel Avengers
http://redump.org/disc/41469/
Mastering Ring Code: 515L1501   WUP0P-ALRE-00 JPN S0
Mastering SID Code: IFPI LL39
Toolstamp: F2
Additional Mould Text: MADE IN JAPAN

LEGO City Undercover
http://redump.org/disc/41467/
Mastering Ring Code:G13B1303    WUP-P-APLE-00 USA S0
Mastering SID Code: IFPI L11
Toolstamp: S2
Mould SID Code: IFPI V9R6
Additional Mould Text: MADE IN USA  PDMC. CA

LEGO Jurassic World
http://redump.org/disc/41123/
Mastering Ring Code:515E1901    WUP-P-ALJE-00 JPN S0
Mastering SID Code: IFPI LL9
Toolstamp: F2
Additional Mould Text: MADE IN JAPAN

LEGO Star Wars: The Force Awakens
http://redump.org/disc/41124/
Mastering Ring Code: 616F0801   WUP-BLGE-00 JPN S0
Mastering SID Code: IFPI LL40
Toolstamp: F1
Additional Mould Text: MADE IN JAPAN

Game Party Champions
http://redump.org/disc/41495/
Mastering Ring Code: G12J1606   WUP-P-AGPE-00 USA S0
Mastering SID Code: IFPI LL11
Toolstamp: S5
Additional Mould Text: MADE IN USA  PDMC. CA

Injustice: Gods Among Us
http://redump.org/disc/42003/
Mastering Ring Code: J13C2202   WUP-P-AJSE-00 USA S0
Mastering SID Code: IFPI LL12
Toolstamp: S2
Mould SID Code: IFPI V9R5
Additional Mould Text: MADE IN USA  PDMC. CA

ZombiU
http://redump.org/disc/41062/
Mastering Ring Code: G12J1807   WUP-P-AZUE-00 USA S0
Mastering SID Code: IFPI LL11
Toolstamp: S4
Additional Mould Text: MADE IN USA PDMC. CA

Rayman Legends
http://redump.org/disc/41922/
Mastering Ring Code: G13G2202 WUP-P-ARME-00 USA S0
Mastering SID Code: IFPI LL11
Toolstamp: S1
Mould SID Code: IFPI V9R2
Additional Mould Text: MADE IN USA  PDMC. CA

Just Dance 2014
http://redump.org/disc/41650/
Mastering Ring Code: G13H2101 WUP-P-AJ5E-00 USA S0
Mastering SID Code: IFPI LL11
Toolstamp: S1
Mould SID Code: IFPI V9R2
Additional Mould Text: MADE IN USA  PDMC. CA

Assassin's Creed III
http://redump.org/disc/41455/
Mastering Ring Code: G12J2304   WUP-P-ASSE-00 USA S0
Mastering SID Code: IFPI LL11
Toolstamp: S4
Additional Mould Text: MADE IN USA  PDMC. CA


Resident Evil: Revelations
http://redump.org/disc/42040/
Mastering Ring Code: J13D1201   WUP-P-ABHE-01 USA S0
Mastering SID Code: IFPI L12
Toolstamp: S2
Mould SID Code: IFPI V9R1
Additional Mould Text: MADE IN USA PDMC. CA


Minecraft: Wii U Edition
http://redump.org/disc/42037/
Mastering Ring Code:616D1901 WUP-P-AUME-01 JPN S0
Mastering SID Code: IFPI LL40
Toolstamp: F4
Additional Mould Text: MADE IN JAPAN

Transformers: Rise of the Dark Spark
http://redump.org/disc/42082/
Mastering Ring Code: G14E1202    WUP-P-AYEE-00 USA S0
Mastering SID Code: IFPI LL11
Toolstamp: S2
Mould SID Code: IFPI V9R3
Additional Mould Text: MADE IN USA  PDMC. CA

Scribblenauts Unlimited
http://redump.org/disc/41748/
Mastering Ring Code: G12J1401   WUP-P-ASCEE-00 USA S0
Mastering SID Code: IFPI LL11
Toolstamp: S2
Additional Mould Text: MADE IN USA  PDMC. CA

The Walking Dead: Survival Instinct
http://redump.org/disc/42193/
Mastering Ring Code: G13B0702WUP-P-AWDE-00 USA S0
Mastering SID Code: IFPI LL11
Toolstamp: S1
Mould SID Code: IFPI V9R6
Additional Mould Text: MADE IN USA  PDMC. CA


Unknown Mario Kart 8 dump that refuses to dump farther than 9%
I have no idea if it's 1.00, 1.02, or the as-of-yet undumped 1.01
Mastering Ring Code: G14D0901   WUP-PAMKE-00 USA
Mastering SID Code: IFPI LL11
Toolstamp: S2
Additional Mould Text: MADE IN USA  PDMC. CA

Attached are all the .key files produced by Wudump, as well as txt files for dumps created before I realized that I can get single-file WUDs with NTFS USB sticks.

No. You need a Plextor and DIC for CD dumps.

You can use DIC to dump DVDs with any normal DVD drive, so I suggest dumping those while you wait for a new Plextor.

4

(1,229 replies, posted in General discussion)

sarami wrote:
ajshell1 wrote:

I've noticed a problem with DIC.

Please log. Does this occur in all your DL discs or only this disc? I tried my DL disc but dic could recognize the second layer.

The logs for the game in question are included in this link (plus some other games)

https://mega.nz/#!q0AHkZbb!V5rOwzZSe4pH … rz-ic_I-ec

I've dumped Xenosaga 1 with DIC before, and it dumped just fine. So I don't know what the issue is.

5

(1,229 replies, posted in General discussion)

I've noticed a problem with DIC.

I recently got a copy of Madden 2005 Collector's Edition http://redump.org/disc/20599/

This is a dual-layer disc.

However, DIC doesn't recognize this, and only dumps one layer.

This isn't a problem with the disc, as Isobuster can extract an .iso that matches the database.

I've tried it with my TSST TS-H353B and my ASUS BW-12B1ST a, with identical results.

6

(4 replies, posted in Guests & account requests)

This monstrosity is a 98 track monstrosity added in 2010. However, I managed to pick up a copy in a Goodwill today, and after dumping it, several tracks were wrong.

Specifically, tracks 1, 2, 67, and 68.

The Mastering Ring Code is:

MFG. BY 3888 FM10335 ( 170331/P.B. )    B302359-3

There is no SID code of any type, nor toolstamp.

This matches the existing dump.

The disc serial is 170331


CATALOG 0000000000000
FILE "Tuneland (USA) (OEM) (Track 01).bin" BINARY
  TRACK 01 MODE1/2352
    INDEX 01 00:00:00
FILE "Tuneland (USA) (OEM) (Track 02).bin" BINARY
  TRACK 02 AUDIO
    INDEX 00 00:00:00
    INDEX 01 00:02:01
FILE "Tuneland (USA) (OEM) (Track 03).bin" BINARY
  TRACK 03 AUDIO
    INDEX 00 00:00:00
    INDEX 01 00:01:73
FILE "Tuneland (USA) (OEM) (Track 04).bin" BINARY
  TRACK 04 AUDIO
    INDEX 00 00:00:00
    INDEX 01 00:01:73
FILE "Tuneland (USA) (OEM) (Track 05).bin" BINARY
  TRACK 05 AUDIO
    INDEX 00 00:00:00
    INDEX 01 00:01:73
FILE "Tuneland (USA) (OEM) (Track 06).bin" BINARY
  TRACK 06 AUDIO
    INDEX 00 00:00:00
    INDEX 01 00:01:73
FILE "Tuneland (USA) (OEM) (Track 07).bin" BINARY
  TRACK 07 AUDIO
    INDEX 00 00:00:00
    INDEX 01 00:01:73
FILE "Tuneland (USA) (OEM) (Track 08).bin" BINARY
  TRACK 08 AUDIO
    INDEX 00 00:00:00
    INDEX 01 00:01:73
FILE "Tuneland (USA) (OEM) (Track 09).bin" BINARY
  TRACK 09 AUDIO
    INDEX 00 00:00:00
    INDEX 01 00:01:73
FILE "Tuneland (USA) (OEM) (Track 10).bin" BINARY
  TRACK 10 AUDIO
    INDEX 00 00:00:00
    INDEX 01 00:01:73
FILE "Tuneland (USA) (OEM) (Track 11).bin" BINARY
  TRACK 11 AUDIO
    INDEX 00 00:00:00
    INDEX 01 00:01:73
FILE "Tuneland (USA) (OEM) (Track 12).bin" BINARY
  TRACK 12 AUDIO
    INDEX 00 00:00:00
    INDEX 01 00:01:73
FILE "Tuneland (USA) (OEM) (Track 13).bin" BINARY
  TRACK 13 AUDIO
    INDEX 00 00:00:00
    INDEX 01 00:01:73
FILE "Tuneland (USA) (OEM) (Track 14).bin" BINARY
  TRACK 14 AUDIO
    INDEX 00 00:00:00
    INDEX 01 00:01:73
FILE "Tuneland (USA) (OEM) (Track 15).bin" BINARY
  TRACK 15 AUDIO
    INDEX 00 00:00:00
    INDEX 01 00:01:73
FILE "Tuneland (USA) (OEM) (Track 16).bin" BINARY
  TRACK 16 AUDIO
    INDEX 00 00:00:00
    INDEX 01 00:01:73
FILE "Tuneland (USA) (OEM) (Track 17).bin" BINARY
  TRACK 17 AUDIO
    INDEX 00 00:00:00
    INDEX 01 00:01:73
FILE "Tuneland (USA) (OEM) (Track 18).bin" BINARY
  TRACK 18 AUDIO
    INDEX 00 00:00:00
    INDEX 01 00:01:73
FILE "Tuneland (USA) (OEM) (Track 19).bin" BINARY
  TRACK 19 AUDIO
    INDEX 00 00:00:00
    INDEX 01 00:01:73
FILE "Tuneland (USA) (OEM) (Track 20).bin" BINARY
  TRACK 20 AUDIO
    INDEX 00 00:00:00
    INDEX 01 00:01:73
FILE "Tuneland (USA) (OEM) (Track 21).bin" BINARY
  TRACK 21 AUDIO
    INDEX 00 00:00:00
    INDEX 01 00:01:73
FILE "Tuneland (USA) (OEM) (Track 22).bin" BINARY
  TRACK 22 AUDIO
    INDEX 00 00:00:00
    INDEX 01 00:01:73
FILE "Tuneland (USA) (OEM) (Track 23).bin" BINARY
  TRACK 23 AUDIO
    INDEX 00 00:00:00
    INDEX 01 00:01:73
FILE "Tuneland (USA) (OEM) (Track 24).bin" BINARY
  TRACK 24 AUDIO
    INDEX 00 00:00:00
    INDEX 01 00:01:73
FILE "Tuneland (USA) (OEM) (Track 25).bin" BINARY
  TRACK 25 AUDIO
    INDEX 00 00:00:00
    INDEX 01 00:01:73
FILE "Tuneland (USA) (OEM) (Track 26).bin" BINARY
  TRACK 26 AUDIO
    INDEX 00 00:00:00
    INDEX 01 00:01:73
FILE "Tuneland (USA) (OEM) (Track 27).bin" BINARY
  TRACK 27 AUDIO
    INDEX 00 00:00:00
    INDEX 01 00:01:73
FILE "Tuneland (USA) (OEM) (Track 28).bin" BINARY
  TRACK 28 AUDIO
    INDEX 00 00:00:00
    INDEX 01 00:01:73
FILE "Tuneland (USA) (OEM) (Track 29).bin" BINARY
  TRACK 29 AUDIO
    INDEX 00 00:00:00
    INDEX 01 00:01:73
FILE "Tuneland (USA) (OEM) (Track 30).bin" BINARY
  TRACK 30 AUDIO
    INDEX 00 00:00:00
    INDEX 01 00:01:73
FILE "Tuneland (USA) (OEM) (Track 31).bin" BINARY
  TRACK 31 AUDIO
    INDEX 00 00:00:00
    INDEX 01 00:01:73
FILE "Tuneland (USA) (OEM) (Track 32).bin" BINARY
  TRACK 32 AUDIO
    INDEX 00 00:00:00
    INDEX 01 00:01:73
FILE "Tuneland (USA) (OEM) (Track 33).bin" BINARY
  TRACK 33 AUDIO
    INDEX 00 00:00:00
    INDEX 01 00:01:73
FILE "Tuneland (USA) (OEM) (Track 34).bin" BINARY
  TRACK 34 AUDIO
    INDEX 00 00:00:00
    INDEX 01 00:01:73
FILE "Tuneland (USA) (OEM) (Track 35).bin" BINARY
  TRACK 35 AUDIO
    INDEX 00 00:00:00
    INDEX 01 00:01:73
FILE "Tuneland (USA) (OEM) (Track 36).bin" BINARY
  TRACK 36 AUDIO
    INDEX 00 00:00:00
    INDEX 01 00:01:73
FILE "Tuneland (USA) (OEM) (Track 37).bin" BINARY
  TRACK 37 AUDIO
    INDEX 00 00:00:00
    INDEX 01 00:01:73
FILE "Tuneland (USA) (OEM) (Track 38).bin" BINARY
  TRACK 38 AUDIO
    INDEX 00 00:00:00
    INDEX 01 00:01:73
FILE "Tuneland (USA) (OEM) (Track 39).bin" BINARY
  TRACK 39 AUDIO
    INDEX 00 00:00:00
    INDEX 01 00:01:73
FILE "Tuneland (USA) (OEM) (Track 40).bin" BINARY
  TRACK 40 AUDIO
    INDEX 00 00:00:00
    INDEX 01 00:01:73
FILE "Tuneland (USA) (OEM) (Track 41).bin" BINARY
  TRACK 41 AUDIO
    INDEX 00 00:00:00
    INDEX 01 00:01:73
FILE "Tuneland (USA) (OEM) (Track 42).bin" BINARY
  TRACK 42 AUDIO
    INDEX 00 00:00:00
    INDEX 01 00:01:73
FILE "Tuneland (USA) (OEM) (Track 43).bin" BINARY
  TRACK 43 AUDIO
    INDEX 00 00:00:00
    INDEX 01 00:01:73
FILE "Tuneland (USA) (OEM) (Track 44).bin" BINARY
  TRACK 44 AUDIO
    INDEX 00 00:00:00
    INDEX 01 00:01:73
FILE "Tuneland (USA) (OEM) (Track 45).bin" BINARY
  TRACK 45 AUDIO
    INDEX 00 00:00:00
    INDEX 01 00:01:73
FILE "Tuneland (USA) (OEM) (Track 46).bin" BINARY
  TRACK 46 AUDIO
    INDEX 00 00:00:00
    INDEX 01 00:01:73
FILE "Tuneland (USA) (OEM) (Track 47).bin" BINARY
  TRACK 47 AUDIO
    INDEX 00 00:00:00
    INDEX 01 00:01:73
FILE "Tuneland (USA) (OEM) (Track 48).bin" BINARY
  TRACK 48 AUDIO
    INDEX 00 00:00:00
    INDEX 01 00:01:73
FILE "Tuneland (USA) (OEM) (Track 49).bin" BINARY
  TRACK 49 AUDIO
    INDEX 00 00:00:00
    INDEX 01 00:01:73
FILE "Tuneland (USA) (OEM) (Track 50).bin" BINARY
  TRACK 50 AUDIO
    INDEX 00 00:00:00
    INDEX 01 00:01:73
FILE "Tuneland (USA) (OEM) (Track 51).bin" BINARY
  TRACK 51 AUDIO
    INDEX 00 00:00:00
    INDEX 01 00:01:73
FILE "Tuneland (USA) (OEM) (Track 52).bin" BINARY
  TRACK 52 AUDIO
    INDEX 00 00:00:00
    INDEX 01 00:01:73
FILE "Tuneland (USA) (OEM) (Track 53).bin" BINARY
  TRACK 53 AUDIO
    INDEX 00 00:00:00
    INDEX 01 00:01:73
FILE "Tuneland (USA) (OEM) (Track 54).bin" BINARY
  TRACK 54 AUDIO
    INDEX 00 00:00:00
    INDEX 01 00:01:73
FILE "Tuneland (USA) (OEM) (Track 55).bin" BINARY
  TRACK 55 AUDIO
    INDEX 00 00:00:00
    INDEX 01 00:01:73
FILE "Tuneland (USA) (OEM) (Track 56).bin" BINARY
  TRACK 56 AUDIO
    INDEX 00 00:00:00
    INDEX 01 00:01:73
FILE "Tuneland (USA) (OEM) (Track 57).bin" BINARY
  TRACK 57 AUDIO
    INDEX 00 00:00:00
    INDEX 01 00:01:73
FILE "Tuneland (USA) (OEM) (Track 58).bin" BINARY
  TRACK 58 AUDIO
    INDEX 00 00:00:00
    INDEX 01 00:01:73
FILE "Tuneland (USA) (OEM) (Track 59).bin" BINARY
  TRACK 59 AUDIO
    INDEX 00 00:00:00
    INDEX 01 00:01:73
FILE "Tuneland (USA) (OEM) (Track 60).bin" BINARY
  TRACK 60 AUDIO
    INDEX 00 00:00:00
    INDEX 01 00:01:73
FILE "Tuneland (USA) (OEM) (Track 61).bin" BINARY
  TRACK 61 AUDIO
    INDEX 00 00:00:00
    INDEX 01 00:01:73
FILE "Tuneland (USA) (OEM) (Track 62).bin" BINARY
  TRACK 62 AUDIO
    INDEX 00 00:00:00
    INDEX 01 00:01:73
FILE "Tuneland (USA) (OEM) (Track 63).bin" BINARY
  TRACK 63 AUDIO
    INDEX 00 00:00:00
    INDEX 01 00:01:73
FILE "Tuneland (USA) (OEM) (Track 64).bin" BINARY
  TRACK 64 AUDIO
    INDEX 00 00:00:00
    INDEX 01 00:01:73
FILE "Tuneland (USA) (OEM) (Track 65).bin" BINARY
  TRACK 65 AUDIO
    INDEX 00 00:00:00
    INDEX 01 00:01:73
FILE "Tuneland (USA) (OEM) (Track 66).bin" BINARY
  TRACK 66 AUDIO
    INDEX 00 00:00:00
    INDEX 01 00:01:73
FILE "Tuneland (USA) (OEM) (Track 67).bin" BINARY
  TRACK 67 AUDIO
    INDEX 00 00:00:00
    INDEX 01 00:01:73
FILE "Tuneland (USA) (OEM) (Track 68).bin" BINARY
  TRACK 68 AUDIO
    INDEX 00 00:00:00
    INDEX 01 00:01:73
FILE "Tuneland (USA) (OEM) (Track 69).bin" BINARY
  TRACK 69 AUDIO
    INDEX 00 00:00:00
    INDEX 01 00:01:73
FILE "Tuneland (USA) (OEM) (Track 70).bin" BINARY
  TRACK 70 AUDIO
    INDEX 00 00:00:00
    INDEX 01 00:01:73
FILE "Tuneland (USA) (OEM) (Track 71).bin" BINARY
  TRACK 71 AUDIO
    INDEX 00 00:00:00
    INDEX 01 00:01:73
FILE "Tuneland (USA) (OEM) (Track 72).bin" BINARY
  TRACK 72 AUDIO
    INDEX 00 00:00:00
    INDEX 01 00:01:73
FILE "Tuneland (USA) (OEM) (Track 73).bin" BINARY
  TRACK 73 AUDIO
    INDEX 00 00:00:00
    INDEX 01 00:01:73
FILE "Tuneland (USA) (OEM) (Track 74).bin" BINARY
  TRACK 74 AUDIO
    INDEX 00 00:00:00
    INDEX 01 00:01:73
FILE "Tuneland (USA) (OEM) (Track 75).bin" BINARY
  TRACK 75 AUDIO
    INDEX 00 00:00:00
    INDEX 01 00:01:73
FILE "Tuneland (USA) (OEM) (Track 76).bin" BINARY
  TRACK 76 AUDIO
    INDEX 00 00:00:00
    INDEX 01 00:01:73
FILE "Tuneland (USA) (OEM) (Track 77).bin" BINARY
  TRACK 77 AUDIO
    INDEX 00 00:00:00
    INDEX 01 00:01:73
FILE "Tuneland (USA) (OEM) (Track 78).bin" BINARY
  TRACK 78 AUDIO
    INDEX 00 00:00:00
    INDEX 01 00:01:73
FILE "Tuneland (USA) (OEM) (Track 79).bin" BINARY
  TRACK 79 AUDIO
    INDEX 00 00:00:00
    INDEX 01 00:01:73
FILE "Tuneland (USA) (OEM) (Track 80).bin" BINARY
  TRACK 80 AUDIO
    INDEX 00 00:00:00
    INDEX 01 00:01:73
FILE "Tuneland (USA) (OEM) (Track 81).bin" BINARY
  TRACK 81 AUDIO
    INDEX 00 00:00:00
    INDEX 01 00:01:73
FILE "Tuneland (USA) (OEM) (Track 82).bin" BINARY
  TRACK 82 AUDIO
    INDEX 00 00:00:00
    INDEX 01 00:01:73
FILE "Tuneland (USA) (OEM) (Track 83).bin" BINARY
  TRACK 83 AUDIO
    INDEX 00 00:00:00
    INDEX 01 00:01:73
FILE "Tuneland (USA) (OEM) (Track 84).bin" BINARY
  TRACK 84 AUDIO
    INDEX 00 00:00:00
    INDEX 01 00:01:73
FILE "Tuneland (USA) (OEM) (Track 85).bin" BINARY
  TRACK 85 AUDIO
    INDEX 00 00:00:00
    INDEX 01 00:01:73
FILE "Tuneland (USA) (OEM) (Track 86).bin" BINARY
  TRACK 86 AUDIO
    INDEX 00 00:00:00
    INDEX 01 00:01:73
FILE "Tuneland (USA) (OEM) (Track 87).bin" BINARY
  TRACK 87 AUDIO
    INDEX 00 00:00:00
    INDEX 01 00:01:73
FILE "Tuneland (USA) (OEM) (Track 88).bin" BINARY
  TRACK 88 AUDIO
    INDEX 00 00:00:00
    INDEX 01 00:01:73
FILE "Tuneland (USA) (OEM) (Track 89).bin" BINARY
  TRACK 89 AUDIO
    INDEX 00 00:00:00
    INDEX 01 00:01:73
FILE "Tuneland (USA) (OEM) (Track 90).bin" BINARY
  TRACK 90 AUDIO
    INDEX 00 00:00:00
    INDEX 01 00:01:73
FILE "Tuneland (USA) (OEM) (Track 91).bin" BINARY
  TRACK 91 AUDIO
    INDEX 00 00:00:00
    INDEX 01 00:01:73
FILE "Tuneland (USA) (OEM) (Track 92).bin" BINARY
  TRACK 92 AUDIO
    INDEX 00 00:00:00
    INDEX 01 00:01:73
FILE "Tuneland (USA) (OEM) (Track 93).bin" BINARY
  TRACK 93 AUDIO
    INDEX 00 00:00:00
    INDEX 01 00:01:73
FILE "Tuneland (USA) (OEM) (Track 94).bin" BINARY
  TRACK 94 AUDIO
    INDEX 00 00:00:00
    INDEX 01 00:01:73
FILE "Tuneland (USA) (OEM) (Track 95).bin" BINARY
  TRACK 95 AUDIO
    INDEX 00 00:00:00
    INDEX 01 00:01:73
FILE "Tuneland (USA) (OEM) (Track 96).bin" BINARY
  TRACK 96 AUDIO
    INDEX 00 00:00:00
    INDEX 01 00:01:73
FILE "Tuneland (USA) (OEM) (Track 97).bin" BINARY
  TRACK 97 AUDIO
    INDEX 00 00:00:00
    INDEX 01 00:01:73
FILE "Tuneland (USA) (OEM) (Track 98).bin" BINARY
  TRACK 98 AUDIO
    INDEX 00 00:00:00
    INDEX 01 00:01:73

<?xml version="1.0" encoding="UTF-8"?>
<!DOCTYPE datafile PUBLIC "-//Logiqx//DTD ROM Management Datafile//EN" "http://www.logiqx.com/Dats/datafile.dtd">
<datafile>
  <header>
    <name>-insert name-</name>
    <description>-insert description-</description>
    <version>-insert version-</version>
    <date>-insert date-</date>
    <author>-insert author-</author>
    <homepage>-insert homepage-</homepage>
    <url>-insert url-</url>
  </header>
  <game name="Release_ANSI">
    <category>Games</category>
    <description>Release_ANSI</description>
    <rom name="Tuneland (USA) (OEM) (Track 01).bin" size="134995392" crc="c3468d08" md5="df70e58e1d4a445ba2cce4f8efcd9d57" sha1="6ee49e546b06e3e7bfe027339d39db824a2f3d09" />
    <rom name="Tuneland (USA) (OEM) (Track 02).bin" size="2989392" crc="0a2530c5" md5="576438ce981ead776225ccd2def35b34" sha1="1e18e4a0345f58204535934f5cc4f3fc15dbb401" />
    <rom name="Tuneland (USA) (OEM) (Track 03).bin" size="12018720" crc="96077b9f" md5="c8e676533bab80fa5e08970fe2ceee7a" sha1="f2bad7a45e2132cec2b0ae31e55afbcd9c5fcf3f" />
    <rom name="Tuneland (USA) (OEM) (Track 04).bin" size="11966976" crc="d50572cb" md5="e38765e0311f3dd0049abfb3bddc946d" sha1="632ee87d5f6b131bbbf47d6fc3cbe25b3c4aef74" />
    <rom name="Tuneland (USA) (OEM) (Track 05).bin" size="5971728" crc="d69016a9" md5="a6a7930f0ac0c36a6255531673107fe7" sha1="0d8586dcde459d44dab69f79e30bde2bbabacac0" />
    <rom name="Tuneland (USA) (OEM) (Track 06).bin" size="4965072" crc="8592575d" md5="0ffd51a47618f8bf4a08c20c9cff6175" sha1="c4c460400a0c47d0d5767b424fb03c541cb396c5" />
    <rom name="Tuneland (USA) (OEM) (Track 07).bin" size="5174400" crc="83d28fcb" md5="bbfc7e0c2e033837fd2dee20e96bcc80" sha1="b6c4d31b3010c88a41115bf3c9ed0794b92bcee2" />
    <rom name="Tuneland (USA) (OEM) (Track 08).bin" size="7446432" crc="371dfe32" md5="4f3e2e7a1cc5ff31a4f958fec357dc23" sha1="e12badaf0c0e2e10a3c40570ea7eeb4978873715" />
    <rom name="Tuneland (USA) (OEM) (Track 09).bin" size="5741232" crc="abe85b76" md5="e0bd73f0fc6bd5d396837ee2421505bc" sha1="b00253e72f7d2cdac406cab7867a0982e206b998" />
    <rom name="Tuneland (USA) (OEM) (Track 10).bin" size="7752192" crc="5ad201c1" md5="4618533c22ce92f905e8e33d9a3f2625" sha1="0e152ba22839da14f9355744709aed61dddad02f" />
    <rom name="Tuneland (USA) (OEM) (Track 11).bin" size="8549520" crc="5c113fc4" md5="da4231c0a0e8acc66b0027f06a0d9e75" sha1="df127249c7796f0c6632e1ab488bf095b502bc8e" />
    <rom name="Tuneland (USA) (OEM) (Track 12).bin" size="8048544" crc="77145b88" md5="43b23af2e7858351f6f13f042b853108" sha1="e980f9606a9d7e16726c305f785584c09749bdb4" />
    <rom name="Tuneland (USA) (OEM) (Track 13).bin" size="4795728" crc="187eff6f" md5="6afa14e350f18c335e462125c0c912af" sha1="4088d4d4eee2c801882d0b4cf0d9063aa93a7aea" />
    <rom name="Tuneland (USA) (OEM) (Track 14).bin" size="8003856" crc="dbab37be" md5="f2032fcbd1ab6e46a4da35c23ec35aae" sha1="e013134ec2ef004c3e154a0943ca7c46bf4b3924" />
    <rom name="Tuneland (USA) (OEM) (Track 15).bin" size="9064608" crc="f38620b2" md5="b7d9ee263107d36ccb67afbf63556dee" sha1="2c322988f29d61890c6818ee3cd964c91208b2b1" />
    <rom name="Tuneland (USA) (OEM) (Track 16).bin" size="5736528" crc="27688a94" md5="27407234c297f6a0a2ee4a07032d0bd8" sha1="da31548f68acedfd4a16e020b49014ea74546518" />
    <rom name="Tuneland (USA) (OEM) (Track 17).bin" size="8283744" crc="147060de" md5="0708d48c4d02365bd7ab9018dd12c1b3" sha1="bb6899e206b9c1ec80f32fd24ddeebe153320f95" />
    <rom name="Tuneland (USA) (OEM) (Track 18).bin" size="6566784" crc="523bdd8f" md5="997236812e57b241ef6509597599edca" sha1="640d09558d9e79a6ed05b81cd4e662d8ebc6cf4f" />
    <rom name="Tuneland (USA) (OEM) (Track 19).bin" size="6529152" crc="77b60a92" md5="2cdc4c6e163ba5ac9fe40abbbe4e2392" sha1="23ab6c2bb642e4d7a3ef190162c81378558db0ba" />
    <rom name="Tuneland (USA) (OEM) (Track 20).bin" size="4732224" crc="8d8d1f4d" md5="15d4af3032289199bae1dc0cdd7a71bd" sha1="92184300484c8635beb1dd08caa3223b4e3ce69d" />
    <rom name="Tuneland (USA) (OEM) (Track 21).bin" size="6418608" crc="0030cf13" md5="8462690328db119ae06b40dd25ea7364" sha1="2d0d1ee5f877fa408c4839729d1caaab168e549c" />
    <rom name="Tuneland (USA) (OEM) (Track 22).bin" size="8297856" crc="9aeb383f" md5="35a02aca7b18b85e13892d951bacaa3d" sha1="117909fb38e280e16000e09b7924e09e75320eb3" />
    <rom name="Tuneland (USA) (OEM) (Track 23).bin" size="8319024" crc="f99f83e7" md5="feaaf141ba37067f875394d438439822" sha1="af8d0723ffea495b07de9e62bbd3708213875d71" />
    <rom name="Tuneland (USA) (OEM) (Track 24).bin" size="7408800" crc="eb8ce8ef" md5="ae44b05cac5b45e0bc3b45db55f9b41d" sha1="638605bb59eac5f48b74938d9092133725c70db4" />
    <rom name="Tuneland (USA) (OEM) (Track 25).bin" size="4137168" crc="323c7c75" md5="da19a85c83e727bb5796f3af48baa74e" sha1="0939faf20f32d43a2ecdeebe866210d6f260c740" />
    <rom name="Tuneland (USA) (OEM) (Track 26).bin" size="7307664" crc="e1c9c15c" md5="fead71ce6b3bf59d223117d77e84f8cb" sha1="d6d74acb6054de84a248e1646405ba4dce912ff8" />
    <rom name="Tuneland (USA) (OEM) (Track 27).bin" size="9233952" crc="f5463cf3" md5="32733b2bbe90c8e58ca5fb5a9da7c074" sha1="3cbdb08c5344368eac59a13e2136e42ca2bb3e88" />
    <rom name="Tuneland (USA) (OEM) (Track 28).bin" size="7161840" crc="ffde394f" md5="4a19b6317e3bc167fb18e112e35c626e" sha1="4ee3c10fc38897c2259e7a78d81b3f4e3a74a856" />
    <rom name="Tuneland (USA) (OEM) (Track 29).bin" size="13641600" crc="ae1d3e58" md5="e80c233f8dcca1c162bc222697b92d88" sha1="54e4d57e016468f730dd58b100e8458ba29841cf" />
    <rom name="Tuneland (USA) (OEM) (Track 30).bin" size="6642048" crc="e48ec6d1" md5="3e39607312d5429943dd819d089cbfcf" sha1="e109256b33fa00aca138399728767199d4e651ad" />
    <rom name="Tuneland (USA) (OEM) (Track 31).bin" size="4974480" crc="234ee6b4" md5="34c5b0f929ee6459f7e8ec3637ba0c83" sha1="000f1aa7f6ba8838ac49f63257942ce8d52abc94" />
    <rom name="Tuneland (USA) (OEM) (Track 32).bin" size="8883504" crc="7a74d47e" md5="86045d7b540f7548a559e93158b558eb" sha1="586053b2e819c1ed6c421ec80689e113a6e863f7" />
    <rom name="Tuneland (USA) (OEM) (Track 33).bin" size="8297856" crc="238fc849" md5="2f938a4ac12b4b70f56e7486603c1c22" sha1="37827e0484b1a777be7946c66861d0e6aa08f1bf" />
    <rom name="Tuneland (USA) (OEM) (Track 34).bin" size="8055600" crc="d55f51d6" md5="e72ddee1ac7cad8edba84da71e5a8679" sha1="7c400c8d7e9a1957c47c8d213d1196506ee69bc1" />
    <rom name="Tuneland (USA) (OEM) (Track 35).bin" size="5468400" crc="46dd6371" md5="3ffcaa9fb1c185fbf866306e30ed1500" sha1="c2b20b25f6fc191237558b8e6ea220efc8d7ca91" />
    <rom name="Tuneland (USA) (OEM) (Track 36).bin" size="10123008" crc="d7e75b92" md5="ff8bc4ca773a6af20b31d95ad53ecbea" sha1="c2094ba6436034d5358c45c99c5d379a64d81ee4" />
    <rom name="Tuneland (USA) (OEM) (Track 37).bin" size="4981536" crc="7d6e6ecc" md5="d2b53dcda27a7abb2d89a8b72ab8a648" sha1="1ea7cf3dc02eecdafca748d22e5d4ca37a22b33e" />
    <rom name="Tuneland (USA) (OEM) (Track 38).bin" size="8307264" crc="3899bc96" md5="d3d2ea88265887d158057b137b74c071" sha1="2238f9a50e8d18ccbd176ece1e13c8c38a3e86d8" />
    <rom name="Tuneland (USA) (OEM) (Track 39).bin" size="6039936" crc="661a8fa8" md5="e48a88a7061c924931fbbd6059a59e2c" sha1="86fd42731c7dee9788fc7d548d5ce072a63a978e" />
    <rom name="Tuneland (USA) (OEM) (Track 40).bin" size="6924288" crc="5af9c37c" md5="4ca29931fb2c32ef29f8ee73e2474997" sha1="aa40a227ac2cb97d8c25e25d0fef01509bf041df" />
    <rom name="Tuneland (USA) (OEM) (Track 41).bin" size="7653408" crc="218f7c3b" md5="378f3c602c9dd60b87eee6ed4c2d97d8" sha1="91e6c1648cb33a0e81cf56a9bb7346a3b315d23b" />
    <rom name="Tuneland (USA) (OEM) (Track 42).bin" size="10306464" crc="e56ef366" md5="8678b02a10b320817992ba8729740659" sha1="2eb245ff494084326e2b1276e16502cb478eeeeb" />
    <rom name="Tuneland (USA) (OEM) (Track 43).bin" size="6312768" crc="64e701d6" md5="b580d40b319da0418cc0726d4ffa0151" sha1="fb163bdeeb59e0d8349b51ca151632272c69a2a0" />
    <rom name="Tuneland (USA) (OEM) (Track 44).bin" size="3417456" crc="16d8b105" md5="b9d06bab54291be0485716674f8fca6a" sha1="9b823e370ef4f04bc6fbef89a7ed5f9de855b028" />
    <rom name="Tuneland (USA) (OEM) (Track 45).bin" size="6571488" crc="edfa743a" md5="e00d26f3963f36edb16d75fd89bb6738" sha1="ace604a09c5fbe2aa26b3d10ab06bc6d0538d576" />
    <rom name="Tuneland (USA) (OEM) (Track 46).bin" size="7143024" crc="f2296845" md5="1568b0f13c5836e1a4932fa1932c6734" sha1="deedff364f09585084d8f0e11f43f81b6d5ee011" />
    <rom name="Tuneland (USA) (OEM) (Track 47).bin" size="1585248" crc="39eb061e" md5="fcd40eb988071502122e05fe1aa4d5d6" sha1="cabbd30f0b885b57bf5fa092cd94ab6df73da207" />
    <rom name="Tuneland (USA) (OEM) (Track 48).bin" size="8488368" crc="733b78f1" md5="8d4320a1f4941ab6d0618cbc6565d9fb" sha1="a468124b64ffe14f0b2db29879ae609d27761057" />
    <rom name="Tuneland (USA) (OEM) (Track 49).bin" size="2956464" crc="522840f4" md5="06b05f859763ca67b1eec01e65776f2f" sha1="3f5c2bade7628639ce022a51ee05cd797f4dc498" />
    <rom name="Tuneland (USA) (OEM) (Track 50).bin" size="3245760" crc="29abdb35" md5="cdcab5200da19e758465e63d8435010c" sha1="7fb2d711e57c9527c34e917c30118539030f9273" />
    <rom name="Tuneland (USA) (OEM) (Track 51).bin" size="2321424" crc="875fe17f" md5="fcd6f8fcfec726e1f6e53ddf8efff6be" sha1="2c69ad35e08ea900d3a49d422631f393783f1816" />
    <rom name="Tuneland (USA) (OEM) (Track 52).bin" size="1860432" crc="4534c708" md5="144ec15190c7c90f3cbe367eb60577f4" sha1="8c54422525a2462a60140d15a4a23f289e01036b" />
    <rom name="Tuneland (USA) (OEM) (Track 53).bin" size="2415504" crc="13dc5bf9" md5="2da43ced78020158115a497e368eece3" sha1="ff681cf06c52f35edf35ced10d23fa351cc0baf7" />
    <rom name="Tuneland (USA) (OEM) (Track 54).bin" size="1968624" crc="31d74080" md5="b0587f5c1906bb1e42a2ab4ef724ad4a" sha1="e8bde833eee271f2e0d45c2196cac3ac667f6d94" />
    <rom name="Tuneland (USA) (OEM) (Track 55).bin" size="2718912" crc="d243d965" md5="8b488750d647af807d170c81f8f470da" sha1="0d4f6c06470566082d80ef12698f9086f069b809" />
    <rom name="Tuneland (USA) (OEM) (Track 56).bin" size="2399040" crc="52f75387" md5="7fb42cb61a1145606917068285f12976" sha1="21b7ba0813e25ffc938f578a4265f4c32bfd249d" />
    <rom name="Tuneland (USA) (OEM) (Track 57).bin" size="1907472" crc="4d547152" md5="d29faeef4963dfde3921e02ddb73add3" sha1="77b7a3131c7626026b36be4ac6bcc84381ef2812" />
    <rom name="Tuneland (USA) (OEM) (Track 58).bin" size="2001552" crc="66f893d6" md5="d46a07dcc6e7486ffb20f03f2db4f118" sha1="c7755b26a4d247e2dc4a09ba91650803c224fec9" />
    <rom name="Tuneland (USA) (OEM) (Track 59).bin" size="3379824" crc="e2b7a0b4" md5="9870c6c0af7a3a8caa362030a1a58cdd" sha1="2dff69af0137672fabdb71412f0cbaab9c455123" />
    <rom name="Tuneland (USA) (OEM) (Track 60).bin" size="6816096" crc="fad91e40" md5="b1ef55ef5a0c1c1619708760b37f0f40" sha1="7369bb118469b891cbd2c3cdfda0480117ba8a15" />
    <rom name="Tuneland (USA) (OEM) (Track 61).bin" size="4186560" crc="bf936475" md5="2804e4811594388ffa73703dc890899b" sha1="562ea68da7690471f4582ef55a25ce54e0c29e32" />
    <rom name="Tuneland (USA) (OEM) (Track 62).bin" size="3210480" crc="1f7d0394" md5="f15cf4262c13e8847887d90522024a87" sha1="82d9833a11e114ecd001e48aa07f634e36169582" />
    <rom name="Tuneland (USA) (OEM) (Track 63).bin" size="2272032" crc="4a60aee8" md5="7bf89435c80524d9e7221c88f6ffabaf" sha1="725cf8115758a10915047c52cfa06ea47c0933b4" />
    <rom name="Tuneland (USA) (OEM) (Track 64).bin" size="3222240" crc="30b0e55b" md5="3b08ce9a7f656756da14f29d0b614671" sha1="33031e4247ea719a589b895879eeb92f32e453f5" />
    <rom name="Tuneland (USA) (OEM) (Track 65).bin" size="3092880" crc="f7a3b778" md5="c72ab1bf1547a335e25e6b66db17751b" sha1="238c5857e017fa9b7c3eb90f12fd2240b8ab95bf" />
    <rom name="Tuneland (USA) (OEM) (Track 66).bin" size="3057600" crc="c3378fdb" md5="8b3b57db9e066598a341821a9f585ad3" sha1="254f896c5b406f19c3410b49325c300665829473" />
    <rom name="Tuneland (USA) (OEM) (Track 67).bin" size="3132864" crc="6fcfdf45" md5="44657b40d9adf9804b55d9ff85a22a9c" sha1="80d381d07223c655ba2eb24046fa5df3a10764a8" />
    <rom name="Tuneland (USA) (OEM) (Track 68).bin" size="4167744" crc="eea53ba1" md5="69b091b6fe8a26eb9be3dfeaa37758f2" sha1="ad86ab4712fc44f329dd5d9737429fb81faf7d2e" />
    <rom name="Tuneland (USA) (OEM) (Track 69).bin" size="1063104" crc="e760a5a9" md5="cf8e1469d90870e3b5b39eb84334550c" sha1="acc45eefd887464d6c9d16a7982324bc4a0029f7" />
    <rom name="Tuneland (USA) (OEM) (Track 70).bin" size="3417456" crc="d7154784" md5="738601e07525808801410281bf87b22c" sha1="003493efa4b4263b5696e8dc230fbdf90ae8827b" />
    <rom name="Tuneland (USA) (OEM) (Track 71).bin" size="2542512" crc="2edd6580" md5="6269cd2a47eccc5f40cd6f3ccd8d0c68" sha1="52d780f5198b0fde57eb20a49eb2be491621e324" />
    <rom name="Tuneland (USA) (OEM) (Track 72).bin" size="3154032" crc="37e7e17f" md5="e0c60f4bf551be5101233eea0893f90b" sha1="d841c2291dff67bcc28c9f245eaa66887eace5dc" />
    <rom name="Tuneland (USA) (OEM) (Track 73).bin" size="3085824" crc="c15bf6bc" md5="d4aef3dd743466cc290cb8031eaa8008" sha1="45cf58d938fb7077cdd0e2329d149eda6661d986" />
    <rom name="Tuneland (USA) (OEM) (Track 74).bin" size="3683232" crc="8f69b90c" md5="10e8c1636fb3cbb96e9ad804999be6b9" sha1="f9ef6cc2463f23c8c4bec006376330a3a5fd5138" />
    <rom name="Tuneland (USA) (OEM) (Track 75).bin" size="4755744" crc="36ba6da0" md5="c4cd37e1ab3248991d9b6bac6508d228" sha1="8f280eb5dc4da267285c7f44fdbd0bf6bcdd87cc" />
    <rom name="Tuneland (USA) (OEM) (Track 76).bin" size="1319472" crc="d989f50b" md5="4cb7590cede61cd2ee76a92bae5d8d82" sha1="6b1e7f6238bc2f4cb5a2841464d6f3970ef7b3eb" />
    <rom name="Tuneland (USA) (OEM) (Track 77).bin" size="3845520" crc="dd30284e" md5="81b8980ca83e7b2aca415e2abde38750" sha1="e01c728bad2735eb68ef4be24327121c182cd9f5" />
    <rom name="Tuneland (USA) (OEM) (Track 78).bin" size="1648752" crc="54e879c7" md5="b66a99a78a0c944564656e9322a01ee9" sha1="88bed012b12a6d53f09cc35ad6ac86e513ce8124" />
    <rom name="Tuneland (USA) (OEM) (Track 79).bin" size="1827504" crc="800c7886" md5="070a4d2f76062c6b62888310842041e7" sha1="351c832e8e63fd871fcedac6ab58c1f9fa395738" />
    <rom name="Tuneland (USA) (OEM) (Track 80).bin" size="3906672" crc="eeab4599" md5="cbb75a9392a3c24a3362ebb74791b8b9" sha1="65087bd7dec8c29326baeed8f037f9d9dccab73a" />
    <rom name="Tuneland (USA) (OEM) (Track 81).bin" size="5583648" crc="ceb8c662" md5="810e97a80c5c286d5c6efa002328362c" sha1="60d76357620f2ffeb2fe30201fbc9c15aaa25370" />
    <rom name="Tuneland (USA) (OEM) (Track 82).bin" size="4372368" crc="29604148" md5="ed4927a9a629e24f6d22e4db03f0ab93" sha1="dd66bda9bebd765a140c58216c0c20b4259c10ab" />
    <rom name="Tuneland (USA) (OEM) (Track 83).bin" size="15128064" crc="23cae19b" md5="ea9f0668b9bcc702fcf93cbee357aebf" sha1="f902040c37ccb0ca6dffcb042df8f8f5f37d4ebc" />
    <rom name="Tuneland (USA) (OEM) (Track 84).bin" size="2500176" crc="621a1a3c" md5="4dfa049b2cfdd14c7e25f5367aa786f4" sha1="ab6a8750a2856d8c6c10dc7f0d6f43d33a307d05" />
    <rom name="Tuneland (USA) (OEM) (Track 85).bin" size="1728720" crc="5bf962eb" md5="f2da2726b088ae1be5a1f80a369c7410" sha1="46aecf61edbec2641c506e98c34425f26af2a994" />
    <rom name="Tuneland (USA) (OEM) (Track 86).bin" size="3069360" crc="3b4e765c" md5="feaa43a4255dc3408d22acdce4b94d07" sha1="a1eefcbfded73e16f908cec1a3c607444eaa30bf" />
    <rom name="Tuneland (USA) (OEM) (Track 87).bin" size="3657360" crc="9c846658" md5="0235cb3f9e27638c1a6fc4d62bd27deb" sha1="320f42e682523948f3ae5506aa402dd050e66bd7" />
    <rom name="Tuneland (USA) (OEM) (Track 88).bin" size="4544064" crc="5f1d9e59" md5="9f3d0019f3b65e3f14e23381dd8dab3e" sha1="41f9ba6a96e088d3d6f0bf546eba0cd7f7f1bcd1" />
    <rom name="Tuneland (USA) (OEM) (Track 89).bin" size="2798880" crc="0d6af31f" md5="db96076d0d5b9b6850f267d86bc05b0e" sha1="56cbc48d82194995c0b39784fc3e656738cdb9a9" />
    <rom name="Tuneland (USA) (OEM) (Track 90).bin" size="3553872" crc="58ea5c32" md5="73cadeb80241d3071a381ef820d22e7a" sha1="b995bbf7f12fd1f43b9ac5220ac8731f99726ab4" />
    <rom name="Tuneland (USA) (OEM) (Track 91).bin" size="2970576" crc="0a9696ca" md5="1b410f3a3721898123d662aa0ae0573f" sha1="149ba9c785f9848e90892179780f0a80628e937a" />
    <rom name="Tuneland (USA) (OEM) (Track 92).bin" size="1493520" crc="9f96ed1c" md5="89a2c3e914f1f6fc499c35498f6d662e" sha1="3938975c0c793c33713b98d0121f448333beff3e" />
    <rom name="Tuneland (USA) (OEM) (Track 93).bin" size="1484112" crc="8d587ad6" md5="cce8103bddad5e4b4f08b6404ab28f53" sha1="29a9d488a0831fda73a2a0a12e75e0648ebb229e" />
    <rom name="Tuneland (USA) (OEM) (Track 94).bin" size="2105040" crc="d87e2d45" md5="09f766b9a5a063d9d607931c2e5a46fb" sha1="a5a22a2252f9aec6186f260af74de1a05c8f68bc" />
    <rom name="Tuneland (USA) (OEM) (Track 95).bin" size="1524096" crc="6234f2e2" md5="71b0cf67796aa87d41d68ab8419b4818" sha1="86e6ea35e99e369e660ee62570c362aa8dc8b9e8" />
    <rom name="Tuneland (USA) (OEM) (Track 96).bin" size="1564080" crc="1b1201f1" md5="88e93b825511527dc3b76332de8482b1" sha1="fdc336e3a01155b58bdd54392ddb5b146ab32d42" />
    <rom name="Tuneland (USA) (OEM) (Track 97).bin" size="1477056" crc="05103d46" md5="c74d0f1121aa0efad57eecaf1e0d0ee8" sha1="d1393e6ddc2adc33d3b53d122f9eb597eab6eac1" />
    <rom name="Tuneland (USA) (OEM) (Track 98).bin" size="1491168" crc="180330ec" md5="2edd7673e2eb167e4ad5504614e6b6f8" sha1="9d046a78f0333620f2f2450517c73a829fd24d5d" />
  </game>
</datafile>


Logs:

https://mega.nz/#!bxIw0YSZ!Mn5KUuDTgSx1 … XMr7Boho5U

OR

http://www113.zippyshare.com/v/RtfycWJB/file.html

8

(10 replies, posted in General discussion)

I have some original Xbox discs. This is what appears on LBA 16 of Halo CE 1.02:

0320 : 00 00 00 00 00 00 00 00  00 00 00 00 00 32 30 30   .............200
0330 : 31 30 39 31 33 31 30 34  32 35 35 30 30 30 30 30   1091310425500000
0340 : 30 30 30 30 30 30 30 30  30 30 30 30 30 30 30 30   0000000000000000
0350 : 30 30 30 30 30 30 30 30  30 30 30 30 30 30 30 30   0000000000000000
0360 : 30 30 30 30 30 30 30 30  30 30 30 30 30 30 30 30   0000000000000000
0370 : 30 01 00 53 65 63 44 75  61 6C 4C 61 79 65 72 53   0..SecDualLayerS
0380 : 74 61 72 74 3D 30 30 30  30 36 38 33 32 00 00 00   tart=00006832...

That looks like a PVD to me.

Jackal wrote:

IsoBuster needs to be set to 'local file stamp' (in Options > File System settings)


Using that method, all the dates match. I had the feeling that I was doing something wrong.

Speaking of doing things wrong, I have a question about the fields in the PSX database, as we don't seem to have a guide that covers them all.

For the "EDC" field, I've noticed that one of my dumps contains the line "[INFO] Number of sector(s) where while user data does match the expected ECC/EDC there is no EDC: 23456" in the "_edcecc.txt" file. Should "EDC" be "No" for such discs?

I only own four PSX discs. However, I went to the trouble of reading the ringcodes for all four of them.

However, I've noticed an odd trend.

Three of my four discs have the EXE date off by one day. All of them match the database.


Alundra (USA) (1.0)
http://redump.org/disc/12535/

The Database's EXE date is 1997-11-29. My copy has it as 1997-11-28

Tekken 3 (USA)
http://redump.org/disc/1464/

The Database's EXE date is 1998-03-31. My copy has it as 1998-03-30


Tiger Woods 99 PGA Tour Golf (1.1)
http://redump.org/disc/13988/

The Database's EXE date is  1998-10-29. My copy has it as 1998-10-28


My copy of Spyro 2 has a matching date.

Is this a time zone issue? I live in the Eastern Standard Time zone (UTC-5). I've heard that many early PSX dumpers were European. That might be the problem.

Okay. I'm using subdump mode 0 right now. I'll use mode 1 2 4 and 5 after that one

Does it matter if I use "subdump_fua_0x28.exe" or "subdump_fua_0xa8.exe"? I'm currently using the 0x28 version.

sarami wrote:

_sub.txt
*snip*
ctl/adr(41) is changed to 61 per 4 sectors. It's weird. Please check by subdump.

What is the proper command line to use in this situation? I've never used subdump before.

reentrant pointed out that this disc might have some problems, so I grabbed a copy I happened to have and redumped it.

Seeing as the Ring Code is the same, I'm inclined to believe that the previous dump was a bad dump.


Title: 3-D Ultra Pinball - Creep Night (USA) (Rerelease)
http://redump.org/disc/11577/
Languages: English
Serial: Not on Disc label
Mastering Ring Code: 24567 5 6 <8093> S5250430 CD-ROM BY SIERRA
Mastering SID Code: IFPI L487
Mould SID Code: IFPI 8153
Toolstamp: None
Additional Mould Text: AD/CA (this appears in the clear area, on the opposite side of the disc as the mould SID)
Barcode: 0 20626 70428 1
Errors Count:

[ERROR] Number of sector(s) where sync is zero: 1
    Sector: 165310, 
Total errors: 1

Comments: 
ISBN: 0-87177-771-1
Contents: 

Contains demos for: 3-D Ultra Pinball, Hunter Hunted, Cyber Gladiators, and RMAA
Version:

Editions/Releases: Rerelease
PVD:

0320 : 20 20 20 20 20 20 20 20  20 20 20 20 20 31 39 39                199
0330 : 37 31 30 31 36 30 38 33  31 31 38 30 30 00 31 39   7101608311800.19
0340 : 39 37 31 30 31 36 30 38  33 31 31 38 30 30 00 32   97101608311800.2
0350 : 30 30 37 31 30 31 34 30  38 33 31 31 38 30 30 00   007101408311800.
0360 : 31 39 39 37 31 30 31 36  30 38 33 31 31 38 30 30   1997101608311800
0370 : 00 01 00 00 00 00 00 00  00 00 00 00 00 00 00 00   ................

Copy Protection: None

ClrMamePRo data: 
<rom name="3-D Ultra Pinball - Creep Night (USA) (Rerelease) (Track 1).bin" size="388811472" crc="93cac44b" md5="2623381c1d2291876d6fcb10a7a6fb8e" sha1="fce385a531dace7fa6279845336622bb6a7af0b6" />
    <rom name="3-D Ultra Pinball - Creep Night (USA) (Rerelease) (Track 2).bin" size="14448336" crc="9d03a113" md5="0e587334ff51ecf63c25b5f4ff69c31d" sha1="f6cc496427685113e8891745d504f168a129e1d1" />
    <rom name="3-D Ultra Pinball - Creep Night (USA) (Rerelease) (Track 3).bin" size="14269584" crc="51798c03" md5="243c15573c9c167139cc0099046bee65" sha1="9f5f9197905c5860cbc5499e2d0dc826ab751f16" />
Cuesheet: 

FILE "3-D Ultra Pinball - Creep Night (USA) (Rerelease) (Track 1).bin" BINARY
  TRACK 01 MODE1/2352
    FLAGS DCP
    INDEX 01 00:00:00
FILE "3-D Ultra Pinball - Creep Night (USA) (Rerelease) (Track 2).bin" BINARY
  TRACK 02 AUDIO
    FLAGS DCP
    INDEX 00 00:00:00
    INDEX 01 00:01:74
FILE "3-D Ultra Pinball - Creep Night (USA) (Rerelease) (Track 3).bin" BINARY
  TRACK 03 AUDIO
    FLAGS DCP
    INDEX 00 00:00:00
    INDEX 01 00:01:74

Write Offset: 0

Link to logs: https://mega.nz/#!3tZ1HIRI!-xPWWHD6-m4_ … R9a_-AfT9A

14

(1,229 replies, posted in General discussion)

I have a bug to report about DIC.

I have two disc drives, a Plextor and a Blu-Ray drive.  I use the Plextor to dump CDs and the Blu-Ray drive to dump DVDs.

However, I have never had any sucess in trying to use two instances of DIC at once.

To be extra careful, I downloaded an extra copy of DIC and placed it in a different directory, and tried to run it while the original DIC was dumping a disc.

I got the error "[F:main][L:1077] GetLastError: 183, Cannot create file when that file already exists."

Do you think you could fix this?

15

(7 replies, posted in General discussion)

I don't live in the UK, so I can't really offer much useful advice about buying a Plextor.

However, I can offer advice about getting an IDE adapter.

First off, I've had a lot more success getting SATA to IDE adapters running than USB to IDE adapters.

I'm currently using this Syba brand SATA to IDE adatper: https://www.amazon.com/gp/product/B002O … &psc=1

However, I can't seem to find that exact product on amazon.co.uk, but this device looks suspiciously similar: https://www.amazon.co.uk/StarTech-Bi-Di … de+adapter

Of course,  you'll want to make sure that your power supply has Molex/4-pin power outlets. Otherwise, you'll need to buy a SATA power to Molex adapter in order to power the drive and the adapter.

Also, I'd like to warn you and anyone else who may be reading to NEVER buy this product: https://www.amazon.com/gp/product/B00BI … &psc=1

I can't go into detail right now, but all you need to know is that it failed on me.

Also, Kludge is a UK based dumper who apparently owns multiple Plextors. You might be able to convince him to part with one of them for cheap-ish if you ask nicely.