Bump.

CD-R. Pinachet. http://psxforever.info/team/pinachet

F1ReB4LL wrote:

Тогда надо указывать, что CD-R smile

Ок. Думал, что достаточно будет того, что в комментарии указал название конторы-издателя. По моему, ВСЕ их диски писались на CD-R. Тут немного информации по ним: http://psxforever.info/team/pinachet

F1ReB4LL wrote:

No ringcodes?

Не думаю, что имеет смысл указывать "ринг коды" для Pinachet-изданий, так как эта контора использовала обычные болванки, и на каждой такой болванке, естественно, будет свой индивидуальный номер.

К примеру на первом диске он вот такой. Плохо видно, знаю. Если нужен, то напишу. А на втором диске номера вообще нет.

http://www.imageup.ru/img186/3213906/img_20181116_055107.jpg

Насчёт других изданий сказать не могу, пока не попались мне ещё.

Up. Not was added.

Up. Not was added.

Title: Pesni iz Kino
Alternate title: Песни из кино
System: Sony PlayStation
Media: CD
Category: Multimedia
Region: Russia
Languages: Russian
Edition: Original
Serial: Unlicensed
EXE date (yyyy-mm-dd): 2002-09-24 (PSX.EXE)
EDC: Yes
LibCrypt: No
Anti-modchip: No
Number of tracks: 1
Errors count: 0

Ring:
Mastering Code (Ringcode): *"CDCom VIDEO COMPANY"* SPS-PIK

Barcode:
4 601449 701969

Comments:
Video karaoke disc.

Tracklist:
1. А напоследок я скажу
2. Всё равно ты будешь мой
3. Если у вас нету тёти
4. Зурбаган
5. Куплеты Курочкина
6. Любимый город
7. Ой, при лужку, при лужке
8. Разговор со счастьем
9. Песня про зайцев
10. Помоги мне
11. Постой, паровоз
12. Старый клён
13. У беды глаза зелёные
14. Этот мир
15. Я шагаю по Москве

Hashes:
File: Pesni iz Kino (Russia).bin
MD5: 19654a7b47311229268f804c230e46ff
SHA1: 5173cd787cec7b11793e432a64172b9bcc9b2510
CRC32: a4f86297
Size: 570635184

CUE:
FILE "Pesni iz Kino (Russia).bin" BINARY
  TRACK 01 MODE2/2352
    INDEX 01 00:00:00

***

Title: Vzlomchik Kodov 9000
Alternate title: Взломщик кодов 9000
System: Sony PlayStation
Media: CD
Category: Aplications
Region: Russia
Languages: Russian
Edition: Original
Version: 2.9
Serial: Unlicensed
EXE date (yyyy-mm-dd): 2000-03-25 (PSX.EXE)
EDC: No
LibCrypt: No
Anti-modchip: No
Number of tracks: 1
Errors count: 0

Ring:
Mastering Code (Ringcode): VZLOMCHIK_CODOV_9000
Additional Mould Text: RMG Company Лицензия МПТР России ВАФ №77-18

Comments:
Developed and distributed by Simba's Videogames LTD. (ООО "Видеоигра").

Hashes:
File: Vzlomchik Kodov 9000 (Russia) (v2.9).bin
MD5: 23aa010f714be735ef352a1610474c8a
SHA1: 4d9d2868386af01cf5002ab088b54595fce78e9d
CRC32: 03da089c
Size: 230053824

CUE:
FILE "Vzlomchik Kodov 9000 (Russia) (v2.9).bin" BINARY
  TRACK 01 MODE2/2352
    INDEX 01 00:00:00

Title: Randevu s Neznakomkoy 2
Alternate title: Рандеву с незнакомкой 2
System: Sony PlayStation
Media: CD
Disc: 1 of 2
Category: Games
Region: Russia
Languages: Russian
Edition: Original
Serial: Unlicensed
EXE date (yyyy-mm-dd): 2001-06-27
EDC: Yes
LibCrypt: No
Anti-modchip: No
Number of tracks: 1
Errors count: 0

Comments:
Developed for IBM PC by ExE-Soft.
Ported for Sony PlayStation by Русские Версии.
Distributed by Pinachet.

Hashes:
File: Randevu s Neznakomkoy 2 (Russia) (Disc 1).bin
MD5: 5d5d0c9766af27d78069bf5dfffa7239
SHA1: f10d945612f0e248ecaf39499c05d739a515eb62
CRC32: 8d132d20
Size: 706778352

CUE:
FILE "Randevu s Neznakomkoy 2 (Russia) (Disc 1).bin" BINARY
  TRACK 01 MODE2/2352
    INDEX 01 00:00:00

***

Title: Randevu s Neznakomkoy 2
Alternate title: Рандеву с незнакомкой 2
System: Sony PlayStation
Media: CD
Disc: 2 of 2
Category: Games
Region: Russia
Languages: Russian
Edition: Original
Serial: Unlicensed
EXE date (yyyy-mm-dd): 2001-06-27
EDC: Yes
LibCrypt: No
Anti-modchip: No
Number of tracks: 1
Errors count: 0

Comments:
Developed for IBM PC by ExE-Soft.
Ported for Sony PlayStation by Русские Версии.
Distributed by Pinachet.

Hashes:
File: Randevu s Neznakomkoy 2 (Russia) (Disc 2).bin
MD5: 747ebd77a82b69a395bb71a7c40341d1
SHA1: 015901d7b0d1ebe1468470a72dbbd97e318b111d
CRC32: c59a4bfa
Size: 817101264

CUE:
FILE "Randevu s Neznakomkoy 2 (Russia) (Disc 2).bin" BINARY
  TRACK 01 MODE2/2352
    INDEX 01 00:00:00

***

NOTE: 3 different editions (maybe more!) was released in Russia - original by Русские Диски, re-release by Pinachet, re-release by Megera. All must be dumped. This is Pinachet edition dumps! http://psxforever.info/ps/randevu-s-neznakomkoj-2

Title: Randevu s Neznakomkoy
Alternate title: Рандеву с незнакомкой
System: Sony PlayStation
Media: CD
Disc: 1 of 2
Category: Games
Region: Russia
Languages: English, Russian
Edition: Original
Serial: Unlicensed
EXE date (yyyy-mm-dd): 2000-12-10 (RANDEVU.EXE)
EDC: Yes
LibCrypt: No
Anti-modchip: No
Number of tracks: 1
Errors count: 0

Comments:
Developed for IBM PC by ExE-Soft.
Ported for Sony PlayStation by Русские Версии.
Distributed by Pinachet.

Hashes:
File: Randevu s Neznakomkoy (Russia) (Disc 1).bin
MD5: ec8b8ec29385c0e0eb8627c3979f5c44
SHA1: a82d50faec6be80f794e4a661f2fd09c9f8f0db0
CRC32: 47024857
Size: 774403056

CUE:
FILE "Randevu s Neznakomkoy (Russia) (Disc 1).bin" BINARY
  TRACK 01 MODE2/2352
    INDEX 01 00:00:00

***

Title: Randevu s Neznakomkoy
Alternate title: Рандеву с незнакомкой
System: Sony PlayStation
Media: CD
Disc: 2 of 2
Category: Games
Region: Russia
Languages: English, Russian
Edition: Original
Serial: Unlicensed
EXE date (yyyy-mm-dd): 2000-12-10 (RANDEVU.EXE)
EDC: Yes
LibCrypt: No
Anti-modchip: No
Number of tracks: 1
Errors count: 0

Comments:
Developed for IBM PC by ExE-Soft.
Ported for Sony PlayStation by Русские Версии.
Distributed by Pinachet.

Hashes:
File: Randevu s Neznakomkoy (Russia) (Disc 2).bin
MD5: e5ab1b44853335bbd950731db95bfd12
SHA1: bb78f4556bc87f8f086e1a43e00817c94d824d77
CRC32: eb9ff163
Size: 776980848

CUE:
FILE "Randevu s Neznakomkoy (Russia) (Disc 2).bin" BINARY
  TRACK 01 MODE2/2352
    INDEX 01 00:00:00

***

NOTE: 3 different editions (maybe more!) was released in Russia - original by Русские Диски, re-release by Pinachet, re-release by Megera. All must be dumped. This is Pinachet edition dumps! http://psxforever.info/ps/randevu-s-neznakomkoj

10

(1 replies, posted in General discussion)

Hi, guys! Where I may find guide for dumping VCD? DIC support VCD standart?

Some rare demos and betas already dumped.
Moderators, please check list in first post, added missing to WIKI page, and move that topic to History already. smile

12

(1 replies, posted in Fixes & additions)

http://redump.org/disc/47407/
Why market as Disc 1? That game is single-disc..., like original edition http://redump.org/disc/15190/

***

http://redump.org/disc/46194/ FIXED!
Liberogrande or LiberoGrande as retail edition http://redump.org/disc/5596/ ? If someone trust titles printed on discs, so that http://redump.org/disc/47267/ must be renamed to Metalgear Solid. smile Sometimes in Europe on discs titles printed with errors, without spaces, etc. As example, http://redump.org/disc/496/ - Nemisis. smile

У меня еще много чего незадампленного лежит. Вообще я коллекционирую демки для PSX, по большей части японских. Доберусь до них как-нибудь. smile

Ок. Бог с ними, со спорными дампами. Китайский фонарик покупать я все же не стану, лучше возьму что-нибудь посерьезнее. Диски, которые я дампил в темах выше, в любом случае я выставил на продажу, и пусть их в итоге проверяют другие дамперы - уверен, что дампы сняты корректно! Я снял с них образы, и образы совпали, но возможно где-то я не разглядел цифры  5 и 6 в ring code не верно, допускаю такую возможность. Каюсь в этом.

А образ Vigilante 8 Previewable Alpha Version Level 1 сделаю и выложу в ближайшее время, в любом случае. wink

Да, и у меня тоже опустились тогда руки... Видя как полтора месяца твоих трудов (снятие образов) так и висят на форуме, не добавляясь в базу данных, и никому до этого нет дела, начинаешь думать, а для кого я старался, зачем я тратил на это свое время.

Russian text. Не видел ответ. Ну фонарика китайского у меня и сейчас нет, увы. А вот привод Plextor, вроде даже по твоей наводке, я все же взял. Привод лежит без дела пока, ремонт в новой квартире под затянулся.

https://youtu.be/ChEa_F-Bdqs Взломал ее, кстати.

user7 wrote:

Thanks, I'm in!

Welcome back, user7!

Russian text: Просто видя как твои труды висят по году в форуме опускаются руки и нет желания дампить что-то новое. hmm

https://m.youtube.com/watch?v=ChEa_F-Bd … =mv-google

19

(31 replies, posted in General discussion)

mock wrote:

ひっとばっく
Hit Back

鈴木爆発
Suzuki Bakuhatsu

フォーミュラ・サーカス (体験版)
Formula Circus (Taikenban)

THX, mock!

20

(31 replies, posted in General discussion)

Need help with that titles:

SLPM-80252
http://s017.radikal.ru/i405/1512/1f/eaa87bf87d36t.jpg

SLPM-80565
http://s020.radikal.ru/i715/1512/68/d265ddad8fc2t.jpg

SLPM-80097
http://s004.radikal.ru/i205/1512/27/f1c47c8d2488t.jpg

PurePure Vol. 9 (Disc 2) (Official Catalog CD-ROM)
http://redump.org/disc/36351/

and

PlayStation Official Catalog CD-ROM
http://redump.org/disc/33690/

"Official Catalog CD-ROM" and "PlayStation Official Catalog CD-ROM"... A same discs with different serials, but with different Title... Both looking a same. Maybe "PurePure Vol. 9 (Disc 2) (Official Catalog CD-ROM)" -> "PurePure Vol. 9 (Disc 2) (PlayStation Official Catalog CD-ROM)". "PlayStation" printed on manual.

http://redump.org/disc/33690/ "PlayStation" printed on cover.

http://www.crimson-ceremony.net/lostrel … 1-jpn-pp09

Only after all my previous dumps/redumps/fixes/infos be added. tongue
http://forum.redump.org/topic/14816/fixes-additions/ smile

http://www.youtube.com/watch?v=ooyhg12VSQY

Hmmm... I have 4 japanese demos of Legaia Densetsu. Each with different serial. Thats be funny - Demo 1, Demo 2, Demo 3 and Demo 4. smile Here one of four http://redump.org/disc/35071/.

I'll check GT: Test Drive Disc title screen later.

Not solved yet. sad