51 (edited by xTMODx 2019-05-16 19:30:15)

it is a different error now
PX-716A
https://abload.de/img/1fejhi.jpg

PX-760A
https://abload.de/img/11hk6f.jpg

and the logs https://www.mediafire.com/file/9oj3vbc4 … 60.7z/file

sorry : http://www.mediafire.com/file/eq80y20l9 … st.7z/file

Dump is complete now but only track 2 is matching crc from the db.
In the cue file track 2 is Audio but should be Data/Mode 2.
_mainError.txt is 1,67gb big i will upload with it and without it
Dumped with PX-716A

https://abload.de/img/17vk9o.jpg

with _mainError.txt
https://ufile.io/76zmfz0o

without _mainError.txt
https://www.mediafire.com/file/xl7c12s6 … ut.7z/file

54 (edited by Jackal 2019-05-17 12:22:51)

It's this disc btw: http://redump.org/disc/39048/

The DIC Track01 .bin isn't divisible by 2352, so I guess there's still a bug somewhere.

REM SESSION 01
FILE "dump (Track 1).bin" BINARY
  TRACK 01 MODE1/2352
    INDEX 01 00:00:00
REM SESSION 02
FILE "dump (Track 2).bin" BINARY
  TRACK 02 AUDIO
    INDEX 00 00:00:00
    INDEX 01 23:07:05
FILE "dump (Track 3).bin" BINARY
  TRACK 03 AUDIO
    INDEX 00 00:00:00
    INDEX 01 00:01:74
REM LEAD-OUT 01:30:00
FILE "dump (Track 4).bin" BINARY
  TRACK 04 AUDIO
    INDEX 00 00:00:00
    INDEX 01 00:01:74

The LEAD-OUT seems to be in the wrong place also?

xTMODx wrote:
sarami wrote:

Some were fixed. http://www.mediafire.com/file/eq80y20l9 … st.7z/file
But perhaps all bug haven't fixed yet.

thanks it produce same result as the previous release

Thanks.

Jackal wrote:

The LEAD-OUT seems to be in the wrong place also?

Also fixed.

----
Some dumpers dump multisessional disc and lead-out length's is 6750 (01:30:00)
http://forum.redump.org/post/69590/#p69590
REM LEAD-OUT and REM LEAD-IN is still needed?

sarami wrote:

Some dumpers dump multisessional disc and lead-out length's is 6750 (01:30:00)
http://forum.redump.org/post/69590/#p69590
REM LEAD-OUT and REM LEAD-IN is still needed?

I would say YES. There is no guarantee that some discs won't be using non-standard ones.

PX-760A (+30), PX-W4824TA (+98), GSA-H42L (+667), GDR-8164B (+102), SH-D162D (+6), SOHD-167T (+12)

57 (edited by Jackal 2019-05-18 07:08:26)

sarami wrote:

Also fixed.

Fixed where? And what about the wrong track01 size? wink

sarami wrote:
xTMODx wrote:
sarami wrote:

Some were fixed. http://www.mediafire.com/file/eq80y20l9 … st.7z/file
But perhaps all bug haven't fixed yet.

thanks it produce same result as the previous release

Thanks.

Jackal wrote:

The LEAD-OUT seems to be in the wrong place also?

Also fixed.

----
Some dumpers dump multisessional disc and lead-out length's is 6750 (01:30:00)
http://forum.redump.org/post/69590/#p69590
REM LEAD-OUT and REM LEAD-IN is still needed?

oh wait i think i missed something. I only compared the .dat file and they looks same. but now i have checked the cues and it fixed some stuff.

old cue

REM SESSION 01
FILE "dump (Track 1).bin" BINARY
  TRACK 01 MODE1/2352
    INDEX 01 00:00:00
REM SESSION 02
FILE "dump (Track 2).bin" BINARY
  TRACK 02 AUDIO
    INDEX 00 00:00:00
    INDEX 01 23:07:05
FILE "dump (Track 3).bin" BINARY
  TRACK 03 AUDIO
    INDEX 00 00:00:00
    INDEX 01 00:01:74
REM LEAD-OUT 01:30:00
FILE "dump (Track 4).bin" BINARY
  TRACK 04 AUDIO
    INDEX 00 00:00:00
    INDEX 01 00:01:74

new cue

REM SESSION 01
FILE "dump (Track 1).bin" BINARY
  TRACK 01 MODE1/2352
    INDEX 01 00:00:00
REM LEAD-OUT 01:30:00
REM SESSION 02
FILE "dump (Track 2).bin" BINARY
  TRACK 02 MODE2/2352
    INDEX 00 00:00:00
    INDEX 01 23:07:05
FILE "dump (Track 3).bin" BINARY
  TRACK 03 AUDIO
    INDEX 00 00:00:00
    INDEX 01 00:01:74
FILE "dump (Track 4).bin" BINARY
  TRACK 04 AUDIO
    INDEX 00 00:00:00
    INDEX 01 00:01:74

59 (edited by xTMODx 2019-05-18 11:31:08)

Jackal wrote:
sarami wrote:

Also fixed.

Fixed where? And what about the wrong track01 size? wink

he send me the link with pm but he queoted it here http://www.mediafire.com/file/eq80y20l9 … st.7z/file

60 (edited by sarami 2019-05-19 05:59:09)

Uploaded test ver. (download's link is same.)

dumped with new version, it still doesnt match the db, here the log files
https://www.mediafire.com/file/r4l14zjv … /2.7z/file

62 (edited by xTMODx 2019-05-19 20:05:29)

sarami wrote:

Uploaded test ver. (download's link is same.)

download link is updated and it produce the hash from the db now. thanks

uploaded the log files, can someone check the log files if everything is fine now... the big "_mainError.txt" bug is fixed too

https://www.mediafire.com/file/jqyi2yvj … /3.7z/file