Re: DiscImageCreator

Slow reading in this case is a firmware issue, AFAIK.

Re: DiscImageCreator

sarami wrote:

Please tell me px_d8 log & dump data to cdtoimg (about sector 1-5) your PX-W1210TA (1.10) & PX-W2410TA (1.04)

Here is the px_d8 log and cdtoimg data: http://www.mediafire.com/?0yya05nd27pz842

The PX-W2410TA is the only drive still detecting the wrong CD offset, the PX-W1210TA is correct with the 1.10 firmware.

Re: DiscImageCreator

I bought below and tested.

The Crow: Original Motion Picture Soundtrack(82519-2)
Alanis Morissette - Jagged Little Pill(9362-459012)
WipEout 2097: The Soundtrack(7243 8 42226 2 8)

Surely, Jagged Little Pill and WipEout 2097 is R-W bit full and reading speed is very slow.
So, fixed it at 20130124ver.

Enker wrote:

The PX-W2410TA is the only drive still detecting the wrong CD offset

Previously, I had that drive, but I disposed of it... I want to buy it again.

29 (edited by pablogm123 2013-01-24 00:17:38)

Re: DiscImageCreator

Excellent, tested the new release. No more supermegaslow reading speed for such CDs.

I have noticed a possible bug. I have dumped two discs, the first one with DCP flag (Q-Control=2) and the second one with PRE flag (Q-Control=1), and the cue file isn't writed properly. FLA instead of FLAG DCP/PRE and the CR+LF.

FILE "pre (Track 01).bin" BINARY
  TRACK 01 MODE1/2352
    INDEX 01 00:00:00
FILE "pre (Track 02).bin" BINARY
  TRACK 02 AUDIO
    FLA    INDEX 00 00:00:00
    INDEX 01 00:02:00
FILE "pre (Track 03).bin" BINARY
  TRACK 03 AUDIO
    FLA    INDEX 00 00:00:00
    INDEX 01 00:02:00
FILE "pre (Track 04).bin" BINARY
  TRACK 04 AUDIO
    FLA    INDEX 00 00:00:00
    INDEX 01 00:02:00
FILE "pre (Track 05).bin" BINARY
  TRACK 05 AUDIO
    FLA    INDEX 00 00:00:00
    INDEX 01 00:02:00
FILE "pre (Track 06).bin" BINARY
  TRACK 06 AUDIO
    FLA    INDEX 00 00:00:00
    INDEX 01 00:02:00
FILE "pre (Track 07).bin" BINARY
  TRACK 07 AUDIO
    FLA    INDEX 00 00:00:00
    INDEX 01 00:02:00
FILE "pre (Track 08).bin" BINARY
  TRACK 08 AUDIO
    FLA    INDEX 00 00:00:00
    INDEX 01 00:02:00
FILE "pre (Track 09).bin" BINARY
  TRACK 09 AUDIO
    FLA    INDEX 00 00:00:00
    INDEX 01 00:02:00
FILE "pre (Track 10).bin" BINARY
  TRACK 10 AUDIO
    FLA    INDEX 00 00:00:00
    INDEX 01 00:02:00
FILE "pre (Track 11).bin" BINARY
  TRACK 11 AUDIO
    FLA    INDEX 00 00:00:00
    INDEX 01 00:02:00
FILE "pre (Track 12).bin" BINARY
  TRACK 12 AUDIO
    FLA    INDEX 00 00:00:00
    INDEX 01 00:02:00
FILE "pre (Track 13).bin" BINARY
  TRACK 13 AUDIO
    FLA    INDEX 00 00:00:00
    INDEX 01 00:02:00
FILE "pre (Track 14).bin" BINARY
  TRACK 14 AUDIO
    FLA    INDEX 00 00:00:00
    INDEX 01 00:02:00
FILE "pre (Track 15).bin" BINARY
  TRACK 15 AUDIO
    FLA    INDEX 00 00:00:00
    INDEX 01 00:02:00
FILE "pre (Track 16).bin" BINARY
  TRACK 16 AUDIO
    FLA    INDEX 00 00:00:00
    INDEX 01 00:02:00
FILE "pre (Track 17).bin" BINARY
  TRACK 17 AUDIO
    FLA    INDEX 00 00:00:00
    INDEX 01 00:02:00
FILE "pre (Track 18).bin" BINARY
  TRACK 18 AUDIO
    FLA    INDEX 00 00:00:00
    INDEX 01 00:02:00
FILE "pre (Track 19).bin" BINARY
  TRACK 19 AUDIO
    FLA    INDEX 00 00:00:00
    INDEX 01 00:02:00
FILE "pre (Track 20).bin" BINARY
  TRACK 20 AUDIO
    FLA    INDEX 00 00:00:00
    INDEX 01 00:02:00
FILE "dcp (Track 01).bin" BINARY
  TRACK 01 AUDIO
    FLA    INDEX 01 00:00:00
FILE "dcp (Track 02).bin" BINARY
  TRACK 02 AUDIO
    FLA    INDEX 00 00:00:00
    INDEX 01 00:02:00
FILE "dcp (Track 03).bin" BINARY
  TRACK 03 AUDIO
    FLA    INDEX 00 00:00:00
    INDEX 01 00:02:00
FILE "dcp (Track 04).bin" BINARY
  TRACK 04 AUDIO
    FLA    INDEX 00 00:00:00
    INDEX 01 00:02:00
FILE "dcp (Track 05).bin" BINARY
  TRACK 05 AUDIO
    FLA    INDEX 00 00:00:00
    INDEX 01 00:02:00
FILE "dcp (Track 06).bin" BINARY
  TRACK 06 AUDIO
    FLA    INDEX 00 00:00:00
    INDEX 01 00:02:00
FILE "dcp (Track 07).bin" BINARY
  TRACK 07 AUDIO
    FLA    INDEX 00 00:00:00
    INDEX 01 00:02:00
FILE "dcp (Track 08).bin" BINARY
  TRACK 08 AUDIO
    FLA    INDEX 00 00:00:00
    INDEX 01 00:02:00
FILE "dcp (Track 09).bin" BINARY
  TRACK 09 AUDIO
    FLA    INDEX 00 00:00:00
    INDEX 01 00:02:00
FILE "dcp (Track 10).bin" BINARY
  TRACK 10 AUDIO
    FLA    INDEX 00 00:00:00
    INDEX 01 00:02:00
FILE "dcp (Track 11).bin" BINARY
  TRACK 11 AUDIO
    FLA    INDEX 00 00:00:00
    INDEX 01 00:02:00

Also, I have tested a pressed CD with CD-Text. CD-Text data isn't written correctly. Example:

TITLE "Volkswagen Sounds"
PERFORMER "Dario Mendes (Go On) On)estra (Be Happy)"
FILE "cdtext (Track 01).bin" BINARY
  TRACK 01 AUDIO
    TITLE "God"
    FLA    INDEX 01 00:00:00
TITLE "Volkswagen Sounds"
PERFORMER "Dario Mendes (Go On) On)estra (Be Happy)"
FILE "cdtext (Track 02).bin" BINARY
  TRACK 02 AUDIO
    TITLE "One In A Millon"
    FLA    INDEX 01 00:00:00
TITLE "Volkswagen Sounds"
PERFORMER "Dario Mendes (Go On) On)estra (Be Happy)"
FILE "cdtext (Track 03).bin" BINARY
  TRACK 03 AUDIO
    TITLE "Umbrella"
    FLA    INDEX 01 00:00:00
TITLE "Volkswagen Sounds"
PERFORMER "Dario Mendes (Go On) On)estra (Be Happy)"
FILE "cdtext (Track 04).bin" BINARY
  TRACK 04 AUDIO
    TITLE "Bizarre Love Triangle"
    FLA    INDEX 01 00:00:00
TITLE "Volkswagen Sounds"
PERFORMER "Dario Mendes (Go On) On)estra (Be Happy)"
FILE "cdtext (Track 05).bin" BINARY
  TRACK 05 AUDIO
    TITLE "Yumenji's Theme"
    FLA    INDEX 01 00:00:00
TITLE "Volkswagen Sounds"
PERFORMER "Dario Mendes (Go On) On)estra (Be Happy)"
FILE "cdtext (Track 06).bin" BINARY
  TRACK 06 AUDIO
    TITLE "Sunny"
    FLA    INDEX 01 00:00:00
TITLE "Volkswagen Sounds"
PERFORMER "Dario Mendes (Go On) On)estra (Be Happy)"
FILE "cdtext (Track 07).bin" BINARY
  TRACK 07 AUDIO
    TITLE "When Will I See You"
    FLA    INDEX 01 00:00:00
TITLE "Volkswagen Sounds"
PERFORMER "Dario Mendes (Go On) On)estra (Be Happy)"
FILE "cdtext (Track 08).bin" BINARY
  TRACK 08 AUDIO
    TITLE "Mrs. Robinson"
    FLA    INDEX 01 00:00:00
TITLE "Volkswagen Sounds"
PERFORMER "Dario Mendes (Go On) On)estra (Be Happy)"
FILE "cdtext (Track 09).bin" BINARY
  TRACK 09 AUDIO
    TITLE "I Can See Clearly Now"
    FLA    INDEX 01 00:00:00
TITLE "Volkswagen Sounds"
PERFORMER "Dario Mendes (Go On) On)estra (Be Happy)"
FILE "cdtext (Track 10).bin" BINARY
  TRACK 10 AUDIO
    TITLE "The Pink Panther"
    FLA    INDEX 01 00:00:00
TITLE "Volkswagen Sounds"
PERFORMER "Dario Mendes (Go On) On)estra (Be Happy)"
FILE "cdtext (Track 11).bin" BINARY
  TRACK 11 AUDIO
    TITLE "All Star"
    FLA    INDEX 01 00:00:00
TITLE "Volkswagen Sounds"
PERFORMER "Dario Mendes (Go On) On)estra (Be Happy)"
FILE "cdtext (Track 12).bin" BINARY
  TRACK 12 AUDIO
    TITLE "If You Love Me"
    FLA    INDEX 01 00:00:00
TITLE "Volkswagen Sounds"
PERFORMER "Dario Mendes (Go On) On)estra (Be Happy)"
FILE "cdtext (Track 13).bin" BINARY
  TRACK 13 AUDIO
    TITLE "Hurdy Gurdy Man"
    FLA    INDEX 01 00:00:00
TITLE "Volkswagen Sounds"
PERFORMER "Dario Mendes (Go On) On)estra (Be Happy)"
FILE "cdtext (Track 14).bin" BINARY
  TRACK 14 AUDIO
    TITLE "Watermelon Man"
    FLA    INDEX 01 00:00:00
TITLE "Volkswagen Sounds"
PERFORMER "Dario Mendes (Go On) On)estra (Be Happy)"
FILE "cdtext (Track 15).bin" BINARY
  TRACK 15 AUDIO
    TITLE "Nabucco (Fragmento Obertura)"
    FLA    INDEX 01 00:00:00

The raw CD-Text data is dumped as expected in the .ccd file:

[CloneCD]
Version=3
[Disc]
TocEntries=18
Sessions=1
DataTracksScrambled=0
CDTextLength=1044
[CDText]
Entries=58
Entry 0=80 00 00 00 56 6f 6c 6b 73 77 61 67 65 6e 20 53
Entry 1=80 00 01 0c 6f 75 6e 64 73 00 47 6f 64 00 4f 6e
Entry 2=80 02 02 02 65 20 49 6e 20 41 20 4d 69 6c 6c 6f
Entry 3=80 02 03 0e 6e 00 55 6d 62 72 65 6c 6c 61 00 42
Entry 4=80 04 04 01 69 7a 61 72 72 65 20 4c 6f 76 65 20
Entry 5=80 04 05 0d 54 72 69 61 6e 67 6c 65 00 59 75 6d
Entry 6=80 05 06 03 65 6e 6a 69 27 73 20 54 68 65 6d 65
Entry 7=80 05 07 0f 00 53 75 6e 6e 79 00 57 68 65 6e 20
Entry 8=80 07 08 05 57 69 6c 6c 20 49 20 53 65 65 20 59
Entry 9=80 07 09 0f 6f 75 00 4d 72 73 2e 20 52 6f 62 69
Entry 10=80 08 0a 09 6e 73 6f 6e 00 49 20 43 61 6e 20 53
Entry 11=80 09 0b 07 65 65 20 43 6c 65 61 72 6c 79 20 4e
Entry 12=80 09 0c 0f 6f 77 00 54 68 65 20 50 69 6e 6b 20
Entry 13=80 0a 0d 09 50 61 6e 74 68 65 72 00 41 6c 6c 20
Entry 14=80 0b 0e 04 53 74 61 72 00 49 66 20 59 6f 75 20
Entry 15=80 0c 0f 07 4c 6f 76 65 20 4d 65 00 48 75 72 64
Entry 16=80 0d 10 04 79 20 47 75 72 64 79 20 4d 61 6e 00
Entry 17=80 0e 11 00 57 61 74 65 72 6d 65 6c 6f 6e 20 4d
Entry 18=80 0e 12 0c 61 6e 00 4e 61 62 75 63 63 6f 20 28
Entry 19=80 0f 13 09 46 72 61 67 6d 65 6e 74 6f 20 4f 62
Entry 20=80 0f 14 0f 65 72 74 75 72 61 29 00 00 00 00 00
Entry 21=81 00 15 00 56 61 72 69 6f 75 73 20 41 72 74 69
Entry 22=81 00 16 0c 73 74 73 00 4a 6f 68 6e 20 4c 65 6e
Entry 23=81 01 17 08 6e 6f 6e 20 28 42 65 20 51 75 69 65
Entry 24=81 01 18 0f 74 29 20 00 54 68 65 20 50 6c 61 74
Entry 25=81 02 19 08 74 65 72 73 20 28 42 65 20 51 75 69
Entry 26=81 02 1a 0f 65 74 29 00 44 6e 74 65 6c 20 28 42
Entry 27=81 03 1b 08 65 20 51 75 69 65 74 29 00 4f 75 74
Entry 28=81 04 1c 03 70 75 74 20 28 42 65 20 51 75 69 65
Entry 29=81 04 1d 0f 74 29 00 53 68 69 67 65 72 75 20 55
Entry 30=81 05 1e 09 6d 65 62 61 79 61 73 69 20 28 42 65
Entry 31=81 05 1f 0f 20 51 75 69 65 74 29 00 42 6f 62 62
Entry 32=81 06 20 04 79 20 48 65 62 62 20 28 42 65 20 48
Entry 33=81 06 21 0f 61 70 70 79 29 00 54 68 65 20 54 68
Entry 34=81 07 22 06 72 65 65 20 44 65 67 72 65 65 73 20
Entry 35=81 07 23 0f 28 42 65 20 48 61 70 70 79 29 00 53
Entry 36=81 08 24 01 69 6d 6f 6e 20 26 20 47 61 72 66 75
Entry 37=81 08 25 0d 6e 6b 65 6c 20 28 42 65 20 48 61 70
Entry 38=81 08 26 0f 70 79 29 00 52 6f 6f 6c 66 20 61 20
Entry 39=81 09 27 08 44 65 6c 69 63 73 20 28 42 65 20 48
Entry 40=81 09 28 0f 61 70 70 79 29 00 48 65 6e 72 79 20
Entry 41=81 0a 29 06 4d 61 6e 63 69 6e 69 20 26 20 48 69
Entry 42=81 0a 2a 0f 73 20 4f 72 63 68 65 73 74 72 61 20
Entry 43=81 0a 2b 0f 28 42 65 20 48 61 70 70 79 29 00 53
Entry 44=81 0b 2c 01 6d 61 73 68 20 4d 6f 75 74 68 20 28
Entry 45=81 0b 2d 0d 47 6f 20 4f 6e 29 00 54 68 65 20 50
Entry 46=81 0c 2e 05 61 75 6c 73 20 28 47 6f 20 4f 6e 29
Entry 47=81 0c 2f 0f 00 42 75 74 74 68 6f 6c 65 20 53 75
Entry 48=81 0d 30 0b 72 66 65 72 73 20 28 47 6f 20 4f 6e
Entry 49=81 0d 31 0f 29 00 44 61 72 69 6f 20 4d 65 6e 64
Entry 50=81 0e 32 0a 65 73 20 28 47 6f 20 4f 6e 29 00 48
Entry 51=81 0f 33 01 75 6e 67 61 72 69 61 6e 20 53 74 61
Entry 52=81 0f 34 0d 74 65 20 4f 70 65 72 61 20 4f 72 63
Entry 53=81 0f 35 0f 68 65 73 74 72 61 20 28 47 6f 20 4f
Entry 54=81 0f 36 0f 6e 29 00 00 00 00 00 00 00 00 00 00
Entry 55=8f 00 37 00 00 01 0f 00 15 22 00 00 00 00 00 00
Entry 56=8f 01 38 00 00 00 00 00 00 00 00 03 39 00 00 00
Entry 57=8f 02 39 00 00 00 00 00 09 00 00 00 00 00 00 00
[Session 1]
PreGapMode=0
PreGapSubC=0
[Entry 0]
Session=1
Point=0xa0
ADR=0x01
Control=0x00
TrackNo=0
AMin=0
ASec=0
AFrame=0
ALBA=-150
Zero=0
PMin=1
PSec=0
PFrame=0
PLBA=4350
[Entry 1]
Session=1
Point=0xa1
ADR=0x01
Control=0x02
TrackNo=0
AMin=0
ASec=0
AFrame=0
ALBA=-150
Zero=0
PMin=15
PSec=0
PFrame=0
PLBA=67350
[Entry 2]
Session=1
Point=0xa2
ADR=0x01
Control=0x00
TrackNo=0
AMin=0
ASec=0
AFrame=0
ALBA=-150
Zero=0
PMin=47
PSec=27
PFrame=21
PLBA=213396
[Entry 3]
Session=1
Point=0x01
ADR=0x01
Control=0x02
TrackNo=0
AMin=0
ASec=0
AFrame=0
ALBA=-150
Zero=0
PMin=0
PSec=2
PFrame=0
PLBA=0
[Entry 4]
Session=1
Point=0x02
ADR=0x01
Control=0x02
TrackNo=0
AMin=0
ASec=0
AFrame=0
ALBA=-150
Zero=0
PMin=4
PSec=12
PFrame=41
PLBA=18791
[Entry 5]
Session=1
Point=0x03
ADR=0x01
Control=0x02
TrackNo=0
AMin=0
ASec=0
AFrame=0
ALBA=-150
Zero=0
PMin=7
PSec=7
PFrame=3
PLBA=31878
[Entry 6]
Session=1
Point=0x04
ADR=0x01
Control=0x02
TrackNo=0
AMin=0
ASec=0
AFrame=0
ALBA=-150
Zero=0
PMin=11
PSec=50
PFrame=5
PLBA=53105
[Entry 7]
Session=1
Point=0x05
ADR=0x01
Control=0x02
TrackNo=0
AMin=0
ASec=0
AFrame=0
ALBA=-150
Zero=0
PMin=13
PSec=49
PFrame=29
PLBA=62054
[Entry 8]
Session=1
Point=0x06
ADR=0x01
Control=0x02
TrackNo=0
AMin=0
ASec=0
AFrame=0
ALBA=-150
Zero=0
PMin=16
PSec=19
PFrame=3
PLBA=73278
[Entry 9]
Session=1
Point=0x07
ADR=0x01
Control=0x02
TrackNo=0
AMin=0
ASec=0
AFrame=0
ALBA=-150
Zero=0
PMin=19
PSec=1
PFrame=48
PLBA=85473
[Entry 10]
Session=1
Point=0x08
ADR=0x01
Control=0x02
TrackNo=0
AMin=0
ASec=0
AFrame=0
ALBA=-150
Zero=0
PMin=21
PSec=59
PFrame=29
PLBA=98804
[Entry 11]
Session=1
Point=0x09
ADR=0x01
Control=0x02
TrackNo=0
AMin=0
ASec=0
AFrame=0
ALBA=-150
Zero=0
PMin=26
PSec=4
PFrame=51
PLBA=117201
[Entry 12]
Session=1
Point=0x0a
ADR=0x01
Control=0x02
TrackNo=0
AMin=0
ASec=0
AFrame=0
ALBA=-150
Zero=0
PMin=28
PSec=50
PFrame=14
PLBA=129614
[Entry 13]
Session=1
Point=0x0b
ADR=0x01
Control=0x02
TrackNo=0
AMin=0
ASec=0
AFrame=0
ALBA=-150
Zero=0
PMin=31
PSec=29
PFrame=26
PLBA=141551
[Entry 14]
Session=1
Point=0x0c
ADR=0x01
Control=0x02
TrackNo=0
AMin=0
ASec=0
AFrame=0
ALBA=-150
Zero=0
PMin=34
PSec=49
PFrame=58
PLBA=156583
[Entry 15]
Session=1
Point=0x0d
ADR=0x01
Control=0x02
TrackNo=0
AMin=0
ASec=0
AFrame=0
ALBA=-150
Zero=0
PMin=39
PSec=38
PFrame=65
PLBA=178265
[Entry 16]
Session=1
Point=0x0e
ADR=0x01
Control=0x02
TrackNo=0
AMin=0
ASec=0
AFrame=0
ALBA=-150
Zero=0
PMin=43
PSec=37
PFrame=70
PLBA=196195
[Entry 17]
Session=1
Point=0x0f
ADR=0x01
Control=0x02
TrackNo=0
AMin=0
ASec=0
AFrame=0
ALBA=-150
Zero=0
PMin=45
PSec=22
PFrame=58
PLBA=204058
[TRACK 1]
MODE=0
INDEX 1=0
[TRACK 2]
MODE=0
INDEX 1=18791
[TRACK 3]
MODE=0
INDEX 1=31878
[TRACK 4]
MODE=0
INDEX 1=53105
[TRACK 5]
MODE=0
INDEX 1=62054
[TRACK 6]
MODE=0
INDEX 1=73278
[TRACK 7]
MODE=0
INDEX 1=85473
[TRACK 8]
MODE=0
INDEX 1=98804
[TRACK 9]
MODE=0
INDEX 1=117201
[TRACK 10]
MODE=0
INDEX 1=129614
[TRACK 11]
MODE=0
INDEX 1=141551
[TRACK 12]
MODE=0
INDEX 1=156583
[TRACK 13]
MODE=0
INDEX 1=178265
[TRACK 14]
MODE=0
INDEX 1=196195
[TRACK 15]
MODE=0
INDEX 1=204058

These are the expected titles:
http://img201.imageshack.us/img201/3958/cdtext.png

On semi-vacation. MSF/AMSF to LBA/offset and viceversa calculator: link
To write properly occidental characters contained in japanese titles: screenshot
Spaces must be the fullwidth variant: link / screenshot

30 (edited by sarami 2013-02-04 14:44:58)

Re: DiscImageCreator

about Q Flag fix

Re: DiscImageCreator

Seems you are making some headway with this, I'll start testing it too then.

I have a PX-W1210A and a PX-W1610A also, I can test some things with it. I do know that px_d8 fails with certain discs. Firmwares are latest ones. I am not sure if it's a bug with px_d8 or if it's a problem with the firmware.

Plextor PX-760A 1.07 (+30) : Plextor PX-W5224A 1.04 (+30) : Plextor PX-W1210TA 1.10 (+99) : Plextor PX-W1610TA (+99) : Lite-On LTR-48246S (+6) : Lite-On LH-20A1H LL0DN (+6) : BenQ DW1655 BCIB (+618) :  ASUS DRW-2014L1 1.02 (+6) : Yamaha CRW-F1 (+733)

Re: DiscImageCreator

Tested the Unicode release. PRE/DCP written correctly:


FILE "pre (Track 01).bin" BINARY
  TRACK 01 MODE1/2352
    INDEX 01 00:00:00
FILE "pre (Track 02).bin" BINARY
  TRACK 02 AUDIO
    FLAGS PRE
    INDEX 00 00:00:00
    INDEX 01 00:02:00
FILE "pre (Track 03).bin" BINARY
  TRACK 03 AUDIO
    FLAGS PRE
    INDEX 00 00:00:00
    INDEX 01 00:02:00
FILE "pre (Track 04).bin" BINARY
  TRACK 04 AUDIO
    FLAGS PRE
    INDEX 00 00:00:00
    INDEX 01 00:02:00
FILE "pre (Track 05).bin" BINARY
  TRACK 05 AUDIO
    FLAGS PRE
    INDEX 00 00:00:00
    INDEX 01 00:02:00
FILE "pre (Track 06).bin" BINARY
  TRACK 06 AUDIO
    FLAGS PRE
    INDEX 00 00:00:00
    INDEX 01 00:02:00
FILE "pre (Track 07).bin" BINARY
  TRACK 07 AUDIO
    FLAGS PRE
    INDEX 00 00:00:00
    INDEX 01 00:02:00
FILE "pre (Track 08).bin" BINARY
  TRACK 08 AUDIO
    FLAGS PRE
    INDEX 00 00:00:00
    INDEX 01 00:02:00
FILE "pre (Track 09).bin" BINARY
  TRACK 09 AUDIO
    FLAGS PRE
    INDEX 00 00:00:00
    INDEX 01 00:02:00
FILE "pre (Track 10).bin" BINARY
  TRACK 10 AUDIO
    FLAGS PRE
    INDEX 00 00:00:00
    INDEX 01 00:02:00
FILE "pre (Track 11).bin" BINARY
  TRACK 11 AUDIO
    FLAGS PRE
    INDEX 00 00:00:00
    INDEX 01 00:02:00
FILE "pre (Track 12).bin" BINARY
  TRACK 12 AUDIO
    FLAGS PRE
    INDEX 00 00:00:00
    INDEX 01 00:02:00
FILE "pre (Track 13).bin" BINARY
  TRACK 13 AUDIO
    FLAGS PRE
    INDEX 00 00:00:00
    INDEX 01 00:02:00
FILE "pre (Track 14).bin" BINARY
  TRACK 14 AUDIO
    FLAGS PRE
    INDEX 00 00:00:00
    INDEX 01 00:02:00
FILE "pre (Track 15).bin" BINARY
  TRACK 15 AUDIO
    FLAGS PRE
    INDEX 00 00:00:00
    INDEX 01 00:02:00
FILE "pre (Track 16).bin" BINARY
  TRACK 16 AUDIO
    FLAGS PRE
    INDEX 00 00:00:00
    INDEX 01 00:02:00
FILE "pre (Track 17).bin" BINARY
  TRACK 17 AUDIO
    FLAGS PRE
    INDEX 00 00:00:00
    INDEX 01 00:02:00
FILE "pre (Track 18).bin" BINARY
  TRACK 18 AUDIO
    FLAGS PRE
    INDEX 00 00:00:00
    INDEX 01 00:02:00
FILE "pre (Track 19).bin" BINARY
  TRACK 19 AUDIO
    FLAGS PRE
    INDEX 00 00:00:00
    INDEX 01 00:02:00
FILE "pre (Track 20).bin" BINARY
  TRACK 20 AUDIO
    FLAGS PRE
    INDEX 00 00:00:00
    INDEX 01 00:02:00
TITLE "Volkswagen Sounds"
PERFORMER "Dario Mendes (Go On) On)estra (Be Happy)"
FILE "dcp+cdtext (Track 01).bin" BINARY
  TRACK 01 AUDIO
    TITLE "God"
    FLAGS DCP
    INDEX 01 00:00:00
TITLE "Volkswagen Sounds"
PERFORMER "Dario Mendes (Go On) On)estra (Be Happy)"
FILE "dcp+cdtext (Track 02).bin" BINARY
  TRACK 02 AUDIO
    TITLE "One In A Millon"
    FLAGS DCP
    INDEX 01 00:00:00
TITLE "Volkswagen Sounds"
PERFORMER "Dario Mendes (Go On) On)estra (Be Happy)"
FILE "dcp+cdtext (Track 03).bin" BINARY
  TRACK 03 AUDIO
    TITLE "Umbrella"
    FLAGS DCP
    INDEX 01 00:00:00
TITLE "Volkswagen Sounds"
PERFORMER "Dario Mendes (Go On) On)estra (Be Happy)"
FILE "dcp+cdtext (Track 04).bin" BINARY
  TRACK 04 AUDIO
    TITLE "Bizarre Love Triangle"
    FLAGS DCP
    INDEX 01 00:00:00
TITLE "Volkswagen Sounds"
PERFORMER "Dario Mendes (Go On) On)estra (Be Happy)"
FILE "dcp+cdtext (Track 05).bin" BINARY
  TRACK 05 AUDIO
    TITLE "Yumenji's Theme"
    FLAGS DCP
    INDEX 01 00:00:00
TITLE "Volkswagen Sounds"
PERFORMER "Dario Mendes (Go On) On)estra (Be Happy)"
FILE "dcp+cdtext (Track 06).bin" BINARY
  TRACK 06 AUDIO
    TITLE "Sunny"
    FLAGS DCP
    INDEX 01 00:00:00
TITLE "Volkswagen Sounds"
PERFORMER "Dario Mendes (Go On) On)estra (Be Happy)"
FILE "dcp+cdtext (Track 07).bin" BINARY
  TRACK 07 AUDIO
    TITLE "When Will I See You"
    FLAGS DCP
    INDEX 01 00:00:00
TITLE "Volkswagen Sounds"
PERFORMER "Dario Mendes (Go On) On)estra (Be Happy)"
FILE "dcp+cdtext (Track 08).bin" BINARY
  TRACK 08 AUDIO
    TITLE "Mrs. Robinson"
    FLAGS DCP
    INDEX 01 00:00:00
TITLE "Volkswagen Sounds"
PERFORMER "Dario Mendes (Go On) On)estra (Be Happy)"
FILE "dcp+cdtext (Track 09).bin" BINARY
  TRACK 09 AUDIO
    TITLE "I Can See Clearly Now"
    FLAGS DCP
    INDEX 01 00:00:00
TITLE "Volkswagen Sounds"
PERFORMER "Dario Mendes (Go On) On)estra (Be Happy)"
FILE "dcp+cdtext (Track 10).bin" BINARY
  TRACK 10 AUDIO
    TITLE "The Pink Panther"
    FLAGS DCP
    INDEX 01 00:00:00
TITLE "Volkswagen Sounds"
PERFORMER "Dario Mendes (Go On) On)estra (Be Happy)"
FILE "dcp+cdtext (Track 11).bin" BINARY
  TRACK 11 AUDIO
    TITLE "All Star"
    FLAGS DCP
    INDEX 01 00:00:00
TITLE "Volkswagen Sounds"
PERFORMER "Dario Mendes (Go On) On)estra (Be Happy)"
FILE "dcp+cdtext (Track 12).bin" BINARY
  TRACK 12 AUDIO
    TITLE "If You Love Me"
    FLAGS DCP
    INDEX 01 00:00:00
TITLE "Volkswagen Sounds"
PERFORMER "Dario Mendes (Go On) On)estra (Be Happy)"
FILE "dcp+cdtext (Track 13).bin" BINARY
  TRACK 13 AUDIO
    TITLE "Hurdy Gurdy Man"
    FLAGS DCP
    INDEX 01 00:00:00
TITLE "Volkswagen Sounds"
PERFORMER "Dario Mendes (Go On) On)estra (Be Happy)"
FILE "dcp+cdtext (Track 14).bin" BINARY
  TRACK 14 AUDIO
    TITLE "Watermelon Man"
    FLAGS DCP
    INDEX 01 00:00:00
TITLE "Volkswagen Sounds"
PERFORMER "Dario Mendes (Go On) On)estra (Be Happy)"
FILE "dcp+cdtext (Track 15).bin" BINARY
  TRACK 15 AUDIO
    TITLE "Nabucco (Fragmento Obertura)"
    FLAGS DCP
    INDEX 01 00:00:00
On semi-vacation. MSF/AMSF to LBA/offset and viceversa calculator: link
To write properly occidental characters contained in japanese titles: screenshot
Spaces must be the fullwidth variant: link / screenshot

33 (edited by pablogm123 2013-01-24 16:34:28)

Re: DiscImageCreator

I have tested a multisession disc, Blue Book standard. CUE file isn't created properly. The cue format file doesn't support multisession, but IsoBuster and ImgBurn can, extra officially, support it. I have dumped this Blue Book using ImgBurn and IsoBuster, and I have got identical dumps, but ImgBurn can previously detect gaps, ISRCs, MCN and other flags. Also, I have noticed that these programs fill the gap between the last sector of session 1 and first sector of session 2 with digital silence, to simulate the gap between both sessions.

Your software outputs this cue:

FILE "multisession (Track 1).bin" BINARY
  TRACK 01 AUDIO
    ISRC GBAAP0200496
    INDEX 01 00:00:00
FILE "multisession (Track 2).bin" BINARY
  TRACK 02 AUDIO
    ISRC GBAAP0200531
    INDEX 01 00:00:00
FILE "multisession (Track 3).bin" BINARY
  TRACK 03 AUDIO
    ISRC GBAAP0200408
    INDEX 01 00:00:00
FILE "multisession (Track 4).bin" BINARY
  TRACK 04 MODE2/2352
    INDEX 01 00:00:00

IsoBuster outputs:

FILE "CD.iso" BINARY

REM ORIGINAL MEDIA-TYPE: CD

  REM SESSION 01        ; Not supported by other applications (*)
    TRACK 01 AUDIO
      INDEX 01 00:00:00
      REM MSF: 00:00:00 = LBA: 0
    TRACK 02 AUDIO
      INDEX 01 03:27:66
      REM MSF: 03:27:66 = LBA: 15591
    TRACK 03 AUDIO
      INDEX 01 07:14:28
      REM MSF: 07:14:28 = LBA: 32578

  REM LEAD-OUT 11:01:20 ; Not supported by other applications (*)
  REM SESSION 02        ; Not supported by other applications (*)
    TRACK 04 MODE2/2352
      INDEX 01 13:33:20
      REM MSF: 13:33:20 = LBA: 60995

REM (*) SESSION directives are unfortunately not properly supported
REM     'out there'.  IsoBuster however supports them !

ImgBurn outputs:

FILE "DATA.BIN" BINARY
REM SESSION 01
    TRACK 01 AUDIO
      ISRC GBAAP0200496
      INDEX 01 00:00:00
    TRACK 02 AUDIO
      ISRC GBAAP0200531
      INDEX 01 03:27:66
    TRACK 03 AUDIO
      ISRC GBAAP0200408
      INDEX 01 07:14:28
  REM LEAD-OUT 11:01:20
REM SESSION 02
    TRACK 04 MODE2/2352
      INDEX 01 13:33:20
  REM LEAD-OUT 23:04:00
On semi-vacation. MSF/AMSF to LBA/offset and viceversa calculator: link
To write properly occidental characters contained in japanese titles: screenshot
Spaces must be the fullwidth variant: link / screenshot

Re: DiscImageCreator

fix cue file of CD-TEXT Disc.

about cue file of multi session disc:
I know it. But I don't fixing it at present.

35 (edited by Enker 2013-01-29 05:30:28)

Re: DiscImageCreator

Here are a few drive issues to make note of:

PX-W1210TA/PX-W2410TA (Data-only CDs):
Sense data, Key:Asc:Ascq:05:64:00(ILLEGAL_REQUEST. ILLEGAL MODE FOR THIS TRACK)

PX-W1210TA/PX-W2410TA (CDs without CD-TEXT):
Sense data, Key:Asc:Ascq:05:24:00(ILLEGAL_REQUEST. INVALID FIELD IN CDB)
CDTEXT on SCSIOP_READ_TOC
    Undefined CDROM_READ_TOC_EX_FORMAT_CDTEXT on this drive

PX-W2410TA (CDs with CD-TEXT):
Doesn't dump tracks correctly. Bad TOC MSF for last audio track (PX-W1210TA also has this issue).


These are issues with discimagecreator:

Crashes after running these commands (Tested 32bit):
DiscImageCreator.exe -c D:
DiscImageCreator.exe -s D:

End line issue:
DiscImageCreator.exe -split foo.dec
DiscImageCreator BuildDate:[Jan 28 2013 23:59:57]
Start -> 2013-01-28(Mon) 14:40:03
Split File(num)  5/ 5End -> 2013-01-28(Mon) 14:40:57

ReadMe.txt issue:
PX-W2410TA(PX-W2410A)    1.04    +686 is right
+98 is right, but -686 is needed for PerfectRip

Could you also add this issue to the first post?:
Program does not keep periods in the file name (v1.1 gets named as v1)

Re: DiscImageCreator

Thank you Enker.

Sense data, Key:Asc:Ascq:05:64:00(ILLEGAL_REQUEST. ILLEGAL MODE FOR THIS TRACK)

I get this too for PX-W1210TA and PX-W1610TA, but only for SOME discs, not all.

I think it is a firmware issue.

Does anyone have PX-W4012 and PX-W4220 to test?

Plextor PX-760A 1.07 (+30) : Plextor PX-W5224A 1.04 (+30) : Plextor PX-W1210TA 1.10 (+99) : Plextor PX-W1610TA (+99) : Lite-On LTR-48246S (+6) : Lite-On LH-20A1H LL0DN (+6) : BenQ DW1655 BCIB (+618) :  ASUS DRW-2014L1 1.02 (+6) : Yamaha CRW-F1 (+733)

Re: DiscImageCreator

Enker wrote:

PX-W1210TA/PX-W2410TA (Data-only CDs):
Sense data, Key:Asc:Ascq:05:64:00(ILLEGAL_REQUEST. ILLEGAL MODE FOR THIS TRACK)
PX-W1210TA/PX-W2410TA (CDs without CD-TEXT):
Sense data, Key:Asc:Ascq:05:24:00(ILLEGAL_REQUEST. INVALID FIELD IN CDB)
CDTEXT on SCSIOP_READ_TOC
    Undefined CDROM_READ_TOC_EX_FORMAT_CDTEXT on this drive
PX-W2410TA (CDs with CD-TEXT):
Doesn't dump tracks correctly. Bad TOC MSF for last audio track (PX-W1210TA also has this issue).

Please wait until I get these drive.

Enker wrote:

Crashes after running these commands (Tested 32bit):
DiscImageCreator.exe -c D:
DiscImageCreator.exe -s D:

End line issue:
DiscImageCreator.exe -split foo.dec
DiscImageCreator BuildDate:[Jan 28 2013 23:59:57]
Start -> 2013-01-28(Mon) 14:40:03
Split File(num)  5/ 5End -> 2013-01-28(Mon) 14:40:57

fix above.

Enker wrote:

but -686 is needed for PerfectRip

Why is needed for PerfectRip?

Enker wrote:

Program does not keep periods in the file name (v1.1 gets named as v1)

Determined that the period since the last extension.
So, please specify an extension.
This issue is Windows OS specification.

with extension

DiscImageCreator BuildDate:[Jan 30 2013 02:12:29]
OS
         BuildNumber: 7601
        MajorVersion: 6
        MinorVersion: 1
Start -> 2013-01-30(Wed) 02:12:48
Input File Name
         path: C:\toshinden V1.1.bin
        drive: C:
          dir: \
        fname: toshinden V1.1
          ext: .bin

without extension? No, generally, it is interpreted that ".1" is extension.

DiscImageCreator BuildDate:[Jan 30 2013 02:26:00]
OS
         BuildNumber: 7601
        MajorVersion: 6
        MinorVersion: 1
Start -> 2013-01-30(Wed) 02:27:54
Input File Name
         path: C:\toshinden V1.1
        drive: C:
          dir: \
        fname: toshinden V1
          ext: .1

Re: DiscImageCreator

sarami wrote:
Enker wrote:

but -686 is needed for PerfectRip

Why is needed for PerfectRip?

I think it is probably a drive firmware issue causing this to happen. I tested CDs with CD-TEXT and without CD-TEXT, both need -686 in PerfectRip. EAC needs +98 for both. Hopefully you can find the cause when you get the drive.

sarami wrote:
Enker wrote:

Program does not keep periods in the file name (v1.1 gets named as v1)

Determined that the period since the last extension.
So, please specify an extension.
This issue is Windows OS specification.

That explains it. I wasn't adding an extension since it's usually added automatically. Can you make the program ignore extensions?

Re: DiscImageCreator

Enker, could you try PF with/without subcode reading, and check if both dumps differ? I think, due to a bug of firmware, your drive reads one sector before than expected if subcode reading is requested.

On semi-vacation. MSF/AMSF to LBA/offset and viceversa calculator: link
To write properly occidental characters contained in japanese titles: screenshot
Spaces must be the fullwidth variant: link / screenshot

Re: DiscImageCreator

That was the issue, thanks! The PerfectRip tracks now match EAC when using -98. I had to manually move the gaps to the correct position, though.

Re: DiscImageCreator

I find your tool very useful to dump the -5000,0 range as audio, due to D8 command support. No more audio disc and disc swapping required.

discimagecreator -ra h: 4 TOC+Pregap -5000 0.

What does exactly your tool if certain sector is unreadable? Skip or replace with generic data that sector?

On semi-vacation. MSF/AMSF to LBA/offset and viceversa calculator: link
To write properly occidental characters contained in japanese titles: screenshot
Spaces must be the fullwidth variant: link / screenshot

Re: DiscImageCreator

That's interesting. Can it dump the subcode too of those sectors? That would be really cool if it can.

Plextor PX-760A 1.07 (+30) : Plextor PX-W5224A 1.04 (+30) : Plextor PX-W1210TA 1.10 (+99) : Plextor PX-W1610TA (+99) : Lite-On LTR-48246S (+6) : Lite-On LH-20A1H LL0DN (+6) : BenQ DW1655 BCIB (+618) :  ASUS DRW-2014L1 1.02 (+6) : Yamaha CRW-F1 (+733)

43 (edited by pablogm123 2013-02-01 19:49:37)

Re: DiscImageCreator

Of course, you can dump that range (main channel + subcode) to obtain a dump of a piece of lead-in (including the raw TOC stored in subcode) +  first pregap + a few of sectors of program area. As sample, I have dumped the -5000,0 range from my Alien Trilogy PC disc, drive used is a PX-W5224A:

http://www.mediafire.com/?amie4hqtfkd71jx

On semi-vacation. MSF/AMSF to LBA/offset and viceversa calculator: link
To write properly occidental characters contained in japanese titles: screenshot
Spaces must be the fullwidth variant: link / screenshot

Re: DiscImageCreator

Anyone tried to read the $FF000000,0 range?

Re: DiscImageCreator

No success, doesn't support this input. Anyway, I have try to read the $FF000000 sector using the View Sectors of CDTool, and no luck, the drive remains busy a few of minutes and reports an error.

On semi-vacation. MSF/AMSF to LBA/offset and viceversa calculator: link
To write properly occidental characters contained in japanese titles: screenshot
Spaces must be the fullwidth variant: link / screenshot

Re: DiscImageCreator

pablogm123 wrote:

No success, doesn't support this input. Anyway, I have try to read the $FF000000 sector using the View Sectors of CDTool, and no luck, the drive remains busy a few of minutes and reports an error.

Try other discs, better with the data-type lead-in.

Re: DiscImageCreator

Well that's pretty awesome. How about lead out?

Plextor PX-760A 1.07 (+30) : Plextor PX-W5224A 1.04 (+30) : Plextor PX-W1210TA 1.10 (+99) : Plextor PX-W1610TA (+99) : Lite-On LTR-48246S (+6) : Lite-On LH-20A1H LL0DN (+6) : BenQ DW1655 BCIB (+618) :  ASUS DRW-2014L1 1.02 (+6) : Yamaha CRW-F1 (+733)

48 (edited by Nexy 2013-02-02 06:01:03)

Re: DiscImageCreator

Tried the pregap reading with 760A , doesn't work. Here is log and error text.

command used

DiscImageCreator.exe -ra d: 4 pregap -150 0

I used unicode version.

IOCTL_SCSI_GET_ADDRESS
        Length: 8
    PortNumber: 0
        PathId: 0
      TargetId: 1
           Lun: 0
STORAGE ADAPTER DESCRIPTOR DATA
                  Version: 00000020
                TotalSize: 00000020
    MaximumTransferLength: 00020000 (bytes)
     MaximumPhysicalPages: 00000021
            AlignmentMask: 00000001
           AdapterUsesPio: False
         AdapterScansDown: False
          CommandQueueing: True
      AcceleratedTransfer: False
          BusMajorVersion: 0001
          BusMinorVersion: 0000
Device Info
              DeviceType: CD/DVD device
     DeviceTypeQualifier: Active
      DeviceTypeModifier: 0
          RemovableMedia: Yes
                Versions: 0
      ResponseDataFormat: 2
               HiSupport: Yes
                 NormACA: Yes
           TerminateTask: No
                    AERC: No
        AdditionalLength: 5b
           MediumChanger: No
               MultiPort: No
       EnclosureServices: No
               SoftReset: No
            CommandQueue: No
          LinkedCommands: No
      RelativeAddressing: No
                VendorId: PLEXTOR 
               ProductId: DVDR   PX-760A  
    ProductRevisionLevel: 1.07
          VendorSpecific: 08/18/07  15:10     
Drive speed
        RequestType: CdromSetStreaming
          ReadSpeed: 48KB/sec
         WriteSpeed: 65KB/sec
    RotationControl: CdromCAVRotation
Configuration
    CurrentMedia: CD-ROM
    FeatureProfileList
        DVD+R DL, DVD+R, DVD+RW, DVD-R LayerJump, DVD-R DL, DVD-RW Sequential, DVD-RW, DVD-R, DVD-ROM, CD-RW, CD-R, CD-ROM, 
    FeatureCore
        PhysicalInterface: ATAPI
          DeviceBusyEvent: No
                 INQUIRY2: No
    FeatureMorphing
        Asynchronous: No
             OCEvent: No
    FeatureRemovableMedium
                Lockable: Yes
        DefaultToPrevent: No
                   Eject: Yes
        LoadingMechanism: Tray type loading mechanism
    FeatureRandomReadable
                LogicalBlockSize: 2048
                        Blocking: 1
        ErrorRecoveryPagePresent: Yes
    FeatureMultiRead
    FeatureCdRead
                  CDText: Yes
             C2ErrorData: Yes
        DigitalAudioPlay: No
    FeaturePowerManagement
    FeatureCDAudioAnalogPlay
             SeperateVolume: Yes
        SeperateChannelMute: Yes
              ScanSupported: Yes
        NumerOfVolumeLevels: 256
    FeatureMicrocodeUpgrade
        M5: Yes
    FeatureTimeout
            Group3: Yes
        UnitLength: 3332
    FeatureRealTimeStreaming
                StreamRecording: Yes
            WriteSpeedInGetPerf: Yes
               WriteSpeedInMP2A: Yes
                     SetCDSpeed: Yes
        ReadBufferCapacityBlock: Yes
    FeatureLogicalUnitSerialNumber
        SerialNumber: 267125  
    Vendor Specific. FeatureCode[0xFF00]
        VendorSpecificData: 01010103
    Vendor Specific. FeatureCode[0xFF02]
        VendorSpecificData: 
    Vendor Specific. FeatureCode[0xFF10]
        VendorSpecificData: 000a0006108a06e402c20009000a2113160d0b06058302c2
    Vendor Specific. FeatureCode[0xFF11]
        VendorSpecificData: 002b000a361a2b48207615a40cfc001b000e6162569040ec2b48207615a40cfc001a00082b48207615a40cfc001500062b48207615a400140008207615a40ad205690011000e6162569040ec2b48207615a40ad2
TOC on SCSIOP_READ_TOC
     Data Track  1, LBA      0- 61480, Length  61481
    Audio Track  2, LBA  61481- 72126, Length  10646
    Audio Track  3, LBA  72127- 81755, Length   9629
    Audio Track  4, LBA  81756- 92385, Length  10630
    Audio Track  5, LBA  92386-102822, Length  10437
    Audio Track  6, LBA 102823-111836, Length   9014
    Audio Track  7, LBA 111837-122368, Length  10532
    Audio Track  8, LBA 122369-131828, Length   9460
    Audio Track  9, LBA 131829-142334, Length  10506
    Audio Track 10, LBA 142335-151738, Length   9404
    Audio Track 11, LBA 151739-161114, Length   9376
    Audio Track 12, LBA 161115-170157, Length   9043
    Audio Track 13, LBA 170158-179644, Length   9487
    Audio Track 14, LBA 179645-190218, Length  10574
    Audio Track 15, LBA 190219-200794, Length  10576
    Audio Track 16, LBA 200795-210076, Length   9282
    Audio Track 17, LBA 210077-219691, Length   9615
    Audio Track 18, LBA 219692-228776, Length   9085
    Audio Track 19, LBA 228777-233377, Length   4601
    Audio Track 20, LBA 233378-236469, Length   3092
                                       Total  236470
CDTEXT on SCSIOP_READ_TOC
    Nothing
CDROM_TOC_FULL_TOC_DATA Length: 253
SCSI bus status codes:02-CHECK_CONDITION [F:ReadTOCFull][L:1694]
Sense data, Key:Asc:Ascq:04:1b:00(HARDWARE_ERROR. SYNCHRONOUS DATA TRANSFER ERROR)
Can't get CDROM_TOC_FULL_TOC_DATA 2

EDIT:

tried also on my PX-W5224A , same error.

EDIT 2:

Tried to dump discs too, doesn't work at all, same error as above with the TOC.

Windows 7 64 bit enterprise, unicode version of tool.

Plextor PX-760A 1.07 (+30) : Plextor PX-W5224A 1.04 (+30) : Plextor PX-W1210TA 1.10 (+99) : Plextor PX-W1610TA (+99) : Lite-On LTR-48246S (+6) : Lite-On LH-20A1H LL0DN (+6) : BenQ DW1655 BCIB (+618) :  ASUS DRW-2014L1 1.02 (+6) : Yamaha CRW-F1 (+733)

Re: DiscImageCreator

You have to enter this range: -5000, 0. When the drive reachs -1000 LBA more or less will report a read error, but doesn't matter because TOC+pregap will be dumped.

-150,-76 range is not supported by Plextor drives.

To overread into lead-out an old Lite-On drive is better (without disc swapping I mean). My CRX220E1 and LH-20A1P can read both a maximum of 6749 sectors of lead-out (audio type). PX-W5224A only 100 sectors.

On semi-vacation. MSF/AMSF to LBA/offset and viceversa calculator: link
To write properly occidental characters contained in japanese titles: screenshot
Spaces must be the fullwidth variant: link / screenshot

Re: DiscImageCreator

pablogm123 wrote:

-150,-76 range is not supported by Plextor drives.

Yes, but he won't get a dump even with proper parameters - the tool doesn't work on win7 x64 giving Key:Asc:Ascq:04:1b:00(HARDWARE_ERROR. SYNCHRONOUS DATA TRANSFER ERROR). Same for me, same for Jackal and others.