Disc 8
Page: http://redump.org/disc/63808/
Log: https://cdn.discordapp.com/attachments/ … 6/BFV_4.7z

Common Disc Info:
    Title: Battlefield Vietnam Redux
    Foreign Title (Non-latin): (OPTIONAL)
    Disc Number / Letter: 4
    Disc Title: Bonus Disc
    System: IBM PC Compatible
    Media Type: CD-ROM
    Category: Games
    Region: USA
    Languages: Klingon (CHANGE THIS)
    Disc Serial: 1518477

    Ringcode Information:
        Mastering Code (laser branded/etched): 1518477   sonopress arvato   + + EF24702
        Mastering SID Code: IFPI LB48
        Data-Side Mould SID Code: IFPI 10E9
        Label-Side Mould SID Code: (REQUIRED, IF EXISTS)
        Additional Mould: (REQUIRED, IF EXISTS)
        Toolstamp or Mastering Code (engraved/stamped): (REQUIRED, IF EXISTS)
    Barcode: (OPTIONAL)
    Error Count: 592
    Comments: Disc 8 of Battlefield 1942: The Complete Collection
    Contents: (OPTIONAL)

Version and Editions:
    Version: (REQUIRED, IF EXISTS)
    Edition/Release: Battlefield 1942: The Complete Collection

Extras:
    Primary Volume Descriptor (PVD):

0320 : 20 20 20 20 20 20 20 20  20 20 20 20 20 32 30 30                200
0330 : 34 31 30 32 32 30 39 32  37 31 39 30 30 00 32 30   4102209271900.20
0340 : 30 34 31 30 32 32 30 39  32 37 31 39 30 30 00 30   04102209271900.0
0350 : 30 30 30 30 30 30 30 30  30 30 30 30 30 30 30 00   000000000000000.
0360 : 30 30 30 30 30 30 30 30  30 30 30 30 30 30 30 30   0000000000000000
0370 : 00 01 00 00 00 00 00 00  00 00 00 00 00 00 00 00   ................

Copy Protection:
    Copy Protection:

Y:\: SafeDisc 2.90-3.10
Y:\00000000.016: SafeDisc 1 or greater
Y:\00000000.256: SafeDisc 1 or greater
Y:\00000001.TMP: SafeDisc 1 or greater
Y:\00000002.TMP: SafeDisc 2 or greater
Y:\DrvMgt.dll: SafeDisc 2.90-3.10
Y:\SECDRV.SYS: SafeDisc 2.90
Y:\data1.hdr\00000000.256: SafeDisc 1 or greater
Y:\data1.hdr\DrvMgt.dll: SafeDisc 2.90-3.10
Y:\data1.hdr\Mod.dll: SafeDisc 2.90.040
Y:\data1.hdr\SECDRV.SYS: SafeDisc 2.90
Y:\data1.hdr\: SafeDisc 2.90-3.10
Y:\data1.hdr\00000000.016: SafeDisc 1 or greater

Tracks and Write Offsets:
    DAT:

<rom name="BFV_4.bin" size="583361856" crc="8f6a184c" md5="839d40a991cdc3bca6599f09f602a15f" sha1="743467a719e02d40443befafcb414f33e774bc4d" />

    Cuesheet:

FILE "BFV_4.bin" BINARY
  TRACK 01 MODE1/2352
    INDEX 01 00:00:00

    Write Offset: -12

Disc 7
Page: http://redump.org/disc/56253/
Log: https://cdn.discordapp.com/attachments/ … 4/BFV_3.7z

Common Disc Info:
    Title: Battlefield Vietnam Redux
    Foreign Title (Non-latin): (OPTIONAL)
    Disc Number / Letter: 3
    Disc Title: (OPTIONAL)
    System: IBM PC Compatible
    Media Type: CD-ROM
    Category: Games
    Region: USA
    Languages: Klingon (CHANGE THIS)
    Disc Serial: 1518467

    Ringcode Information:
        Mastering Code (laser branded/etched): 1518467   sonopress arvato   + + EF28502
        Mastering SID Code: IFPI LB41
        Data-Side Mould SID Code: IFPI 10J8
        Label-Side Mould SID Code: (REQUIRED, IF EXISTS)
        Additional Mould: (REQUIRED, IF EXISTS)
        Toolstamp or Mastering Code (engraved/stamped): A01
    Barcode: (OPTIONAL)
    Error Count: 591
    Comments: Disc 7 of Battlefield 1942: The Complete Collection
    Contents: (OPTIONAL)

Version and Editions:
    Version: (REQUIRED, IF EXISTS)
    Edition/Release: Battlefield 1942: The Complete Collection

Extras:
    Primary Volume Descriptor (PVD):

0320 : 20 20 20 20 20 20 20 20  20 20 20 20 20 32 30 30                200
0330 : 34 31 30 32 32 30 39 32  35 30 33 30 30 00 32 30   4102209250300.20
0340 : 30 34 31 30 32 32 30 39  32 35 30 33 30 30 00 30   04102209250300.0
0350 : 30 30 30 30 30 30 30 30  30 30 30 30 30 30 30 00   000000000000000.
0360 : 30 30 30 30 30 30 30 30  30 30 30 30 30 30 30 30   0000000000000000
0370 : 00 01 00 00 00 00 00 00  00 00 00 00 00 00 00 00   ................

Copy Protection:
    Copy Protection:

Y:\: SafeDisc 2.90-3.10
Y:\00000000.016: SafeDisc 1 or greater
Y:\00000000.256: SafeDisc 1 or greater
Y:\00000001.TMP: SafeDisc 1 or greater
Y:\00000002.TMP: SafeDisc 2 or greater
Y:\DrvMgt.dll: SafeDisc 2.90-3.10
Y:\SECDRV.SYS: SafeDisc 2.90
Y:\data1.hdr\Battlefield Vietnam_code.exe: EA CdKey Registration Module 1.2.0.117
Y:\data1.hdr\Battlefield Vietnam_eReg.exe: EA CdKey Registration Module 3.0.0.0
Y:\data1.hdr\Battlefield Vietnam_uninst.exe: EA CdKey Registration Module 4.0.0.23
Y:\data1.hdr\ArcadeInstallBFVIETNAM14c.EXE: Wise Installation Wizard Module
Y:\data1.hdr\ArcadeInstallBFVIETNAM14c.EXE\WISE0003: Wise Installation Wizard Module
Y:\Support\Chinese\eReg\Battlefield Vietnam TM_EZ.exe: EA CdKey Registration Module 2.1.0.5
Y:\Support\Chinese\eReg\Battlefield Vietnam_code.exe: EA CdKey Registration Module 1.2.0.117
Y:\Support\Chinese\eReg\Battlefield Vietnam_eReg.exe: EA CdKey Registration Module 3.0.0.0
Y:\Support\Chinese\eReg\go_ez.exe: EA CdKey Registration Module 
Y:\Support\English\UK\eReg\Battlefield Vietnam TM_EZ.exe: EA CdKey Registration Module 2.1.0.5
Y:\Support\English\UK\eReg\Battlefield Vietnam_code.exe: EA CdKey Registration Module 1.2.0.117
Y:\Support\English\UK\eReg\Battlefield Vietnam_eReg.exe: EA CdKey Registration Module 3.0.0.0
Y:\Support\English\UK\eReg\go_ez.exe: EA CdKey Registration Module 
Y:\Support\English\US\eReg\Battlefield Vietnam TM_EZ.exe: EA CdKey Registration Module 2.1.0.5
Y:\Support\English\US\eReg\Battlefield Vietnam_code.exe: EA CdKey Registration Module 1.2.0.117
Y:\Support\English\US\eReg\Battlefield Vietnam_eReg.exe: EA CdKey Registration Module 3.0.0.0
Y:\Support\English\US\eReg\go_ez.exe: EA CdKey Registration Module 
Y:\Support\French\eReg\Battlefield Vietnam TM_EZ.exe: EA CdKey Registration Module 2.1.0.5
Y:\Support\French\eReg\Battlefield Vietnam_code.exe: EA CdKey Registration Module 1.2.0.117
Y:\Support\French\eReg\Battlefield Vietnam_eReg.exe: EA CdKey Registration Module 3.0.0.0
Y:\Support\French\eReg\go_ez.exe: EA CdKey Registration Module 
Y:\Support\German\eReg\Battlefield Vietnam TM_EZ.exe: EA CdKey Registration Module 2.1.0.5
Y:\Support\German\eReg\Battlefield Vietnam_code.exe: EA CdKey Registration Module 1.2.0.117
Y:\Support\German\eReg\Battlefield Vietnam_eReg.exe: EA CdKey Registration Module 3.0.0.0
Y:\Support\German\eReg\go_ez.exe: EA CdKey Registration Module 
Y:\Support\Italian\eReg\Battlefield Vietnam TM_EZ.exe: EA CdKey Registration Module 2.1.0.5
Y:\Support\Italian\eReg\Battlefield Vietnam_code.exe: EA CdKey Registration Module 1.2.0.117
Y:\Support\Italian\eReg\Battlefield Vietnam_eReg.exe: EA CdKey Registration Module 3.0.0.0
Y:\Support\Italian\eReg\go_ez.exe: EA CdKey Registration Module 
Y:\Support\Japanese\eReg\Battlefield Vietnam TM_EZ.exe: EA CdKey Registration Module 2.1.0.5
Y:\Support\Japanese\eReg\Battlefield Vietnam_code.exe: EA CdKey Registration Module 1.2.0.117
Y:\Support\Japanese\eReg\Battlefield Vietnam_eReg.exe: EA CdKey Registration Module 3.0.0.0
Y:\Support\Japanese\eReg\go_ez.exe: EA CdKey Registration Module 
Y:\Support\Korean\eReg\Battlefield Vietnam TM_EZ.exe: EA CdKey Registration Module 2.1.0.5
Y:\Support\Korean\eReg\Battlefield Vietnam_code.exe: EA CdKey Registration Module 1.2.0.117
Y:\Support\Korean\eReg\Battlefield Vietnam_eReg.exe: EA CdKey Registration Module 3.0.0.0
Y:\Support\Korean\eReg\go_ez.exe: EA CdKey Registration Module 
Y:\Support\Spanish\eReg\Battlefield Vietnam TM_EZ.exe: EA CdKey Registration Module 2.1.0.5
Y:\Support\Spanish\eReg\Battlefield Vietnam_code.exe: EA CdKey Registration Module 1.2.0.117
Y:\Support\Spanish\eReg\Battlefield Vietnam_eReg.exe: EA CdKey Registration Module 3.0.0.0
Y:\Support\Spanish\eReg\go_ez.exe: EA CdKey Registration Module 
Y:\eReg\Battlefield Vietnam_code.exe: EA CdKey Registration Module 1.2.0.117
Y:\eReg\Battlefield Vietnam_eReg.exe: EA CdKey Registration Module 3.0.0.0
Y:\eReg\Battlefield Vietnam_uninst.exe: EA CdKey Registration Module 4.0.0.23

Tracks and Write Offsets:
    DAT:

<rom name="BFV_3.bin" size="696747072" crc="19e1d580" md5="7eac2376972877479fc6ee6fbb688f9b" sha1="e7709b29aac897d32c4db9bf9db6b1848bcd35b6" />

    Cuesheet:

FILE "BFV_3.bin" BINARY
  TRACK 01 MODE1/2352
    INDEX 01 00:00:00

    Write Offset: -12

Disc 6
Page: http://redump.org/disc/56252/
Log: https://cdn.discordapp.com/attachments/ … 0/BFV_2.7z

Common Disc Info:
    Title: Battlefield Vietnam Redux
    Foreign Title (Non-latin): (OPTIONAL)
    Disc Number / Letter: 2
    Disc Title: (OPTIONAL)
    System: IBM PC Compatible
    Media Type: CD-ROM
    Category: Games
    Region: USA
    Languages: Klingon (CHANGE THIS)
    Disc Serial: 1518457

    Ringcode Information:
        Mastering Code (laser branded/etched): 1518457   sonopress arvato   + + FH88103
        Mastering SID Code: IFPI L028
        Data-Side Mould SID Code: IFPI 1036
        Label-Side Mould SID Code: (REQUIRED, IF EXISTS)
        Additional Mould: (REQUIRED, IF EXISTS)
        Toolstamp or Mastering Code (engraved/stamped): A01
    Barcode: (OPTIONAL)
    Error Count: 592
    Comments: Disc 6 of Battlefield 1942: The Complete Collection
    Contents: (OPTIONAL)

Version and Editions:
    Version: (REQUIRED, IF EXISTS)
    Edition/Release: Battlefield 1942: The Complete Collection

Extras:
    Primary Volume Descriptor (PVD):

0320 : 20 20 20 20 20 20 20 20  20 20 20 20 20 32 30 30                200
0330 : 34 31 30 32 32 30 39 32  32 32 33 30 30 00 32 30   4102209222300.20
0340 : 30 34 31 30 32 32 30 39  32 32 32 33 30 30 00 30   04102209222300.0
0350 : 30 30 30 30 30 30 30 30  30 30 30 30 30 30 30 00   000000000000000.
0360 : 30 30 30 30 30 30 30 30  30 30 30 30 30 30 30 30   0000000000000000
0370 : 00 01 00 00 00 00 00 00  00 00 00 00 00 00 00 00   ................

Copy Protection:
    Copy Protection:

Y:\: SafeDisc 2.90-3.10
Y:\00000000.016: SafeDisc 1 or greater
Y:\00000000.256: SafeDisc 1 or greater
Y:\00000001.TMP: SafeDisc 1 or greater
Y:\00000002.TMP: SafeDisc 2 or greater
Y:\DrvMgt.dll: SafeDisc 2.90-3.10
Y:\SECDRV.SYS: SafeDisc 2.90
Y:\data1.hdr\Battlefield Vietnam_code.exe: EA CdKey Registration Module 1.2.0.117
Y:\data1.hdr\Battlefield Vietnam_eReg.exe: EA CdKey Registration Module 3.0.0.0
Y:\data1.hdr\Battlefield Vietnam_uninst.exe: EA CdKey Registration Module 4.0.0.23
Y:\data1.hdr\ArcadeInstallBFVIETNAM14c.EXE: Wise Installation Wizard Module
Y:\data1.hdr\ArcadeInstallBFVIETNAM14c.EXE\WISE0003: Wise Installation Wizard Module
Y:\Support\Chinese\eReg\Battlefield Vietnam TM_EZ.exe: EA CdKey Registration Module 2.1.0.5
Y:\Support\Chinese\eReg\Battlefield Vietnam_code.exe: EA CdKey Registration Module 1.2.0.117
Y:\Support\Chinese\eReg\Battlefield Vietnam_eReg.exe: EA CdKey Registration Module 3.0.0.0
Y:\Support\Chinese\eReg\go_ez.exe: EA CdKey Registration Module 
Y:\Support\English\UK\eReg\Battlefield Vietnam TM_EZ.exe: EA CdKey Registration Module 2.1.0.5
Y:\Support\English\UK\eReg\Battlefield Vietnam_code.exe: EA CdKey Registration Module 1.2.0.117
Y:\Support\English\UK\eReg\Battlefield Vietnam_eReg.exe: EA CdKey Registration Module 3.0.0.0
Y:\Support\English\UK\eReg\go_ez.exe: EA CdKey Registration Module 
Y:\Support\English\US\eReg\Battlefield Vietnam TM_EZ.exe: EA CdKey Registration Module 2.1.0.5
Y:\Support\English\US\eReg\Battlefield Vietnam_code.exe: EA CdKey Registration Module 1.2.0.117
Y:\Support\English\US\eReg\Battlefield Vietnam_eReg.exe: EA CdKey Registration Module 3.0.0.0
Y:\Support\English\US\eReg\go_ez.exe: EA CdKey Registration Module 
Y:\Support\French\eReg\Battlefield Vietnam TM_EZ.exe: EA CdKey Registration Module 2.1.0.5
Y:\Support\French\eReg\Battlefield Vietnam_code.exe: EA CdKey Registration Module 1.2.0.117
Y:\Support\French\eReg\Battlefield Vietnam_eReg.exe: EA CdKey Registration Module 3.0.0.0
Y:\Support\French\eReg\go_ez.exe: EA CdKey Registration Module 
Y:\Support\German\eReg\Battlefield Vietnam TM_EZ.exe: EA CdKey Registration Module 2.1.0.5
Y:\Support\German\eReg\Battlefield Vietnam_code.exe: EA CdKey Registration Module 1.2.0.117
Y:\Support\German\eReg\Battlefield Vietnam_eReg.exe: EA CdKey Registration Module 3.0.0.0
Y:\Support\German\eReg\go_ez.exe: EA CdKey Registration Module 
Y:\Support\Italian\eReg\Battlefield Vietnam TM_EZ.exe: EA CdKey Registration Module 2.1.0.5
Y:\Support\Italian\eReg\Battlefield Vietnam_code.exe: EA CdKey Registration Module 1.2.0.117
Y:\Support\Italian\eReg\Battlefield Vietnam_eReg.exe: EA CdKey Registration Module 3.0.0.0
Y:\Support\Italian\eReg\go_ez.exe: EA CdKey Registration Module 
Y:\Support\Japanese\eReg\Battlefield Vietnam TM_EZ.exe: EA CdKey Registration Module 2.1.0.5
Y:\Support\Japanese\eReg\Battlefield Vietnam_code.exe: EA CdKey Registration Module 1.2.0.117
Y:\Support\Japanese\eReg\Battlefield Vietnam_eReg.exe: EA CdKey Registration Module 3.0.0.0
Y:\Support\Japanese\eReg\go_ez.exe: EA CdKey Registration Module 
Y:\Support\Korean\eReg\Battlefield Vietnam TM_EZ.exe: EA CdKey Registration Module 2.1.0.5
Y:\Support\Korean\eReg\Battlefield Vietnam_code.exe: EA CdKey Registration Module 1.2.0.117
Y:\Support\Korean\eReg\Battlefield Vietnam_eReg.exe: EA CdKey Registration Module 3.0.0.0
Y:\Support\Korean\eReg\go_ez.exe: EA CdKey Registration Module 
Y:\Support\Spanish\eReg\Battlefield Vietnam TM_EZ.exe: EA CdKey Registration Module 2.1.0.5
Y:\Support\Spanish\eReg\Battlefield Vietnam_code.exe: EA CdKey Registration Module 1.2.0.117
Y:\Support\Spanish\eReg\Battlefield Vietnam_eReg.exe: EA CdKey Registration Module 3.0.0.0
Y:\Support\Spanish\eReg\go_ez.exe: EA CdKey Registration Module 
Y:\eReg\Battlefield Vietnam_code.exe: EA CdKey Registration Module 1.2.0.117
Y:\eReg\Battlefield Vietnam_eReg.exe: EA CdKey Registration Module 3.0.0.0
Y:\eReg\Battlefield Vietnam_uninst.exe: EA CdKey Registration Module 4.0.0.23

Tracks and Write Offsets:
    DAT:

<rom name="BFV_2.bin" size="768567744" crc="430627fb" md5="db1e34f642d497d80dece6fcfcca53b5" sha1="4759c83574aec30c8f4007f2c01502a669e4e359" />

    Cuesheet:

FILE "BFV_2.bin" BINARY
  TRACK 01 MODE1/2352
    INDEX 01 00:00:00

    Write Offset: -12

Disc 5
Page: http://redump.org/disc/56251/
Log: https://cdn.discordapp.com/attachments/ … 4/BFV_1.7z

Common Disc Info:
    Title: Battlefield Vietnam Redux
    Foreign Title (Non-latin): (OPTIONAL)
    Disc Number / Letter: 1
    Disc Title: (OPTIONAL)
    System: IBM PC Compatible
    Media Type: CD-ROM
    Category: Games
    Region: USA
    Languages: Klingon (CHANGE THIS)
    Disc Serial: 1518447

    Ringcode Information:
        Mastering Code (laser branded/etched): 1518447   sonopress arvato   + + EE74501
        Mastering SID Code: IFPI LB48
        Data-Side Mould SID Code: IFPI 10J8
        Label-Side Mould SID Code: (REQUIRED, IF EXISTS)
        Additional Mould: (REQUIRED, IF EXISTS)
        Toolstamp or Mastering Code (engraved/stamped): A09
    Barcode: (OPTIONAL)
    Error Count: 591
    Comments: Disc 5 of Battlefield 1942: The Complete Collection
    Contents: (OPTIONAL)

Version and Editions:
    Version: (REQUIRED, IF EXISTS)
    Edition/Release: Battlefield 1942: The Complete Collection

Extras:
    Primary Volume Descriptor (PVD):

0320 : 20 20 20 20 20 20 20 20  20 20 20 20 20 32 30 30                200
0330 : 34 31 30 32 32 30 39 31  39 34 32 30 30 00 32 30   4102209194200.20
0340 : 30 34 31 30 32 32 30 39  31 39 34 32 30 30 00 30   04102209194200.0
0350 : 30 30 30 30 30 30 30 30  30 30 30 30 30 30 30 00   000000000000000.
0360 : 30 30 30 30 30 30 30 30  30 30 30 30 30 30 30 30   0000000000000000
0370 : 00 01 00 00 00 00 00 00  00 00 00 00 00 00 00 00   ................

Copy Protection:
    Copy Protection:

Y:\: SafeDisc 2.90-3.10
Y:\00000000.016: SafeDisc 1 or greater
Y:\00000000.256: SafeDisc 1 or greater
Y:\00000001.TMP: SafeDisc 1 or greater
Y:\00000002.TMP: SafeDisc 2 or greater
Y:\DrvMgt.dll: SafeDisc 2.90-3.10
Y:\SECDRV.SYS: SafeDisc 2.90
Y:\data1.hdr\00000000.256: SafeDisc 1 or greater
Y:\data1.hdr\ArcadeInstallBFVIETNAM14c.EXE: Wise Installation Wizard Module
Y:\data1.hdr\ArcadeInstallBFVIETNAM14c.EXE\WISE0003: Wise Installation Wizard Module
Y:\data1.hdr\Battlefield Vietnam_code.exe: EA CdKey Registration Module 1.2.0.117
Y:\data1.hdr\Battlefield Vietnam_eReg.exe: EA CdKey Registration Module 3.0.0.0
Y:\data1.hdr\Battlefield Vietnam_uninst.exe: EA CdKey Registration Module 4.0.0.23
Y:\data1.hdr\DrvMgt.dll: SafeDisc 2.90-3.10
Y:\data1.hdr\Mod.dll: SafeDisc 2.90.040
Y:\data1.hdr\SECDRV.SYS: SafeDisc 2.90
Y:\data1.hdr\: SafeDisc 2.90-3.10
Y:\data1.hdr\00000000.016: SafeDisc 1 or greater
Y:\Support\Chinese\eReg\Battlefield Vietnam TM_EZ.exe: EA CdKey Registration Module 2.1.0.5
Y:\Support\Chinese\eReg\Battlefield Vietnam_code.exe: EA CdKey Registration Module 1.2.0.117
Y:\Support\Chinese\eReg\Battlefield Vietnam_eReg.exe: EA CdKey Registration Module 3.0.0.0
Y:\Support\Chinese\eReg\go_ez.exe: EA CdKey Registration Module 
Y:\Support\English\UK\eReg\Battlefield Vietnam TM_EZ.exe: EA CdKey Registration Module 2.1.0.5
Y:\Support\English\UK\eReg\Battlefield Vietnam_code.exe: EA CdKey Registration Module 1.2.0.117
Y:\Support\English\UK\eReg\Battlefield Vietnam_eReg.exe: EA CdKey Registration Module 3.0.0.0
Y:\Support\English\UK\eReg\go_ez.exe: EA CdKey Registration Module 
Y:\Support\English\US\eReg\Battlefield Vietnam TM_EZ.exe: EA CdKey Registration Module 2.1.0.5
Y:\Support\English\US\eReg\Battlefield Vietnam_code.exe: EA CdKey Registration Module 1.2.0.117
Y:\Support\English\US\eReg\Battlefield Vietnam_eReg.exe: EA CdKey Registration Module 3.0.0.0
Y:\Support\English\US\eReg\go_ez.exe: EA CdKey Registration Module 
Y:\Support\French\eReg\Battlefield Vietnam TM_EZ.exe: EA CdKey Registration Module 2.1.0.5
Y:\Support\French\eReg\Battlefield Vietnam_code.exe: EA CdKey Registration Module 1.2.0.117
Y:\Support\French\eReg\Battlefield Vietnam_eReg.exe: EA CdKey Registration Module 3.0.0.0
Y:\Support\French\eReg\go_ez.exe: EA CdKey Registration Module 
Y:\Support\German\eReg\Battlefield Vietnam TM_EZ.exe: EA CdKey Registration Module 2.1.0.5
Y:\Support\German\eReg\Battlefield Vietnam_code.exe: EA CdKey Registration Module 1.2.0.117
Y:\Support\German\eReg\Battlefield Vietnam_eReg.exe: EA CdKey Registration Module 3.0.0.0
Y:\Support\German\eReg\go_ez.exe: EA CdKey Registration Module 
Y:\Support\Italian\eReg\Battlefield Vietnam TM_EZ.exe: EA CdKey Registration Module 2.1.0.5
Y:\Support\Italian\eReg\Battlefield Vietnam_code.exe: EA CdKey Registration Module 1.2.0.117
Y:\Support\Italian\eReg\Battlefield Vietnam_eReg.exe: EA CdKey Registration Module 3.0.0.0
Y:\Support\Italian\eReg\go_ez.exe: EA CdKey Registration Module 
Y:\Support\Japanese\eReg\Battlefield Vietnam TM_EZ.exe: EA CdKey Registration Module 2.1.0.5
Y:\Support\Japanese\eReg\Battlefield Vietnam_code.exe: EA CdKey Registration Module 1.2.0.117
Y:\Support\Japanese\eReg\Battlefield Vietnam_eReg.exe: EA CdKey Registration Module 3.0.0.0
Y:\Support\Japanese\eReg\go_ez.exe: EA CdKey Registration Module 
Y:\Support\Korean\eReg\Battlefield Vietnam TM_EZ.exe: EA CdKey Registration Module 2.1.0.5
Y:\Support\Korean\eReg\Battlefield Vietnam_code.exe: EA CdKey Registration Module 1.2.0.117
Y:\Support\Korean\eReg\Battlefield Vietnam_eReg.exe: EA CdKey Registration Module 3.0.0.0
Y:\Support\Korean\eReg\go_ez.exe: EA CdKey Registration Module 
Y:\Support\Spanish\eReg\Battlefield Vietnam TM_EZ.exe: EA CdKey Registration Module 2.1.0.5
Y:\Support\Spanish\eReg\Battlefield Vietnam_code.exe: EA CdKey Registration Module 1.2.0.117
Y:\Support\Spanish\eReg\Battlefield Vietnam_eReg.exe: EA CdKey Registration Module 3.0.0.0
Y:\Support\Spanish\eReg\go_ez.exe: EA CdKey Registration Module 
Y:\eReg\Battlefield Vietnam_code.exe: EA CdKey Registration Module 1.2.0.117
Y:\eReg\Battlefield Vietnam_eReg.exe: EA CdKey Registration Module 3.0.0.0
Y:\eReg\Battlefield Vietnam_uninst.exe: EA CdKey Registration Module 4.0.0.23

Tracks and Write Offsets:
    DAT:

<rom name="BFV_1.bin" size="762720672" crc="ecab28a9" md5="2cd318a88f047aedaa45cb82921e5e5d" sha1="82ef1904f93e24ca1eac4578713f09b0d3135138" />

    Cuesheet:

FILE "BFV_1.bin" BINARY
  TRACK 01 MODE1/2352
    INDEX 01 00:00:00

    Write Offset: -12

Disc 4
Page: http://redump.org/disc/56250/
Log: https://cdn.discordapp.com/attachments/ … CRETWEA.7z

Common Disc Info:
    Title: Battlefield 1942: World War II Anthology
    Foreign Title (Non-latin): (OPTIONAL)
    Disc Number / Letter: 4
    Disc Title: (OPTIONAL)
    System: IBM PC Compatible
    Media Type: CD-ROM
    Category: Games
    Region: USA
    Languages: Klingon (CHANGE THIS)
    Disc Serial: 1518437

    Ringcode Information:
        Mastering Code (laser branded/etched): 1518437   sonopress arvato   + + EI54203
        Mastering SID Code: IFPI LB41
        Data-Side Mould SID Code: IFPI 10J3
        Label-Side Mould SID Code: (REQUIRED, IF EXISTS)
        Additional Mould: (REQUIRED, IF EXISTS)
        Toolstamp or Mastering Code (engraved/stamped): A03
    Barcode: (OPTIONAL)
    Error Count: 590
    Comments: Disc 4 of Battlefield 1942: The Complete Collection
    Contents: (OPTIONAL)

Version and Editions:
    Version: (REQUIRED, IF EXISTS)
    Edition/Release: Battlefield 1942: The Complete Collection

Extras:
    Primary Volume Descriptor (PVD):

0320 : 20 20 20 20 20 20 20 20  20 20 20 20 20 32 30 30                200
0330 : 34 30 33 32 33 30 39 34  31 30 35 30 30 00 32 30   4032309410500.20
0340 : 30 34 30 33 32 33 30 39  34 31 30 35 30 30 00 30   04032309410500.0
0350 : 30 30 30 30 30 30 30 30  30 30 30 30 30 30 30 00   000000000000000.
0360 : 30 30 30 30 30 30 30 30  30 30 30 30 30 30 30 30   0000000000000000
0370 : 00 01 00 00 00 00 00 00  00 00 00 00 00 00 00 00   ................

Copy Protection:
    Copy Protection:

Y:\: SafeDisc 2.90-3.10
Y:\00000000.016: SafeDisc 1 or greater
Y:\00000000.256: SafeDisc 1 or greater
Y:\00000001.TMP: SafeDisc 1 or greater
Y:\00000002.TMP: SafeDisc 2 or greater
Y:\DrvMgt.dll: SafeDisc 2.90-3.10
Y:\SECDRV.SYS: SafeDisc 2.90
Y:\data1.hdr\00000000.256: SafeDisc 1 or greater
Y:\data1.hdr\ArcadeInstallBFIELD1942SW13d.EXE: Wise Installation Wizard Module
Y:\data1.hdr\ArcadeInstallBFIELD1942SW13d.EXE\WISE0003: Wise Installation Wizard Module
Y:\data1.hdr\Battlefield 1942 Secret Weapons of WWII_code.exe: EA CdKey Registration Module 1.0.34.6
Y:\data1.hdr\Battlefield 1942 Secret Weapons of WWII_eReg.exe: EA CdKey Registration Module 3.0.0.0
Y:\data1.hdr\Battlefield 1942 Secret Weapons of WWII_uninst.exe: EA CdKey Registration Module 4.0.0.23
Y:\data1.hdr\DrvMgt.dll: SafeDisc 2.90-3.10
Y:\data1.hdr\Mod.dll: SafeDisc 2.90.040
Y:\data1.hdr\SECDRV.SYS: SafeDisc 2.90
Y:\data1.hdr\: SafeDisc 2.90-3.10
Y:\data1.hdr\00000000.016: SafeDisc 1 or greater
Y:\Support\Chinese\eReg\Battlefield 1942 Secret Weapons of WWII_EZ.exe: EA CdKey Registration Module 2.1.0.5
Y:\Support\Chinese\eReg\Battlefield 1942 Secret Weapons of WWII_code.exe: EA CdKey Registration Module 1.0.34.6
Y:\Support\Chinese\eReg\Battlefield 1942 Secret Weapons of WWII_eReg.exe: EA CdKey Registration Module 3.0.0.0
Y:\Support\Chinese\eReg\go_ez.exe: EA CdKey Registration Module 
Y:\Support\English\UK\eReg\Battlefield 1942 Secret Weapons of WWII_EZ.exe: EA CdKey Registration Module 2.1.0.5
Y:\Support\English\UK\eReg\Battlefield 1942 Secret Weapons of WWII_code.exe: EA CdKey Registration Module 1.0.34.6
Y:\Support\English\UK\eReg\Battlefield 1942 Secret Weapons of WWII_eReg.exe: EA CdKey Registration Module 3.0.0.0
Y:\Support\English\UK\eReg\go_ez.exe: EA CdKey Registration Module 
Y:\Support\English\US\eReg\Battlefield 1942 Secret Weapons of WWII_EZ.exe: EA CdKey Registration Module 2.1.0.5
Y:\Support\English\US\eReg\Battlefield 1942 Secret Weapons of WWII_code.exe: EA CdKey Registration Module 1.0.34.6
Y:\Support\English\US\eReg\Battlefield 1942 Secret Weapons of WWII_eReg.exe: EA CdKey Registration Module 3.0.0.0
Y:\Support\English\US\eReg\go_ez.exe: EA CdKey Registration Module 
Y:\Support\French\eReg\Battlefield 1942 Secret Weapons of WWII_EZ.exe: EA CdKey Registration Module 2.1.0.5
Y:\Support\French\eReg\Battlefield 1942 Secret Weapons of WWII_code.exe: EA CdKey Registration Module 1.0.34.6
Y:\Support\French\eReg\Battlefield 1942 Secret Weapons of WWII_eReg.exe: EA CdKey Registration Module 3.0.0.0
Y:\Support\French\eReg\go_ez.exe: EA CdKey Registration Module 
Y:\Support\German\eReg\Battlefield 1942 Secret Weapons of WWII_EZ.exe: EA CdKey Registration Module 2.1.0.5
Y:\Support\German\eReg\Battlefield 1942 Secret Weapons of WWII_code.exe: EA CdKey Registration Module 1.0.34.6
Y:\Support\German\eReg\Battlefield 1942 Secret Weapons of WWII_eReg.exe: EA CdKey Registration Module 3.0.0.0
Y:\Support\German\eReg\go_ez.exe: EA CdKey Registration Module 
Y:\Support\Italian\eReg\Battlefield 1942 Secret Weapons of WWII_EZ.exe: EA CdKey Registration Module 2.1.0.5
Y:\Support\Italian\eReg\Battlefield 1942 Secret Weapons of WWII_code.exe: EA CdKey Registration Module 1.0.34.6
Y:\Support\Italian\eReg\Battlefield 1942 Secret Weapons of WWII_eReg.exe: EA CdKey Registration Module 3.0.0.0
Y:\Support\Italian\eReg\go_ez.exe: EA CdKey Registration Module 
Y:\Support\Japanese\eReg\Battlefield 1942 Secret Weapons of WWII_EZ.exe: EA CdKey Registration Module 2.1.0.5
Y:\Support\Japanese\eReg\Battlefield 1942 Secret Weapons of WWII_code.exe: EA CdKey Registration Module 1.0.34.6
Y:\Support\Japanese\eReg\Battlefield 1942 Secret Weapons of WWII_eReg.exe: EA CdKey Registration Module 3.0.0.0
Y:\Support\Japanese\eReg\go_ez.exe: EA CdKey Registration Module 
Y:\Support\Korean\eReg\Battlefield 1942 Secret Weapons of WWII_EZ.exe: EA CdKey Registration Module 2.1.0.5
Y:\Support\Korean\eReg\Battlefield 1942 Secret Weapons of WWII_code.exe: EA CdKey Registration Module 1.0.34.6
Y:\Support\Korean\eReg\Battlefield 1942 Secret Weapons of WWII_eReg.exe: EA CdKey Registration Module 3.0.0.0
Y:\Support\Korean\eReg\go_ez.exe: EA CdKey Registration Module 
Y:\Support\Spanish\eReg\Battlefield 1942 Secret Weapons of WWII_EZ.exe: EA CdKey Registration Module 2.1.0.5
Y:\Support\Spanish\eReg\Battlefield 1942 Secret Weapons of WWII_code.exe: EA CdKey Registration Module 1.0.34.6
Y:\Support\Spanish\eReg\Battlefield 1942 Secret Weapons of WWII_eReg.exe: EA CdKey Registration Module 3.0.0.0
Y:\Support\Spanish\eReg\go_ez.exe: EA CdKey Registration Module 
Y:\eReg\Battlefield 1942 Secret Weapons of WWII_code.exe: EA CdKey Registration Module 1.0.34.6
Y:\eReg\Battlefield 1942 Secret Weapons of WWII_eReg.exe: EA CdKey Registration Module 3.0.0.0

Tracks and Write Offsets:
    DAT:

<rom name="DISC_4_SECRETWEA.bin" size="786210096" crc="39973342" md5="f150e7f2cff1a547445a066832715600" sha1="41c1251a3a0d91a43ebc3183b0a5e7ee841779ed" />

    Cuesheet:

FILE "DISC_4_SECRETWEA.bin" BINARY
  TRACK 01 MODE1/2352
    INDEX 01 00:00:00

    Write Offset: -12

Disc 3
Page: http://redump.org/disc/56249/
Log: https://cdn.discordapp.com/attachments/ … ADTOROM.7z

Common Disc Info:
    Title: Battlefield 1942: World War II Anthology
    Foreign Title (Non-latin): (OPTIONAL)
    Disc Number / Letter: 3
    Disc Title: (OPTIONAL)
    System: IBM PC Compatible
    Media Type: CD-ROM
    Category: Games
    Region: USA
    Languages: Klingon (CHANGE THIS)
    Disc Serial: 1518427

    Ringcode Information:
        Mastering Code (laser branded/etched): 1518427   sonopress arvato   + + EE74901
        Mastering SID Code: IFPI LB48
        Data-Side Mould SID Code: IFPI 1074
        Label-Side Mould SID Code: (REQUIRED, IF EXISTS)
        Additional Mould: (REQUIRED, IF EXISTS)
        Toolstamp or Mastering Code (engraved/stamped): A06
    Barcode: (OPTIONAL)
    Error Count: 600
    Comments: Disc 3 of Battlefield 1942: The Complete Collection
    Contents: (OPTIONAL)

Version and Editions:
    Version: (REQUIRED, IF EXISTS)
    Edition/Release: Battlefield 1942: The Complete Collection

Extras:
    Primary Volume Descriptor (PVD):

0320 : 20 20 20 20 20 20 20 20  20 20 20 20 20 32 30 30                200
0330 : 34 30 33 32 33 30 39 33  38 33 31 30 30 00 32 30   4032309383100.20
0340 : 30 34 30 33 32 33 30 39  33 38 33 31 30 30 00 30   04032309383100.0
0350 : 30 30 30 30 30 30 30 30  30 30 30 30 30 30 30 00   000000000000000.
0360 : 30 30 30 30 30 30 30 30  30 30 30 30 30 30 30 30   0000000000000000
0370 : 00 01 00 00 00 00 00 00  00 00 00 00 00 00 00 00   ................

Copy Protection:
    Copy Protection:

Y:\: SafeDisc 2.80
Y:\00000000.016: SafeDisc 1 or greater
Y:\00000000.256: SafeDisc 1 or greater
Y:\00000001.TMP: SafeDisc 1 or greater
Y:\00000002.TMP: SafeDisc 2 or greater
Y:\DrvMgt.dll: SafeDisc 2.80
Y:\SECDRV.SYS: SafeDisc 2.80
Y:\data1.hdr\00000000.256: SafeDisc 1 or greater
Y:\data1.hdr\ArcadeInstallBFIELD1942RTR111b.EXE: Wise Installation Wizard Module
Y:\data1.hdr\ArcadeInstallBFIELD1942RTR111b.EXE\WISE0003: Wise Installation Wizard Module
Y:\data1.hdr\Battlefield 1942 The Road to Rome_Code.exe: EA CdKey Registration Module 3.0.0.0
Y:\data1.hdr\Battlefield 1942 The Road to Rome_eReg.exe: EA CdKey Registration Module 3.0.0.0
Y:\data1.hdr\Battlefield 1942 The Road to Rome_uninst.exe: EA CdKey Registration Module 2.0.0.2
Y:\data1.hdr\DrvMgt.dll: SafeDisc 2.80
Y:\data1.hdr\Mod.dll: SafeDisc 2.80.010
Y:\data1.hdr\SECDRV.SYS: SafeDisc 2.80
Y:\data1.hdr\: SafeDisc 2.80
Y:\data1.hdr\00000000.016: SafeDisc 1 or greater
Y:\Support\Chinese\eReg\Battlefield 1942 The Road to Rome_Code.exe: EA CdKey Registration Module 3.0.0.0
Y:\Support\Chinese\eReg\Battlefield 1942 The Road to Rome_EZ.exe: EA CdKey Registration Module 2.1.0.5
Y:\Support\Chinese\eReg\Battlefield 1942 The Road to Rome_eReg.exe: EA CdKey Registration Module 3.0.0.0
Y:\Support\Chinese\eReg\go_ez.exe: EA CdKey Registration Module 
Y:\Support\English UK\eReg\Battlefield 1942 The Road to Rome_Code.exe: EA CdKey Registration Module 3.0.0.0
Y:\Support\English UK\eReg\Battlefield 1942 The Road to Rome_EZ.exe: EA CdKey Registration Module 2.1.0.5
Y:\Support\English UK\eReg\Battlefield 1942 The Road to Rome_eReg.exe: EA CdKey Registration Module 3.0.0.0
Y:\Support\English UK\eReg\go_ez.exe: EA CdKey Registration Module 
Y:\Support\English US\eReg\Battlefield 1942 The Road to Rome_Code.exe: EA CdKey Registration Module 3.0.0.0
Y:\Support\English US\eReg\Battlefield 1942 The Road to Rome_EZ.exe: EA CdKey Registration Module 2.1.0.5
Y:\Support\English US\eReg\Battlefield 1942 The Road to Rome_eReg.exe: EA CdKey Registration Module 3.0.0.0
Y:\Support\English US\eReg\go_ez.exe: EA CdKey Registration Module 
Y:\Support\French\eReg\Battlefield 1942 The Road to Rome_Code.exe: EA CdKey Registration Module 3.0.0.0
Y:\Support\French\eReg\Battlefield 1942 The Road to Rome_EZ.exe: EA CdKey Registration Module 2.1.0.5
Y:\Support\French\eReg\Battlefield 1942 The Road to Rome_eReg.exe: EA CdKey Registration Module 3.0.0.0
Y:\Support\French\eReg\go_ez.exe: EA CdKey Registration Module 
Y:\Support\German\eReg\Battlefield 1942 The Road to Rome_Code.exe: EA CdKey Registration Module 3.0.0.0
Y:\Support\German\eReg\Battlefield 1942 The Road to Rome_EZ.exe: EA CdKey Registration Module 2.1.0.5
Y:\Support\German\eReg\Battlefield 1942 The Road to Rome_eReg.exe: EA CdKey Registration Module 3.0.0.0
Y:\Support\German\eReg\go_ez.exe: EA CdKey Registration Module 
Y:\Support\Italian\eReg\Battlefield 1942 The Road to Rome_Code.exe: EA CdKey Registration Module 3.0.0.0
Y:\Support\Italian\eReg\Battlefield 1942 The Road to Rome_EZ.exe: EA CdKey Registration Module 2.1.0.5
Y:\Support\Italian\eReg\Battlefield 1942 The Road to Rome_eReg.exe: EA CdKey Registration Module 3.0.0.0
Y:\Support\Italian\eReg\go_ez.exe: EA CdKey Registration Module 
Y:\Support\Japanese\eReg\Battlefield 1942 The Road to Rome_Code.exe: EA CdKey Registration Module 3.0.0.0
Y:\Support\Japanese\eReg\Battlefield 1942 The Road to Rome_EZ.exe: EA CdKey Registration Module 2.1.0.5
Y:\Support\Japanese\eReg\Battlefield 1942 The Road to Rome_eReg.exe: EA CdKey Registration Module 3.0.0.0
Y:\Support\Japanese\eReg\go_ez.exe: EA CdKey Registration Module 
Y:\Support\Korean\eReg\Battlefield 1942 The Road to Rome_Code.exe: EA CdKey Registration Module 3.0.0.0
Y:\Support\Korean\eReg\Battlefield 1942 The Road to Rome_EZ.exe: EA CdKey Registration Module 2.1.0.5
Y:\Support\Korean\eReg\Battlefield 1942 The Road to Rome_eReg.exe: EA CdKey Registration Module 3.0.0.0
Y:\Support\Korean\eReg\go_ez.exe: EA CdKey Registration Module 
Y:\Support\Spanish\eReg\Battlefield 1942 The Road to Rome_Code.exe: EA CdKey Registration Module 3.0.0.0
Y:\Support\Spanish\eReg\Battlefield 1942 The Road to Rome_EZ.exe: EA CdKey Registration Module 2.1.0.5
Y:\Support\Spanish\eReg\Battlefield 1942 The Road to Rome_eReg.exe: EA CdKey Registration Module 3.0.0.0
Y:\Support\Spanish\eReg\go_ez.exe: EA CdKey Registration Module 
Y:\eReg\Battlefield 1942 The Road to Rome_Code.exe: EA CdKey Registration Module 3.0.0.0
Y:\eReg\Battlefield 1942 The Road to Rome_EZ.exe: EA CdKey Registration Module 2.1.0.5
Y:\eReg\Battlefield 1942 The Road to Rome_eReg.exe: EA CdKey Registration Module 3.0.0.0

Tracks and Write Offsets:
    DAT:

<rom name="DISC_3_ROADTOROM.bin" size="486379488" crc="1c160cb3" md5="3d366e368286bdfd1e35633175bab4ed" sha1="a27e161c22f19bd6c121ff617173de39c48535ab" />

    Cuesheet:

FILE "DISC_3_ROADTOROM.bin" BINARY
  TRACK 01 MODE1/2352
    INDEX 01 00:00:00

    Write Offset: -12

Disc 2
Page: http://redump.org/disc/56248/
Log: https://cdn.discordapp.com/attachments/ … F1942_2.7z

Common Disc Info:
    Title: Battlefield 1942: World War II Anthology
    Foreign Title (Non-latin): (OPTIONAL)
    Disc Number / Letter: 2
    Disc Title: (OPTIONAL)
    System: IBM PC Compatible
    Media Type: CD-ROM
    Category: Games
    Region: USA
    Languages: Klingon (CHANGE THIS)
    Disc Serial: 1518417

    Ringcode Information:
        Mastering Code (laser branded/etched): 1518417   sonopress arvato   + + EE75001
        Mastering SID Code: IFPI LB41
        Data-Side Mould SID Code: IFPI 1083
        Label-Side Mould SID Code: (REQUIRED, IF EXISTS)
        Additional Mould: (REQUIRED, IF EXISTS)
        Toolstamp or Mastering Code (engraved/stamped): A04
    Barcode: (OPTIONAL)
    Error Count: 599
    Comments: Disc 2 of Battlefield 1942: The Complete Collection
    Contents: (OPTIONAL)

Version and Editions:
    Version: (REQUIRED, IF EXISTS)
    Edition/Release: Battlefield 1942: The Complete Collection

Extras:
    Primary Volume Descriptor (PVD):

0320 : 20 20 20 20 20 20 20 20  20 20 20 20 20 32 30 30                200
0330 : 34 30 33 32 33 30 39 33  34 31 39 30 30 00 32 30   4032309341900.20
0340 : 30 34 30 33 32 33 30 39  33 34 31 39 30 30 00 30   04032309341900.0
0350 : 30 30 30 30 30 30 30 30  30 30 30 30 30 30 30 00   000000000000000.
0360 : 30 30 30 30 30 30 30 30  30 30 30 30 30 30 30 30   0000000000000000
0370 : 00 01 00 00 00 00 00 00  00 00 00 00 00 00 00 00   ................

Copy Protection:
    Copy Protection:

Y:\: SafeDisc 2.80
Y:\00000000.016: SafeDisc 1 or greater
Y:\00000000.256: SafeDisc 1 or greater
Y:\00000001.TMP: SafeDisc 1 or greater
Y:\00000002.TMP: SafeDisc 2 or greater
Y:\DrvMgt.dll: SafeDisc 2.80
Y:\SECDRV.SYS: SafeDisc 2.80
Y:\data1.hdr\00000000.256: SafeDisc 1 or greater
Y:\data1.hdr\ArcadeInstallBF194211b.EXE: Wise Installation Wizard Module
Y:\data1.hdr\ArcadeInstallBF194211b.EXE\WISE0003: Wise Installation Wizard Module
Y:\data1.hdr\Battlefield 1942_Code.exe: EA CdKey Registration Module 3.0.0.0
Y:\data1.hdr\Battlefield 1942_eReg.exe: EA CdKey Registration Module 3.0.0.0
Y:\data1.hdr\Battlefield 1942_uninst.exe: EA CdKey Registration Module 2.0.0.2
Y:\data1.hdr\DrvMgt.dll: SafeDisc 2.80
Y:\data1.hdr\Mod.dll: SafeDisc 2.80.010
Y:\data1.hdr\SECDRV.SYS: SafeDisc 2.80
Y:\data1.hdr\: SafeDisc 2.80
Y:\data1.hdr\00000000.016: SafeDisc 1 or greater
Y:\Support\Chinese\eReg\Battlefield 1942_Code.exe: EA CdKey Registration Module 3.0.0.0
Y:\Support\Chinese\eReg\Battlefield 1942_EZ.exe: EA CdKey Registration Module 2.1.0.5
Y:\Support\Chinese\eReg\Battlefield 1942_eReg.exe: EA CdKey Registration Module 3.0.0.0
Y:\Support\Chinese\eReg\go_ez.exe: EA CdKey Registration Module 
Y:\Support\English\UK\eReg\Battlefield 1942_Code.exe: EA CdKey Registration Module 3.0.0.0
Y:\Support\English\UK\eReg\Battlefield 1942_EZ.exe: EA CdKey Registration Module 2.1.0.5
Y:\Support\English\UK\eReg\Battlefield 1942_eReg.exe: EA CdKey Registration Module 3.0.0.0
Y:\Support\English\UK\eReg\go_ez.exe: EA CdKey Registration Module 
Y:\Support\English\US\eReg\Battlefield 1942_Code.exe: EA CdKey Registration Module 3.0.0.0
Y:\Support\English\US\eReg\Battlefield 1942_EZ.exe: EA CdKey Registration Module 2.1.0.5
Y:\Support\English\US\eReg\Battlefield 1942_eReg.exe: EA CdKey Registration Module 3.0.0.0
Y:\Support\English\US\eReg\go_ez.exe: EA CdKey Registration Module 
Y:\Support\French\eReg\Battlefield 1942_Code.exe: EA CdKey Registration Module 3.0.0.0
Y:\Support\French\eReg\Battlefield 1942_EZ.exe: EA CdKey Registration Module 2.1.0.5
Y:\Support\French\eReg\Battlefield 1942_eReg.exe: EA CdKey Registration Module 3.0.0.0
Y:\Support\French\eReg\go_ez.exe: EA CdKey Registration Module 
Y:\Support\German\eReg\Battlefield 1942_Code.exe: EA CdKey Registration Module 3.0.0.0
Y:\Support\German\eReg\Battlefield 1942_EZ.exe: EA CdKey Registration Module 2.1.0.5
Y:\Support\German\eReg\Battlefield 1942_eReg.exe: EA CdKey Registration Module 3.0.0.0
Y:\Support\German\eReg\go_ez.exe: EA CdKey Registration Module 
Y:\Support\Italian\eReg\Battlefield 1942_Code.exe: EA CdKey Registration Module 3.0.0.0
Y:\Support\Italian\eReg\Battlefield 1942_EZ.exe: EA CdKey Registration Module 2.1.0.5
Y:\Support\Italian\eReg\Battlefield 1942_eReg.exe: EA CdKey Registration Module 3.0.0.0
Y:\Support\Italian\eReg\go_ez.exe: EA CdKey Registration Module 
Y:\Support\Japanese\eReg\Battlefield 1942_Code.exe: EA CdKey Registration Module 3.0.0.0
Y:\Support\Japanese\eReg\Battlefield 1942_EZ.exe: EA CdKey Registration Module 2.1.0.5
Y:\Support\Japanese\eReg\Battlefield 1942_eReg.exe: EA CdKey Registration Module 3.0.0.0
Y:\Support\Japanese\eReg\go_ez.exe: EA CdKey Registration Module 
Y:\Support\Korean\eReg\Battlefield 1942_Code.exe: EA CdKey Registration Module 3.0.0.0
Y:\Support\Korean\eReg\Battlefield 1942_EZ.exe: EA CdKey Registration Module 2.1.0.5
Y:\Support\Korean\eReg\Battlefield 1942_eReg.exe: EA CdKey Registration Module 3.0.0.0
Y:\Support\Korean\eReg\go_ez.exe: EA CdKey Registration Module 
Y:\Support\Spanish\eReg\Battlefield 1942_Code.exe: EA CdKey Registration Module 3.0.0.0
Y:\Support\Spanish\eReg\Battlefield 1942_EZ.exe: EA CdKey Registration Module 2.1.0.5
Y:\Support\Spanish\eReg\Battlefield 1942_eReg.exe: EA CdKey Registration Module 3.0.0.0
Y:\Support\Spanish\eReg\go_ez.exe: EA CdKey Registration Module 
Y:\eReg\Battlefield 1942_Code.exe: EA CdKey Registration Module 3.0.0.0
Y:\eReg\Battlefield 1942_EZ.exe: EA CdKey Registration Module 2.1.0.5
Y:\eReg\Battlefield 1942_eReg.exe: EA CdKey Registration Module 3.0.0.0

Tracks and Write Offsets:
    DAT:

<rom name="DISC_2_BF1942_2.bin" size="782496288" crc="c576b001" md5="ef1db566a7311f4e9de0ced54c0d4809" sha1="07d17a5986b4cfef9848dbea7696e1acacf7eeca" />

    Cuesheet:

FILE "DISC_2_BF1942_2.bin" BINARY
  TRACK 01 MODE1/2352
    INDEX 01 00:00:00

    Write Offset: -12

Disc 1
Page: http://redump.org/disc/56247/
Log: https://cdn.discordapp.com/attachments/ … F1942_1.7z

Common Disc Info:
    Title: Battlefield 1942: World War II Anthology
    Foreign Title (Non-latin): (OPTIONAL)
    Disc Number / Letter: 1
    Disc Title: (OPTIONAL)
    System: IBM PC Compatible
    Media Type: CD-ROM
    Category: Games
    Region: USA
    Languages: Klingon (CHANGE THIS)
    Disc Serial: 1518407

    Ringcode Information:
        Mastering Code (laser branded/etched): 1518407   sonopress arvato   + + EE82303
        Mastering SID Code: IFPI LB41
        Data-Side Mould SID Code: IFPI 10J9
        Label-Side Mould SID Code: (REQUIRED, IF EXISTS)
        Additional Mould: (REQUIRED, IF EXISTS)
        Toolstamp or Mastering Code (engraved/stamped): A11
    Barcode: (OPTIONAL)
    Error Count: 599
    Comments: Disc 1 of Battlefield 1942: The Complete Collection
    Contents: (OPTIONAL)

Version and Editions:
    Version: (REQUIRED, IF EXISTS)
    Edition/Release: Battlefield 1942: The Complete Collection

Extras:
    Primary Volume Descriptor (PVD):

0320 : 20 20 20 20 20 20 20 20  20 20 20 20 20 32 30 30                200
0330 : 34 30 33 32 33 31 34 35  38 32 30 30 30 00 32 30   4032314582000.20
0340 : 30 34 30 33 32 33 31 34  35 38 32 30 30 30 00 30   04032314582000.0
0350 : 30 30 30 30 30 30 30 30  30 30 30 30 30 30 30 00   000000000000000.
0360 : 30 30 30 30 30 30 30 30  30 30 30 30 30 30 30 30   0000000000000000
0370 : 00 01 00 00 00 00 00 00  00 00 00 00 00 00 00 00   ................

Copy Protection:
    Copy Protection:

Y:\: SafeDisc 2.80
Y:\00000000.016: SafeDisc 1 or greater
Y:\00000000.256: SafeDisc 1 or greater
Y:\00000001.TMP: SafeDisc 1 or greater
Y:\00000002.TMP: SafeDisc 2 or greater
Y:\DrvMgt.dll: SafeDisc 2.80
Y:\SECDRV.SYS: SafeDisc 2.80
Y:\data1.hdr\Battlefield 1942_Code.exe: EA CdKey Registration Module 3.0.0.0
Y:\data1.hdr\Battlefield 1942_eReg.exe: EA CdKey Registration Module 3.0.0.0
Y:\data1.hdr\Battlefield 1942_uninst.exe: EA CdKey Registration Module 2.0.0.2
Y:\data1.hdr\ArcadeInstallBF194211b.EXE: Wise Installation Wizard Module
Y:\data1.hdr\ArcadeInstallBF194211b.EXE\WISE0003: Wise Installation Wizard Module
Y:\Support\Chinese\eReg\Battlefield 1942_Code.exe: EA CdKey Registration Module 3.0.0.0
Y:\Support\Chinese\eReg\Battlefield 1942_EZ.exe: EA CdKey Registration Module 2.1.0.5
Y:\Support\Chinese\eReg\Battlefield 1942_eReg.exe: EA CdKey Registration Module 3.0.0.0
Y:\Support\Chinese\eReg\go_ez.exe: EA CdKey Registration Module 
Y:\Support\English\UK\eReg\Battlefield 1942_Code.exe: EA CdKey Registration Module 3.0.0.0
Y:\Support\English\UK\eReg\Battlefield 1942_EZ.exe: EA CdKey Registration Module 2.1.0.5
Y:\Support\English\UK\eReg\Battlefield 1942_eReg.exe: EA CdKey Registration Module 3.0.0.0
Y:\Support\English\UK\eReg\go_ez.exe: EA CdKey Registration Module 
Y:\Support\English\US\eReg\Battlefield 1942_Code.exe: EA CdKey Registration Module 3.0.0.0
Y:\Support\English\US\eReg\Battlefield 1942_EZ.exe: EA CdKey Registration Module 2.1.0.5
Y:\Support\English\US\eReg\Battlefield 1942_eReg.exe: EA CdKey Registration Module 3.0.0.0
Y:\Support\English\US\eReg\go_ez.exe: EA CdKey Registration Module 
Y:\Support\French\eReg\Battlefield 1942_Code.exe: EA CdKey Registration Module 3.0.0.0
Y:\Support\French\eReg\Battlefield 1942_EZ.exe: EA CdKey Registration Module 2.1.0.5
Y:\Support\French\eReg\Battlefield 1942_eReg.exe: EA CdKey Registration Module 3.0.0.0
Y:\Support\French\eReg\go_ez.exe: EA CdKey Registration Module 
Y:\Support\German\eReg\Battlefield 1942_Code.exe: EA CdKey Registration Module 3.0.0.0
Y:\Support\German\eReg\Battlefield 1942_EZ.exe: EA CdKey Registration Module 2.1.0.5
Y:\Support\German\eReg\Battlefield 1942_eReg.exe: EA CdKey Registration Module 3.0.0.0
Y:\Support\German\eReg\go_ez.exe: EA CdKey Registration Module 
Y:\Support\Italian\eReg\Battlefield 1942_Code.exe: EA CdKey Registration Module 3.0.0.0
Y:\Support\Italian\eReg\Battlefield 1942_EZ.exe: EA CdKey Registration Module 2.1.0.5
Y:\Support\Italian\eReg\Battlefield 1942_eReg.exe: EA CdKey Registration Module 3.0.0.0
Y:\Support\Italian\eReg\go_ez.exe: EA CdKey Registration Module 
Y:\Support\Japanese\eReg\Battlefield 1942_Code.exe: EA CdKey Registration Module 3.0.0.0
Y:\Support\Japanese\eReg\Battlefield 1942_EZ.exe: EA CdKey Registration Module 2.1.0.5
Y:\Support\Japanese\eReg\Battlefield 1942_eReg.exe: EA CdKey Registration Module 3.0.0.0
Y:\Support\Japanese\eReg\go_ez.exe: EA CdKey Registration Module 
Y:\Support\Korean\eReg\Battlefield 1942_Code.exe: EA CdKey Registration Module 3.0.0.0
Y:\Support\Korean\eReg\Battlefield 1942_EZ.exe: EA CdKey Registration Module 2.1.0.5
Y:\Support\Korean\eReg\Battlefield 1942_eReg.exe: EA CdKey Registration Module 3.0.0.0
Y:\Support\Korean\eReg\go_ez.exe: EA CdKey Registration Module 
Y:\Support\Spanish\eReg\Battlefield 1942_Code.exe: EA CdKey Registration Module 3.0.0.0
Y:\Support\Spanish\eReg\Battlefield 1942_EZ.exe: EA CdKey Registration Module 2.1.0.5
Y:\Support\Spanish\eReg\Battlefield 1942_eReg.exe: EA CdKey Registration Module 3.0.0.0
Y:\Support\Spanish\eReg\go_ez.exe: EA CdKey Registration Module 
Y:\eReg\Battlefield 1942_Code.exe: EA CdKey Registration Module 3.0.0.0
Y:\eReg\Battlefield 1942_EZ.exe: EA CdKey Registration Module 2.1.0.5
Y:\eReg\Battlefield 1942_eReg.exe: EA CdKey Registration Module 3.0.0.0

Tracks and Write Offsets:
    DAT:

<rom name="DISC_1_BF1942_1.bin" size="755551776" crc="b06e2f69" md5="9a6ca71c956b572441fd0f435b297a14" sha1="010867d1581afd7b34908be7c90aad6dde0df8a5" />

    Cuesheet:

FILE "DISC_1_BF1942_1.bin" BINARY
  TRACK 01 MODE1/2352
    INDEX 01 00:00:00

    Write Offset: -12

Disc 4
Page: http://redump.org/disc/19924/
Log: https://cdn.discordapp.com/attachments/ … /MOHPA4.7z

Common Disc Info:
    Title: Medal of Honor: Pacific Assault
    Foreign Title (Non-latin): (OPTIONAL)
    Disc Number / Letter: 4
    Disc Title: (OPTIONAL)
    System: IBM PC Compatible
    Media Type: CD-ROM
    Category: Games
    Region: USA
    Languages: Klingon (CHANGE THIS)
    Disc Serial: 1471837

    Ringcode Information:
        Mastering Code (laser branded/etched): **   (EA1471837SP)   B04J2615D
        Mastering SID Code: IFPI L772
        Data-Side Mould SID Code: IFPI 2A02
        Label-Side Mould SID Code: (REQUIRED, IF EXISTS)
        Additional Mould: (REQUIRED, IF EXISTS)
        Toolstamp or Mastering Code (engraved/stamped): (REQUIRED, IF EXISTS)
    Barcode: (OPTIONAL)
    Error Count: 583
    Comments: [T:ISBN] (OPTIONAL)
    Contents: (OPTIONAL)

Version and Editions:
    Version: (REQUIRED, IF EXISTS)
    Edition/Release: Original

Extras:
    Primary Volume Descriptor (PVD):

0320 : 20 20 20 20 20 20 20 20  20 20 20 20 20 32 30 30                200
0330 : 34 31 30 32 31 31 30 33  30 34 32 30 30 00 32 30   4102110304200.20
0340 : 30 34 31 30 32 31 31 30  33 30 34 32 30 30 00 30   04102110304200.0
0350 : 30 30 30 30 30 30 30 30  30 30 30 30 30 30 30 00   000000000000000.
0360 : 30 30 30 30 30 30 30 30  30 30 30 30 30 30 30 30   0000000000000000
0370 : 00 01 00 00 00 00 00 00  00 00 00 00 00 00 00 00   ................

Copy Protection:
    Copy Protection:

Y:\00000000.016: SafeDisc 1 or greater
Y:\00000000.256: SafeDisc 1 or greater
Y:\00000001.TMP: SafeDisc 1 or greater
Y:\00000002.TMP: SafeDisc 2 or greater

Tracks and Write Offsets:
    DAT:

<rom name="MOHPA.bin" size="830822832" crc="cda8c178" md5="c5f5c6de4f7e00a423dc0b49a1e13dbc" sha1="26ca4faf0533c62c0ab03b08b39267c99c61f871" />

    Cuesheet:

FILE "MOHPA.bin" BINARY
  TRACK 01 MODE1/2352
    INDEX 01 00:00:00

    Write Offset: -12

Disc 3
Page: http://redump.org/disc/19923/
Log: https://cdn.discordapp.com/attachments/ … /MOHPA3.7z

Common Disc Info:
    Title: Medal of Honor: Pacific Assault
    Foreign Title (Non-latin): (OPTIONAL)
    Disc Number / Letter: 3
    Disc Title: (OPTIONAL)
    System: IBM PC Compatible
    Media Type: CD-ROM
    Category: Games
    Region: USA
    Languages: Klingon (CHANGE THIS)
    Disc Serial: 1471827

    Ringcode Information:
        Mastering Code (laser branded/etched): **   (EA1471827SP)   B04J2624D
        Mastering SID Code: IFPI L772
        Data-Side Mould SID Code: IFPI 2A01
        Label-Side Mould SID Code: (REQUIRED, IF EXISTS)
        Additional Mould: (REQUIRED, IF EXISTS)
        Toolstamp or Mastering Code (engraved/stamped): (REQUIRED, IF EXISTS)
    Barcode: (OPTIONAL)
    Error Count: 0
    Comments: [T:ISBN] (OPTIONAL)
    Contents: (OPTIONAL)

Version and Editions:
    Version: (REQUIRED, IF EXISTS)
    Edition/Release: Original

Extras:
    Primary Volume Descriptor (PVD):

0320 : 20 20 20 20 20 20 20 20  20 20 20 20 20 32 30 30                200
0330 : 34 31 30 32 31 31 30 32  35 34 34 30 30 00 32 30   4102110254400.20
0340 : 30 34 31 30 32 31 31 30  32 35 34 34 30 30 00 30   04102110254400.0
0350 : 30 30 30 30 30 30 30 30  30 30 30 30 30 30 30 00   000000000000000.
0360 : 30 30 30 30 30 30 30 30  30 30 30 30 30 30 30 30   0000000000000000
0370 : 00 01 00 00 00 00 00 00  00 00 00 00 00 00 00 00   ................

Copy Protection:
    Copy Protection: None found

Tracks and Write Offsets:
    DAT:

<rom name="MOHPA.bin" size="830564112" crc="7ca67938" md5="e762023f57f3ecdc2973432a5cfdc9b5" sha1="6fa21609e402305cbea5b5bb60d79f953408a828" />

    Cuesheet:

FILE "MOHPA.bin" BINARY
  TRACK 01 MODE1/2352
    INDEX 01 00:00:00

    Write Offset: -12

Disc 2
Page: http://redump.org/disc/19922/
Log: https://cdn.discordapp.com/attachments/ … /MOHPA2.7z

Common Disc Info:
    Title: Medal of Honor: Pacific Assault
    Foreign Title (Non-latin): (OPTIONAL)
    Disc Number / Letter: 2
    Disc Title: (OPTIONAL)
    System: IBM PC Compatible
    Media Type: CD-ROM
    Category: Games
    Region: USA
    Languages: Klingon (CHANGE THIS)
    Disc Serial: 1471817

    Ringcode Information:
        Mastering Code (laser branded/etched): **   (EA1471817SP)   B04J2618D
        Mastering SID Code: IFPI L772
        Data-Side Mould SID Code: IFPI 2A14
        Label-Side Mould SID Code: (REQUIRED, IF EXISTS)
        Additional Mould: (REQUIRED, IF EXISTS)
        Toolstamp or Mastering Code (engraved/stamped): (REQUIRED, IF EXISTS)
    Barcode: (OPTIONAL)
    Error Count: 0
    Comments: [T:ISBN] (OPTIONAL)
    Contents: (OPTIONAL)

Version and Editions:
    Version: (REQUIRED, IF EXISTS)
    Edition/Release: Original

Extras:
    Primary Volume Descriptor (PVD):

0320 : 20 20 20 20 20 20 20 20  20 20 20 20 20 32 30 30                200
0330 : 34 31 30 32 31 31 30 32  33 31 31 30 30 00 32 30   4102110231100.20
0340 : 30 34 31 30 32 31 31 30  32 33 31 31 30 30 00 30   04102110231100.0
0350 : 30 30 30 30 30 30 30 30  30 30 30 30 30 30 30 00   000000000000000.
0360 : 30 30 30 30 30 30 30 30  30 30 30 30 30 30 30 30   0000000000000000
0370 : 00 01 00 00 00 00 00 00  00 00 00 00 00 00 00 00   ................

Copy Protection:
    Copy Protection: None found

Tracks and Write Offsets:
    DAT:

<rom name="MOHPA.bin" size="830564112" crc="b03124ae" md5="6ecb34a08a358cb6cba8ca425a68aea6" sha1="b1c98608c16366d0370bb19af7c96e92820537fe" />

    Cuesheet:

FILE "MOHPA.bin" BINARY
  TRACK 01 MODE1/2352
    INDEX 01 00:00:00

    Write Offset: -12

Disc 1
Page: http://redump.org/disc/19921/
Log: https://cdn.discordapp.com/attachments/ … 2/MOHPA.7z

Common Disc Info:
    Title: Medal of Honor: Pacific Assault
    Foreign Title (Non-latin): (OPTIONAL)
    Disc Number / Letter: 1
    Disc Title: (OPTIONAL)
    System: IBM PC Compatible
    Media Type: CD-ROM
    Category: Games
    Region: USA
    Languages: Klingon (CHANGE THIS)
    Disc Serial: 1471807

    Ringcode Information:
        Mastering Code (laser branded/etched): **   (EA1471807SP)   B04J2633D
        Mastering SID Code: IFPI L772
        Data-Side Mould SID Code: IFPI 240B
        Label-Side Mould SID Code: (REQUIRED, IF EXISTS)
        Additional Mould: (REQUIRED, IF EXISTS)
        Toolstamp or Mastering Code (engraved/stamped): (REQUIRED, IF EXISTS)
    Barcode: (OPTIONAL)
    Error Count: 0
    Comments: [T:ISBN] (OPTIONAL)
    Contents: (OPTIONAL)

Version and Editions:
    Version: (REQUIRED, IF EXISTS)
    Edition/Release: Original

Extras:
    Primary Volume Descriptor (PVD):

0320 : 20 20 20 20 20 20 20 20  20 20 20 20 20 32 30 30                200
0330 : 34 31 30 32 31 31 30 32  30 32 39 30 30 00 32 30   4102110202900.20
0340 : 30 34 31 30 32 31 31 30  32 30 32 39 30 30 00 30   04102110202900.0
0350 : 30 30 30 30 30 30 30 30  30 30 30 30 30 30 30 00   000000000000000.
0360 : 30 30 30 30 30 30 30 30  30 30 30 30 30 30 30 30   0000000000000000
0370 : 00 01 00 00 00 00 00 00  00 00 00 00 00 00 00 00   ................

Copy Protection:
    Copy Protection:

Y:\GameSpy\ArcadeInstallMOHPA14d.EXE: Wise Installation Wizard Module
Y:\GameSpy\ArcadeInstallMOHPA14d.EXE\WISE0003: Wise Installation Wizard Module
Y:\setup\data1.hdr\Medal of Honor Pacific Assaulttm_uninst.exe: EA CdKey Registration Module 4.0.0.23
Y:\support\Medal of Honor Batailles du Pacifiquetm_code.exe: EA CdKey Registration Module 1.4.1.000
Y:\support\Medal of Honor Batailles du Pacifiquetm_uninst.exe: EA CdKey Registration Module 4.0.0.23
Y:\support\Medal of Honor Pacific Assaulttm_code.exe: EA CdKey Registration Module 1.4.3.000
Y:\support\Medal of Honor Pacific Assaulttm_uninst.exe: EA CdKey Registration Module 4.0.0.23

Tracks and Write Offsets:
    DAT:

<rom name="MOHPA.bin" size="830881632" crc="3f619fd4" md5="7f8df4eb5a672921c7686f9fdbfaa71f" sha1="ec9a6609fc3b40dad5f4eea49c221df8d5a796e8" />

    Cuesheet:

FILE "MOHPA.bin" BINARY
  TRACK 01 MODE1/2352
    INDEX 01 00:00:00

    Write Offset: -12

13

(2 replies, posted in Verifications)

Disc 4
Page: http://redump.org/disc/13185/
Log: https://cdn.discordapp.com/attachments/ … UAKE4_4.7z

Common Disc Info:
    Title: Quake 4
    Foreign Title (Non-latin): (OPTIONAL)
    Disc Number / Letter: 4
    Disc Title: (OPTIONAL)
    System: IBM PC Compatible
    Media Type: CD-ROM
    Category: Games
    Region: USA
    Languages: Klingon (CHANGE THIS)
    Disc Serial: 32993.104.US

    Ringcode Information:
        Mastering Code (laser branded/etched): (UD63668) 32993104US 2R
        Mastering SID Code: IFPI L435
        Data-Side Mould SID Code: IFPI 7493
        Label-Side Mould SID Code: (REQUIRED, IF EXISTS)
        Additional Mould: (REQUIRED, IF EXISTS)
        Toolstamp or Mastering Code (engraved/stamped): (REQUIRED, IF EXISTS)
    Barcode: (OPTIONAL)
    Error Count: 0
    Comments: [T:ISBN] (OPTIONAL)
    Contents: (OPTIONAL)

Version and Editions:
    Version: (REQUIRED, IF EXISTS)
    Edition/Release: Original

Extras:
    Primary Volume Descriptor (PVD):

0320 : 20 20 20 20 20 20 20 20  20 20 20 20 20 32 30 30                200
0330 : 35 30 39 32 33 30 32 31  35 35 33 30 30 E4 32 30   5092302155300.20
0340 : 30 35 30 39 32 33 30 32  31 35 35 33 30 30 E4 30   05092302155300.0
0350 : 30 30 30 30 30 30 30 30  30 30 30 30 30 30 30 00   000000000000000.
0360 : 32 30 30 35 30 39 32 33  30 32 31 35 35 33 30 30   2005092302155300
0370 : E4 01 00 20 20 20 20 20  20 20 20 20 20 20 20 20   ...

Copy Protection:
    Copy Protection: None found

Tracks and Write Offsets:
    DAT:

<rom name="QUAKE4_4.bin" size="763957824" crc="10797cc8" md5="cb9f3e9e8651fa782d6258c919d62d3d" sha1="7c130f83a1aeb31d145e9b679c831fce8cdb3dbc" />

    Cuesheet:

FILE "QUAKE4_4.bin" BINARY
  TRACK 01 MODE1/2352
    INDEX 01 00:00:00

    Write Offset: -12

14

(2 replies, posted in Verifications)

Disc 3
Page: http://redump.org/disc/13184/
Log: https://cdn.discordapp.com/attachments/ … UAKE4_3.7z

Common Disc Info:
    Title: Quake 4
    Foreign Title (Non-latin): (OPTIONAL)
    Disc Number / Letter: 3
    Disc Title: (OPTIONAL)
    System: IBM PC Compatible
    Media Type: CD-ROM
    Category: Games
    Region: USA
    Languages: Klingon (CHANGE THIS)
    Disc Serial: 32993.103.US

    Ringcode Information:
        Mastering Code (laser branded/etched): 32993103US R2R
        Mastering SID Code: IFPI L241
        Data-Side Mould SID Code: IFPI 4154
        Label-Side Mould SID Code: (REQUIRED, IF EXISTS)
        Additional Mould: (REQUIRED, IF EXISTS)
        Toolstamp or Mastering Code (engraved/stamped): 11
    Barcode: (OPTIONAL)
    Error Count: 0
    Comments: [T:ISBN] (OPTIONAL)
    Contents: (OPTIONAL)

Version and Editions:
    Version: (REQUIRED, IF EXISTS)
    Edition/Release: Original

Extras:
    Primary Volume Descriptor (PVD):

0320 : 20 20 20 20 20 20 20 20  20 20 20 20 20 32 30 30                200
0330 : 35 30 39 32 33 30 32 31  35 32 30 30 30 E4 32 30   5092302152000.20
0340 : 30 35 30 39 32 33 30 32  31 35 32 30 30 30 E4 30   05092302152000.0
0350 : 30 30 30 30 30 30 30 30  30 30 30 30 30 30 30 00   000000000000000.
0360 : 32 30 30 35 30 39 32 33  30 32 31 35 32 30 30 30   2005092302152000
0370 : E4 01 00 20 20 20 20 20  20 20 20 20 20 20 20 20   ...

Copy Protection:
    Copy Protection: None found

Tracks and Write Offsets:
    DAT:

<rom name="QUAKE4_3.bin" size="768384288" crc="5365dbb5" md5="47acb814d97626acdd59deefb680fcdb" sha1="6567cbc30b5a7c760cf2def4458236885bbbb658" />

    Cuesheet:

FILE "QUAKE4_3.bin" BINARY
  TRACK 01 MODE1/2352
    INDEX 01 00:00:00

    Write Offset: 0

Disc 2
Page: http://redump.org/disc/13183/
Log: https://cdn.discordapp.com/attachments/ … UAKE4_2.7z

Common Disc Info:
    Title: Quake 4
    Foreign Title (Non-latin): (OPTIONAL)
    Disc Number / Letter: 2
    Disc Title: (OPTIONAL)
    System: IBM PC Compatible
    Media Type: CD-ROM
    Category: Games
    Region: USA
    Languages: Klingon (CHANGE THIS)
    Disc Serial: 32993.102.US

    Ringcode Information:
        Mastering Code (laser branded/etched): (UD63666) 32993102US 1R
        Mastering SID Code: IFPI L435
        Data-Side Mould SID Code: IFPI 7493
        Label-Side Mould SID Code: (REQUIRED, IF EXISTS)
        Additional Mould: (REQUIRED, IF EXISTS)
        Toolstamp or Mastering Code (engraved/stamped): (REQUIRED, IF EXISTS)
    Barcode: (OPTIONAL)
    Error Count: 0
    Comments: [T:ISBN] (OPTIONAL)
    Contents: (OPTIONAL)

Version and Editions:
    Version: (REQUIRED, IF EXISTS)
    Edition/Release: Original

Extras:
    Primary Volume Descriptor (PVD):

0320 : 20 20 20 20 20 20 20 20  20 20 20 20 20 32 30 30                200
0330 : 35 30 39 32 33 30 32 31  34 33 33 30 30 E4 32 30   5092302143300.20
0340 : 30 35 30 39 32 33 30 32  31 34 33 33 30 30 E4 30   05092302143300.0
0350 : 30 30 30 30 30 30 30 30  30 30 30 30 30 30 30 00   000000000000000.
0360 : 32 30 30 35 30 39 32 33  30 32 31 34 33 33 30 30   2005092302143300
0370 : E4 01 00 20 20 20 20 20  20 20 20 20 20 20 20 20   ...

Copy Protection:
    Copy Protection: None found

Tracks and Write Offsets:
    DAT:

<rom name="QUAKE4_2.bin" size="766549728" crc="36a816a1" md5="9e52b206db543285e9dff3ec12848b7b" sha1="fe58f605317b3cd3c83aa20e3b7cc1db797f0559" />

    Cuesheet:

FILE "QUAKE4_2.bin" BINARY
  TRACK 01 MODE1/2352
    INDEX 01 00:00:00

    Write Offset: -12

Disc 4
Page: http://redump.org/disc/65212/
Log: https://cdn.discordapp.com/attachments/ … W_DISC4.7z

Common Disc Info:
    Title: Need for Speed: Most Wanted
    Foreign Title (Non-latin): (OPTIONAL)
    Disc Number / Letter: 4
    Disc Title: (OPTIONAL)
    System: IBM PC Compatible
    Media Type: CD-ROM
    Category: Games
    Region: World
    Languages: Klingon (CHANGE THIS)
    Disc Serial: 1520737

    Ringcode Information:
        Mastering Code (laser branded/etched): 1520737   sonopress arvato   + +   F024601
        Mastering SID Code: IFPI LB41
        Data-Side Mould SID Code: IFPI 10E5
        Label-Side Mould SID Code: (REQUIRED, IF EXISTS)
        Additional Mould: (REQUIRED, IF EXISTS)
        Toolstamp or Mastering Code (engraved/stamped): A04
    Barcode: (OPTIONAL)
    Error Count: 0
    Comments: [T:ISBN] (OPTIONAL)
    Contents: (OPTIONAL)

Version and Editions:
    Version: (REQUIRED, IF EXISTS)
    Edition/Release: Original

Extras:
    Primary Volume Descriptor (PVD):

0320 : 20 20 20 20 20 20 20 20  20 20 20 20 20 32 30 30                200
0330 : 35 31 31 30 33 32 32 33  30 32 38 30 30 00 32 30   5110322302800.20
0340 : 30 35 31 31 30 33 32 32  33 30 32 38 30 30 00 30   05110322302800.0
0350 : 30 30 30 30 30 30 30 30  30 30 30 30 30 30 30 00   000000000000000.
0360 : 30 30 30 30 30 30 30 30  30 30 30 30 30 30 30 30   0000000000000000
0370 : 00 01 00 00 00 00 00 00  00 00 00 00 00 00 00 00   ................

Copy Protection:
    Copy Protection: None found

Tracks and Write Offsets:
    DAT:

<rom name="NFSMW_DISC4.bin" size="194865552" crc="6c0f588d" md5="a4ad268ea8266d64f17accbf33b82639" sha1="5ce86be1cfbd68fa49ae45447fbcf656c1b66c47" />

    Cuesheet:

FILE "NFSMW_DISC4.bin" BINARY
  TRACK 01 MODE1/2352
    INDEX 01 00:00:00

    Write Offset: -12

Disc 3
Page: http://redump.org/disc/65211/
Log: https://cdn.discordapp.com/attachments/ … W_DISC3.7z

Common Disc Info:
    Title: Need for Speed: Most Wanted
    Foreign Title (Non-latin): (OPTIONAL)
    Disc Number / Letter: 3
    Disc Title: (OPTIONAL)
    System: IBM PC Compatible
    Media Type: CD-ROM
    Category: Games
    Region: USA
    Languages: Klingon (CHANGE THIS)
    Disc Serial: 1520727

    Ringcode Information:
        Mastering Code (laser branded/etched): 1520727   sonopress arvato   + +   F024501    
        Mastering SID Code: IFPI LB41
        Data-Side Mould SID Code: IFPI 10K4
        Label-Side Mould SID Code: (REQUIRED, IF EXISTS)
        Additional Mould: (REQUIRED, IF EXISTS)
        Toolstamp or Mastering Code (engraved/stamped): A04
    Barcode: (OPTIONAL)
    Error Count: 0
    Comments: [T:ISBN] (OPTIONAL)
    Contents: (OPTIONAL)

Version and Editions:
    Version: (REQUIRED, IF EXISTS)
    Edition/Release: Original

Extras:
    Primary Volume Descriptor (PVD):

0320 : 20 20 20 20 20 20 20 20  20 20 20 20 20 32 30 30                200
0330 : 35 31 31 30 33 32 32 32  39 30 35 30 30 00 32 30   5110322290500.20
0340 : 30 35 31 31 30 33 32 32  32 39 30 35 30 30 00 30   05110322290500.0
0350 : 30 30 30 30 30 30 30 30  30 30 30 30 30 30 30 00   000000000000000.
0360 : 30 30 30 30 30 30 30 30  30 30 30 30 30 30 30 30   0000000000000000
0370 : 00 01 00 00 00 00 00 00  00 00 00 00 00 00 00 00   ................

Copy Protection:
    Copy Protection: None found

Tracks and Write Offsets:
    DAT:

<rom name="NFSMW_DISC3.bin" size="840543648" crc="77d6aa65" md5="64b81983091b8128c775719eb6d0ba25" sha1="12c43d9b11b72f153e882f4161fd651254daff45" />

    Cuesheet:

FILE "NFSMW_DISC3.bin" BINARY
  TRACK 01 MODE1/2352
    INDEX 01 00:00:00

    Write Offset: -12

Disc 1
Page: http://redump.org/disc/65209/
Log: https://cdn.discordapp.com/attachments/ … W_DISC1.7z

Common Disc Info:
    Title: Need for Speed: Most Wanted
    Foreign Title (Non-latin): (OPTIONAL)
    Disc Number / Letter: 1
    Disc Title: (OPTIONAL)
    System: IBM PC Compatible
    Media Type: CD-ROM
    Category: Games
    Region: USA
    Languages: Klingon (CHANGE THIS)
    Disc Serial: 1520707

    Ringcode Information:
        Mastering Code (laser branded/etched): 1520707   sonopress arvato   + +   F025002    
        Mastering SID Code: IFPI LB48
        Data-Side Mould SID Code: IFPI 10K3
        Label-Side Mould SID Code: (REQUIRED, IF EXISTS)
        Additional Mould: (REQUIRED, IF EXISTS)
        Toolstamp or Mastering Code (engraved/stamped): A08
    Barcode: (OPTIONAL)
    Error Count: 585
    Comments: [T:ISBN] (OPTIONAL)
    Contents: (OPTIONAL)

Version and Editions:
    Version: (REQUIRED, IF EXISTS)
    Edition/Release: Original

Extras:
    Primary Volume Descriptor (PVD):

0320 : 20 20 20 20 20 20 20 20  20 20 20 20 20 32 30 30                200
0330 : 35 31 31 30 33 32 32 32  36 30 33 30 30 00 32 30   5110322260300.20
0340 : 30 35 31 31 30 33 32 32  32 36 30 33 30 30 00 30   05110322260300.0
0350 : 30 30 30 30 30 30 30 30  30 30 30 30 30 30 30 00   000000000000000.
0360 : 30 30 30 30 30 30 30 30  30 30 30 30 30 30 30 30   0000000000000000
0370 : 00 01 00 00 00 00 00 00  00 00 00 00 00 00 00 00   ................

Copy Protection:
    Copy Protection:

Y:\00000000.256: SafeDisc 1 or greater
Y:\00000001.TMP: SafeDisc 1 or greater
Y:\00000002.TMP: SafeDisc 2 or greater
Y:\DIAG.EXE: SafeDisc 4.60.000
Y:\speed.exe: SafeDisc  4.60.00.170
Y:\Support\Need for Speed Most Wanted_code.exe: EA CdKey Registration Module 1.05.04.00
Y:\Support\Need for Speed Most Wanted_uninst.exe: EA CdKey Registration Module 1.05.04.00

Tracks and Write Offsets:
    DAT:

<rom name="NFSMW_DISC1.bin" size="811534080" crc="212385e0" md5="0f983b42143044179a0449dc58ac0a23" sha1="47d14191188f169c55869626754ab6deddc73c6e" />

    Cuesheet:

FILE "NFSMW_DISC1.bin" BINARY
  TRACK 01 MODE1/2352
    INDEX 01 00:00:00

    Write Offset: -12

Disc 2
Page: http://redump.org/disc/62720/
Log: https://cdn.discordapp.com/attachments/ … 62/HMC2.7z

Common Disc Info:
    Title: Hitman: Contracts
    Foreign Title (Non-latin): (OPTIONAL)
    Disc Number / Letter: 2
    Disc Title: (OPTIONAL)
    System: IBM PC Compatible
    Media Type: CD-ROM
    Category: Games
    Region: USA
    Languages: Klingon (CHANGE THIS)
    Disc Serial: MHTMCPUS22

    Ringcode Information:
        Mastering Code (laser branded/etched): 0607887 01   6/1/2007 3:56:10 PM
        Mastering SID Code: IFPI LN07
        Data-Side Mould SID Code: IFPI J139
        Label-Side Mould SID Code: (REQUIRED, IF EXISTS)
        Additional Mould: (REQUIRED, IF EXISTS)
        Toolstamp or Mastering Code (engraved/stamped): (REQUIRED, IF EXISTS)
    Barcode: (OPTIONAL)
    Error Count: 1
    Comments: [T:ISBN] (OPTIONAL)
    Contents: (OPTIONAL)

Version and Editions:
    Version: (REQUIRED, IF EXISTS)
    Edition/Release: Hitman Trilogy

Extras:
    Primary Volume Descriptor (PVD):

0320 : 20 20 20 20 20 20 20 20  20 20 20 20 20 32 30 30                200
0330 : 37 30 35 31 30 31 30 35  38 30 30 30 30 E4 32 30   7051010580000.20
0340 : 30 37 30 35 31 30 31 30  35 38 30 30 30 30 E4 30   07051010580000.0
0350 : 30 30 30 30 30 30 30 30  30 30 30 30 30 30 30 00   000000000000000.
0360 : 30 30 30 30 30 30 30 30  30 30 30 30 30 30 30 30   0000000000000000
0370 : 00 01 00 00 01 E8 03 00  00 00 00 00 00 00 00 00   ................

Copy Protection:
    Copy Protection: Y:\hitmancontracts.exe: SecuROM 5.03.30.0040
    SubIntention Data (SecuROM/LibCrypt):

MSF: 00:01:74 Q-Data: 410100 00:40:01 00 00:03:74 2ef1
MSF: 01:08:50 Q-Data: 410101 21:06:50 00 05:08:50 0a8f
MSF: 01:50:52 Q-Data: 410101 01:58:52 00 01:58:52 03eb
MSF: 02:07:21 Q-Data: 410101 02:05:25 00 02:07:01 8ce2
MSF: 02:12:03 Q-Data: 410101 02:14:03 00 02:32:03 61f6
MSF: 02:14:00 Q-Data: 410101 02:12:04 00 02:14:20 9ea1
MSF: 02:22:61 Q-Data: 410101 42:20:61 00 00:22:61 5a54
MSF: 02:40:11 Q-Data: 410101 02:39:11 00 02:c0:11 43cb
MSF: 03:08:39 Q-Data: 410101 13:06:39 00 0b:08:39 4823
MSF: 03:22:51 Q-Data: 410101 02:20:51 00 83:22:51 efb8
MSF: 03:40:01 Q-Data: 410101 03:3a:01 00 03:00:01 daf1

Tracks and Write Offsets:
    DAT:

<rom name="HMC.bin" size="438483360" crc="5c1d10dc" md5="6f79bd0457432d0a30843509ad809bdd" sha1="3c6d801498f1105e105900b27aa4f6bd08c251b5" />

    Cuesheet:

FILE "HMC.bin" BINARY
  TRACK 01 MODE2/2352
    INDEX 01 00:00:00

    Write Offset: -12

Disc 1
Page: http://redump.org/disc/62719/
Log: https://cdn.discordapp.com/attachments/ … 784/HMC.7z

Common Disc Info:
    Title: Hitman: Contracts
    Foreign Title (Non-latin): (OPTIONAL)
    Disc Number / Letter: 1
    Disc Title: (OPTIONAL)
    System: IBM PC Compatible
    Media Type: CD-ROM
    Category: Games
    Region: USA
    Languages: Klingon (CHANGE THIS)
    Disc Serial: MHTMCPUS21

    Ringcode Information:
        Mastering Code (laser branded/etched): 0607876 01   6/2/2007 9:01:08 AM
        Mastering SID Code: IFPI LN07
        Data-Side Mould SID Code: IFPI JI18
        Label-Side Mould SID Code: (REQUIRED, IF EXISTS)
        Additional Mould: (REQUIRED, IF EXISTS)
        Toolstamp or Mastering Code (engraved/stamped): (REQUIRED, IF EXISTS)
    Barcode: (OPTIONAL)
    Error Count: 0
    Comments: [T:ISBN] (OPTIONAL)
    Contents: (OPTIONAL)

Version and Editions:
    Version: (REQUIRED, IF EXISTS)
    Edition/Release: Hitman Trilogy

Extras:
    Primary Volume Descriptor (PVD):

0320 : 20 20 20 20 20 20 20 20  20 20 20 20 20 32 30 30                200
0330 : 37 30 35 31 30 31 30 34  38 30 30 30 30 E4 32 30   7051010480000.20
0340 : 30 37 30 35 31 30 31 30  34 38 30 30 30 30 E4 30   07051010480000.0
0350 : 30 30 30 30 30 30 30 30  30 30 30 30 30 30 30 00   000000000000000.
0360 : 30 30 30 30 30 30 30 30  30 30 30 30 30 30 30 30   0000000000000000
0370 : 00 01 00 00 00 00 00 00  00 00 00 00 00 00 00 00   ................

Copy Protection:
    Copy Protection:

Y:\setup.exe: Wise Installation Wizard Module
Y:\setup.exe\WISE0003: Wise Installation Wizard Module

Tracks and Write Offsets:
    DAT:

<rom name="HMC.bin" size="698638080" crc="99e659ee" md5="a00459fb516e4aceb6bd4819fcff35cf" sha1="91b5f03b6fcbc88a75f62bfa7c3e6b9ffc075d0a" />

    Cuesheet:

FILE "HMC.bin" BINARY
  TRACK 01 MODE1/2352
    INDEX 01 00:00:00

    Write Offset: 0

21

(2 replies, posted in Verifications)

Disc 3
Page: http://redump.org/disc/63371/
Log: https://cdn.discordapp.com/attachments/ … IAH_CD3.7z

Common Disc Info:
    Title: Pariah
    Foreign Title (Non-latin): (OPTIONAL)
    Disc Number / Letter: 3
    Disc Title: Install Disc
    System: IBM PC Compatible
    Media Type: CD-ROM
    Category: Games
    Region: USA
    Languages: Klingon (CHANGE THIS)
    Disc Serial: (REQUIRED, IF EXISTS)

    Ringcode Information:
        Mastering Code (laser branded/etched): SU1021952 03 10458-CD3
        Mastering SID Code: ifpi LF56
        Data-Side Mould SID Code: IFPI KZ05
        Label-Side Mould SID Code: (REQUIRED, IF EXISTS)
        Additional Mould: (REQUIRED, IF EXISTS)
        Toolstamp or Mastering Code (engraved/stamped): (REQUIRED, IF EXISTS)
    Barcode: (OPTIONAL)
    Error Count: 0
    Comments:

All three discs are labeled "Install Disc" along with their number.
Mastering SID is lowercase "ifpi"

    Contents: (OPTIONAL)

Version and Editions:
    Version: (REQUIRED, IF EXISTS)
    Edition/Release: Original

Extras:
    Primary Volume Descriptor (PVD):

0320 : 20 20 20 20 20 20 20 20  20 20 20 20 20 32 30 30                200
0330 : 35 30 34 31 35 30 31 32  35 33 30 30 30 10 32 30   5041501253000.20
0340 : 30 35 30 34 31 35 30 31  32 35 33 30 30 30 10 30   05041501253000.0
0350 : 30 30 30 30 30 30 30 30  30 30 30 30 30 30 30 00   000000000000000.
0360 : 30 30 30 30 30 30 30 30  30 30 30 30 30 30 30 30   0000000000000000
0370 : 00 01 00 00 00 00 00 00  00 00 00 00 00 00 00 00   ................

Copy Protection:
    Copy Protection: None found

Tracks and Write Offsets:
    DAT:

<rom name="PARIAH_CD3.bin" size="740680080" crc="246a5545" md5="5bb4ac88c10bb06c102bd3f69fbfbf1b" sha1="99a48a7678fd9e712b1f376ce7dfaa3466602c4a" />

    Cuesheet:

FILE "PARIAH_CD3.bin" BINARY
  TRACK 01 MODE1/2352
    INDEX 01 00:00:00

    Write Offset: -153

22

(2 replies, posted in Verifications)

Disc 2
Page: http://redump.org/disc/63370/
Log: https://cdn.discordapp.com/attachments/ … IAH_CD2.7z

Common Disc Info:
    Title: Pariah
    Foreign Title (Non-latin): (OPTIONAL)
    Disc Number / Letter: 2
    Disc Title: Install Disc
    System: IBM PC Compatible
    Media Type: CD-ROM
    Category: Games
    Region: USA
    Languages: Klingon (CHANGE THIS)
    Disc Serial: (REQUIRED, IF EXISTS)

    Ringcode Information:
        Mastering Code (laser branded/etched): 10458-CD2
        Mastering SID Code: (REQUIRED, IF EXISTS)
        Data-Side Mould SID Code: IFPI KZ01
        Label-Side Mould SID Code: (REQUIRED, IF EXISTS)
        Additional Mould: (REQUIRED, IF EXISTS)
        Toolstamp or Mastering Code (engraved/stamped): (REQUIRED, IF EXISTS)
    Barcode: (OPTIONAL)
    Error Count: 0
    Comments: All three discs are labeled "Install Disc" and their number.
    Contents: (OPTIONAL)

Version and Editions:
    Version: (REQUIRED, IF EXISTS)
    Edition/Release: Original

Extras:
    Primary Volume Descriptor (PVD):

0320 : 20 20 20 20 20 20 20 20  20 20 20 20 20 32 30 30                200
0330 : 35 30 34 31 35 30 31 31  36 35 36 30 30 10 32 30   5041501165600.20
0340 : 30 35 30 34 31 35 30 31  31 36 35 36 30 30 10 30   05041501165600.0
0350 : 30 30 30 30 30 30 30 30  30 30 30 30 30 30 30 00   000000000000000.
0360 : 30 30 30 30 30 30 30 30  30 30 30 30 30 30 30 30   0000000000000000
0370 : 00 01 00 00 00 00 00 00  00 00 00 00 00 00 00 00   ................

Copy Protection:
    Copy Protection: None found

Tracks and Write Offsets:
    DAT:

<rom name="PARIAH_CD2.bin" size="746797632" crc="6a6d7660" md5="e6a90bf7b36cfac6e47ac5a840987116" sha1="2030da3ff3e250b8e4d19349b1cafd2023335960" />

    Cuesheet:

FILE "PARIAH_CD2.bin" BINARY
  TRACK 01 MODE1/2352
    INDEX 01 00:00:00

    Write Offset: -12

23

(2 replies, posted in Verifications)

Disc 1
Page: http://redump.org/disc/63369/
Log: https://cdn.discordapp.com/attachments/ … IAH_CD1.7z

Common Disc Info:
    Title: Pariah
    Foreign Title (Non-latin): (OPTIONAL)
    Disc Number / Letter: 1
    Disc Title: Install Disc
    System: IBM PC Compatible
    Media Type: CD-ROM
    Category: Games
    Region: USA
    Languages: Klingon (CHANGE THIS)
    Disc Serial: (REQUIRED, IF EXISTS)

    Ringcode Information:
        Mastering Code (laser branded/etched): 10458-CD1 R8N2NOHEE
        Mastering SID Code: (REQUIRED, IF EXISTS)
        Data-Side Mould SID Code: IFPI 9B88
        Label-Side Mould SID Code: (REQUIRED, IF EXISTS)
        Additional Mould: (REQUIRED, IF EXISTS)
        Toolstamp or Mastering Code (engraved/stamped): (REQUIRED, IF EXISTS)
    Barcode: (OPTIONAL)
    Error Count: 579
    Comments: All three discs are labeled as "Install Disc" plus their number.
    Contents: (OPTIONAL)

Version and Editions:
    Version: (REQUIRED, IF EXISTS)
    Edition/Release: Original

Extras:
    Primary Volume Descriptor (PVD):

0320 : 20 20 20 20 20 20 20 20  20 20 20 20 20 32 30 30                200
0330 : 35 30 34 31 35 30 30 35  32 31 34 30 30 00 32 30   5041500521400.20
0340 : 30 35 30 34 31 35 30 30  35 32 31 34 30 30 00 30   05041500521400.0
0350 : 30 30 30 30 30 30 30 30  30 30 30 30 30 30 30 00   000000000000000.
0360 : 30 30 30 30 30 30 30 30  30 30 30 30 30 30 30 30   0000000000000000
0370 : 00 01 00 00 00 00 00 00  00 00 00 00 00 00 00 00   ................

Copy Protection:
    Copy Protection:

Y:\: SafeDisc 2.90-3.10
Y:\00000000.256: SafeDisc 1 or greater
Y:\00000001.TMP: SafeDisc 1 or greater
Y:\00000002.TMP: SafeDisc 2 or greater
Y:\DrvMgt.dll: SafeDisc 2.90-3.10
Y:\SECDRV.SYS: SafeDisc 1 or greater, SafeDisc 3.20-4.xx (version removed)
Y:\System\Engine.dll: EA CdKey Registration Module 
Y:\System\MiniEditor.exe: SafeDisc 4.00.002
Y:\System\Pariah.exe: SafeDisc 4.00.002
Y:\System\PariahEd.exe: SafeDisc 4.00.002
Y:\System\Setup.exe: EA CdKey Registration Module 
Y:\System\Window.dll: EA CdKey Registration Module 1.0.0.2

Tracks and Write Offsets:
    DAT:

<rom name="PARIAH_CD1.bin" size="788886672" crc="83497b3d" md5="a1350c86620cea82965e886da69c80a1" sha1="c23cd3df7be86d13a1697c8b41779b5a4e09be2e" />

    Cuesheet:

FILE "PARIAH_CD1.bin" BINARY
  TRACK 01 MODE1/2352
    INDEX 01 00:00:00

    Write Offset: -12

Disc 4
Page: http://redump.org/disc/58653/
Log: https://cdn.discordapp.com/attachments/ … F_Disc4.7z

Common Disc Info:
    Title: Rise and Fall: Civilizations at War
    Foreign Title (Non-latin): (OPTIONAL)
    Disc Number / Letter: 4
    Disc Title: (OPTIONAL)
    System: IBM PC Compatible
    Media Type: CD-ROM
    Category: Games
    Region: USA
    Languages: Klingon (CHANGE THIS)
    Disc Serial: (REQUIRED, IF EXISTS)

    Ringcode Information:
        Mastering Code (laser branded/etched): RF-US-CD-4   sonopress arvato   +   + F803902
        Mastering SID Code: IFPI LB41
        Data-Side Mould SID Code: IFPI 10K2
        Label-Side Mould SID Code: (REQUIRED, IF EXISTS)
        Additional Mould: (REQUIRED, IF EXISTS)
        Toolstamp or Mastering Code (engraved/stamped): A01
    Barcode: (OPTIONAL)
    Error Count: 0
    Comments: [T:ISBN] (OPTIONAL)
    Contents: (OPTIONAL)

Version and Editions:
    Version: (REQUIRED, IF EXISTS)
    Edition/Release: Original

Extras:
    Primary Volume Descriptor (PVD):

0320 : 20 20 20 20 20 20 20 20  20 20 20 20 20 32 30 30                200
0330 : 36 30 35 31 36 31 38 32  33 30 30 30 00 E4 32 30   605161823000..20
0340 : 30 36 30 35 31 36 31 38  32 33 30 30 30 00 E4 30   0605161823000..0
0350 : 30 30 30 30 30 30 30 30  30 30 30 30 30 30 30 00   000000000000000.
0360 : 30 30 30 30 30 30 30 30  30 30 30 30 30 30 30 30   0000000000000000
0370 : 00 01 00 00 00 00 00 00  00 00 00 00 00 00 00 00   ................

Copy Protection:
    Copy Protection: None found

Tracks and Write Offsets:
    DAT:

<rom name="RnF_Disc4.bin" size="710315760" crc="7f372d4d" md5="a7dc007971aeafc66b1105805e046a52" sha1="8cdf9b0e2571d06c5bf5b5a1483dffcc5e00298c" />

    Cuesheet:

FILE "RnF_Disc4.bin" BINARY
  TRACK 01 MODE1/2352
    INDEX 01 00:00:00

    Write Offset: -12

Disc 3
Page: http://redump.org/disc/58651/
Log: https://cdn.discordapp.com/attachments/ … F_Disc3.7z

Common Disc Info:
    Title: Rise and Fall: Civilizations at War
    Foreign Title (Non-latin): (OPTIONAL)
    Disc Number / Letter: 3
    Disc Title: (OPTIONAL)
    System: IBM PC Compatible
    Media Type: CD-ROM
    Category: Games
    Region: USA
    Languages: Klingon (CHANGE THIS)
    Disc Serial: (REQUIRED, IF EXISTS)

    Ringcode Information:
        Mastering Code (laser branded/etched): RF-US-CD-3   sonopress arvato   +   + F750201
        Mastering SID Code: IFPI LB48
        Data-Side Mould SID Code: IFPI 10K3
        Label-Side Mould SID Code: (REQUIRED, IF EXISTS)
        Additional Mould: (REQUIRED, IF EXISTS)
        Toolstamp or Mastering Code (engraved/stamped): (REQUIRED, IF EXISTS)
    Barcode: (OPTIONAL)
    Error Count: 0
    Comments: [T:ISBN] (OPTIONAL)
    Contents: (OPTIONAL)

Version and Editions:
    Version: (REQUIRED, IF EXISTS)
    Edition/Release: Original

Extras:
    Primary Volume Descriptor (PVD):

0320 : 20 20 20 20 20 20 20 20  20 20 20 20 20 32 30 30                200
0330 : 36 30 35 31 36 31 38 32  32 30 30 30 00 E4 32 30   605161822000..20
0340 : 30 36 30 35 31 36 31 38  32 32 30 30 30 00 E4 30   0605161822000..0
0350 : 30 30 30 30 30 30 30 30  30 30 30 30 30 30 30 00   000000000000000.
0360 : 30 30 30 30 30 30 30 30  30 30 30 30 30 30 30 30   0000000000000000
0370 : 00 01 00 00 00 00 00 00  00 00 00 00 00 00 00 00   ................

Copy Protection:
    Copy Protection: None found

Tracks and Write Offsets:
    DAT:

<rom name="RnF_Disc3.bin" size="783705216" crc="b92cd7ed" md5="5d3fceecc406dffb6d5f521662eb3100" sha1="d434ba0a721b588f7dad4c251d221fc52b0d9c5f" />

    Cuesheet:

FILE "RnF_Disc3.bin" BINARY
  TRACK 01 MODE1/2352
    INDEX 01 00:00:00

    Write Offset: -12