CRC: 22FBDA14
MD5: 45CD90E6FF8B4167DC442FDF4E3585CA
SHA1: 3BCAFB8C5DE3882AC14C8F8A1B90A33DDD876383

Size: 25025314816
Disc Serial: WUP-P-AURE-USA-0
Cover Serial: 81835A
Region: USA
Edition: Original? (Not for Resale on back, maybe bundled with console?)
Barcode: 0 45496 90326 8
Mastering Code: G13I2701   WUP-P-AURE-00 USA 50
Mastering SID: IFPI LL11
Toolstamp: S3
Mould SID: IFPI V8R1   MADE IN USA   BDMC, CA

CRC32: 717777FD
MD5: CB58F83D78981A67DC823B2A778C0E95
SHA1: 62DB90157F8C280BB24E846CE79AE590086A6C5B

Size: 25025314816
Disc Serial: WUP-P-AALE-USA-0
Cover Serial: WUP P AALE USZ    102895A
Region: USA
Edition: Original
Barcode: 0 45496 90387 9
Mastering Code: 515I2802   WUP-P-AALE-00 JPN 50
Mastering SID: IFPI LL39
Toolstamp: F3
Mould SID: IFPI HHUT   MADE IN JAPAN

3

(0 replies, posted in Verifications)

Page: http://redump.org/disc/68252/
Log: https://cdn.discordapp.com/attachments/ … 802/TD6.7z

Common Disc Info:
    Title: Test Drive 6
    Foreign Title (Non-latin): (OPTIONAL)
    Disc Number / Letter: (OPTIONAL)
    Disc Title: (OPTIONAL)
    System: IBM PC Compatible
    Media Type: CD-ROM
    Category: Games
    Region: World
    Languages: Klingon (CHANGE THIS)
    Disc Serial: 04-21821CDSL

    Ringcode Information:
        Mastering Code (laser branded/etched): 04-21821CDSL   + +  A4594-01
        Mastering SID Code: IFPI LB41
        Data-Side Mould SID Code: IFPI 1086
        Label-Side Mould SID Code: (REQUIRED, IF EXISTS)
        Additional Mould: (REQUIRED, IF EXISTS)
        Toolstamp or Mastering Code (engraved/stamped): (REQUIRED, IF EXISTS)
    Barcode: (OPTIONAL)
    Error Count: 0
    Comments: [T:ISBN] (OPTIONAL)
    Contents: (OPTIONAL)

Version and Editions:
    Version: (REQUIRED, IF EXISTS)
    Edition/Release: Original

Extras:
    Primary Volume Descriptor (PVD):

0320 : 20 20 20 20 20 20 20 20  20 20 20 20 20 31 39 39                199
0330 : 39 31 31 30 32 31 31 31  31 33 32 30 30 00 31 39   9110211113200.19
0340 : 39 39 31 31 30 32 31 31  31 31 33 32 30 30 00 32   99110211113200.2
0350 : 30 30 39 31 30 33 30 31  31 31 31 33 32 30 30 00   009103011113200.
0360 : 31 39 39 39 31 31 30 32  31 31 31 31 33 32 30 30   1999110211113200
0370 : 00 01 00 00 00 00 00 00  00 00 00 00 00 00 00 00   ................

Copy Protection:
    Copy Protection: 

Tracks and Write Offsets:
    DAT:

<rom name="TD6.bin" size="405842304" crc="b2690db3" md5="5ab622930bf1a765c572a97779c6cd0c" sha1="f34b15df7c5eadde076118c4bd10eb79800e3de5" />

    Cuesheet:

FILE "TD6.bin" BINARY
  TRACK 01 MODE1/2352
    INDEX 01 00:00:00

    Write Offset: -12

4

(0 replies, posted in Verifications)

Page: http://redump.org/disc/64096/
Log: https://cdn.discordapp.com/attachments/ … ospital.7z

Common Disc Info:
    Title: Theme Hospital
    Foreign Title (Non-latin): (OPTIONAL)
    Disc Number / Letter: (OPTIONAL)
    Disc Title: (OPTIONAL)
    System: IBM PC Compatible
    Media Type: CD-ROM
    Category: Games
    Region: World
    Languages: Klingon (CHANGE THIS)
    Disc Serial: 1127907

    Ringcode Information:
        Mastering Code (laser branded/etched): 1127907RE R2L JVC
        Mastering SID Code: IFPI L241
        Data-Side Mould SID Code: IFPI 4141
        Label-Side Mould SID Code: (REQUIRED, IF EXISTS)
        Additional Mould: (REQUIRED, IF EXISTS)
        Toolstamp or Mastering Code (engraved/stamped): (REQUIRED, IF EXISTS)
    Barcode: (OPTIONAL)
    Error Count: 0
    Comments: [T:ISBN] (OPTIONAL)
    Contents: (OPTIONAL)

Version and Editions:
    Version: (REQUIRED, IF EXISTS)
    Edition/Release: Original

Extras:
    Primary Volume Descriptor (PVD):

0320 : 20 20 20 20 20 20 20 20  20 20 20 20 20 31 39 39                199
0330 : 38 30 34 31 34 31 30 32  38 31 30 30 30 00 31 39   8041410281000.19
0340 : 39 38 30 34 31 34 31 30  32 38 31 30 30 30 00 32   98041410281000.2
0350 : 30 30 38 30 34 31 31 31  30 32 38 31 30 30 30 00   008041110281000.
0360 : 31 39 39 38 30 34 31 34  31 30 32 38 31 30 30 30   1998041410281000
0370 : 00 01 00 00 00 00 00 00  00 00 00 00 00 00 00 00   ................

Copy Protection:
    Copy Protection: 

Tracks and Write Offsets:
    DAT:

<rom name="hospital.bin" size="242343024" crc="385bb976" md5="2c095b9b82265cde636ce2e42adb7eb9" sha1="a94b56484fd961ea773b79bf5790ffb5032e59da" />

    Cuesheet:

FILE "hospital.bin" BINARY
  TRACK 01 MODE1/2352
    INDEX 01 00:00:00

    Write Offset: -22

5

(1 replies, posted in Verifications)

Disc 2
Page: http://redump.org/disc/15032/
Log: https://cdn.discordapp.com/attachments/ … /UT_CD2.7z

Common Disc Info:
    Title: Unreal Tournament
    Foreign Title (Non-latin): (OPTIONAL)
    Disc Number / Letter: Disc2
    Disc Title: Disc2-Extras
    System: IBM PC Compatible
    Media Type: CD-ROM
    Category: Games
    Region: World
    Languages: Klingon (CHANGE THIS)
    Disc Serial: 04-18115002

    Ringcode Information:
        Mastering Code (laser branded/etched): E4837   GTI18115CD2   TECHNICOLOR   -
        Mastering SID Code: IFPI L154
        Data-Side Mould SID Code: IFPI 240D
        Label-Side Mould SID Code: (REQUIRED, IF EXISTS)
        Additional Mould: (REQUIRED, IF EXISTS)
        Toolstamp or Mastering Code (engraved/stamped): (REQUIRED, IF EXISTS)
    Barcode: 7 42725 18155 7
    Error Count: 0
    Comments: [T:ISBN] (OPTIONAL)
    Contents: (OPTIONAL)

Version and Editions:
    Version: (REQUIRED, IF EXISTS)
    Edition/Release: Original

Extras:
    Primary Volume Descriptor (PVD):

0320 : 20 20 20 20 20 20 20 20  20 20 20 20 20 31 39 39                199
0330 : 39 31 31 30 34 31 33 30  30 33 34 30 30 00 31 39   9110413003400.19
0340 : 39 39 31 31 30 34 31 33  30 30 33 34 30 30 00 30   99110413003400.0
0350 : 30 30 30 30 30 30 30 30  30 30 30 30 30 30 30 00   000000000000000.
0360 : 30 30 30 30 30 30 30 30  30 30 30 30 30 30 30 30   0000000000000000
0370 : 00 01 00 00 00 00 00 00  00 00 00 00 00 00 00 00   ................

Copy Protection:
    Copy Protection: 

Tracks and Write Offsets:
    DAT:

<rom name="UT_CD2.bin" size="681920064" crc="8b41f3a1" md5="b51e07ec49ef1200910201fdb40d79b3" sha1="4acd902b6a7187801b62c94fa7eb25afb149d3f3" />

    Cuesheet:

FILE "UT_CD2.bin" BINARY
  TRACK 01 MODE1/2352
    INDEX 01 00:00:00

    Write Offset: -12

Disc 1
Page: http://redump.org/disc/43609/
Log: https://cdn.discordapp.com/attachments/ … /UT_CD1.7z

Common Disc Info:
    Title: Unreal Tournament
    Foreign Title (Non-latin): (OPTIONAL)
    Disc Number / Letter: Disc1
    Disc Title: Disc1-Game
    System: IBM PC Compatible
    Media Type: CD-ROM
    Category: Games
    Region: World
    Languages: Klingon (CHANGE THIS)
    Disc Serial: 04-18115CD1

    Ringcode Information:
        Mastering Code (laser branded/etched): E4843   GT18115CD1  TECHNICOLOR   -
        Mastering SID Code: IFPI L157
        Data-Side Mould SID Code: IFPI 2441
        Label-Side Mould SID Code: (REQUIRED, IF EXISTS)
        Additional Mould: (REQUIRED, IF EXISTS)
        Toolstamp or Mastering Code (engraved/stamped): (REQUIRED, IF EXISTS)
    Barcode: 7 42725 18155 7
    Error Count: 788
    Comments: [T:ISBN] (OPTIONAL)
    Contents: (OPTIONAL)

Version and Editions:
    Version: (REQUIRED, IF EXISTS)
    Edition/Release: Original

Extras:
    Primary Volume Descriptor (PVD):

0320 : 20 20 20 20 20 20 20 20  20 20 20 20 20 31 39 39                199
0330 : 39 31 31 30 34 31 32 32  36 32 37 30 30 00 31 39   9110412262700.19
0340 : 39 39 31 31 30 34 31 32  32 36 32 37 30 30 00 30   99110412262700.0
0350 : 30 30 30 30 30 30 30 30  30 30 30 30 30 30 30 00   000000000000000.
0360 : 30 30 30 30 30 30 30 30  30 30 30 30 30 30 30 30   0000000000000000
0370 : 00 01 00 00 00 00 00 00  00 00 00 00 00 00 00 00   ................

Copy Protection:
    Copy Protection:

D:\: SafeDisc 1.35
D:\00000001.TMP: SafeDisc 1 or greater
D:\00000409.016: SafeDisc 1
D:\00000409.256: SafeDisc 1
D:\clcd16.dll: SafeDisc 1
D:\clcd32.dll: SafeDisc 1
D:\clokspl.exe: SafeDisc 1, CD Check
D:\dplayerx.dll: SafeDisc 1.35, SafeDisc 1.35.000
D:\drvmgt.dll: SafeDisc 1.1x-1.3x
D:\secdrv.sys: SafeDisc 2 or greater
D:\System\UNREALTOURNAMENT.EXE: CD Check, SafeDisc 1.35.000
D:\System\UNREALTOURNAMENT.ICD: SafeDisc 1, SafeDisc 1.35.000

Tracks and Write Offsets:
    DAT:

<rom name="UT_CD1.bin" size="760189920" crc="63a516df" md5="61b18906fad2f0f6d8ddbcbf9f813241" sha1="bb5eba1af7a411e9deeffe710deff5538d7f62b8" />

    Cuesheet:

FILE "UT_CD1.bin" BINARY
  TRACK 01 MODE1/2352
    INDEX 01 00:00:00

    Write Offset: -12

7

(0 replies, posted in Verifications)

Page: http://redump.org/disc/7023/
Log: https://cdn.discordapp.com/attachments/ … /UNREAL.7z

Common Disc Info:
    Title: Unreal
    Foreign Title (Non-latin): (OPTIONAL)
    Disc Number / Letter: (OPTIONAL)
    Disc Title: (OPTIONAL)
    System: IBM PC Compatible
    Media Type: CD-ROM
    Category: Games
    Region: World
    Languages: Klingon (CHANGE THIS)
    Disc Serial: 04-12527CD1

    Ringcode Information:
        Mastering Code (laser branded/etched): *04-12527 Z8518E
        Mastering SID Code: IFPI L533
        Data-Side Mould SID Code: IFPI 9216
        Label-Side Mould SID Code: (REQUIRED, IF EXISTS)
        Additional Mould: (REQUIRED, IF EXISTS)
        Toolstamp or Mastering Code (engraved/stamped): (REQUIRED, IF EXISTS)
    Barcode: 7 42725 60369 1
    Error Count: 0
    Comments: [T:ISBN] (OPTIONAL)
    Contents: (OPTIONAL)

Version and Editions:
    Version: (REQUIRED, IF EXISTS)
    Edition/Release: Original

Extras:
    Primary Volume Descriptor (PVD):

0320 : 20 20 20 20 20 20 20 20  20 20 20 20 20 31 39 39                199
0330 : 38 30 35 31 38 30 30 30  32 32 36 30 30 00 31 39   8051800022600.19
0340 : 39 38 30 35 31 38 30 30  30 32 32 36 30 30 00 30   98051800022600.0
0350 : 30 30 30 30 30 30 30 30  30 30 30 30 30 30 30 00   000000000000000.
0360 : 30 30 30 30 30 30 30 30  30 30 30 30 30 30 30 30   0000000000000000
0370 : 00 01 00 00 00 00 00 00  00 00 00 00 00 00 00 00   ................

Copy Protection:
    Copy Protection: 

Tracks and Write Offsets:
    DAT:

<rom name="UNREAL.bin" size="531210960" crc="278127a8" md5="0690169a7438e3b7e096c251b55cfac5" sha1="86064766a0a54d438c350a54c5ef9dae74a1f03f" />

    Cuesheet:

FILE "UNREAL.bin" BINARY
  TRACK 01 MODE2/2352
    INDEX 01 00:00:00

    Write Offset: 0

Disc 3
Page: http://redump.org/disc/66696/
Log: https://cdn.discordapp.com/attachments/ … ES_DISC.7z

Common Disc Info:
    Title: Tiger Woods PGA Tour 2004
    Foreign Title (Non-latin): (OPTIONAL)
    Disc Number / Letter: DISC 3
    Disc Title: DISC 3 - COURSES DISC
    System: IBM PC Compatible
    Media Type: CD-ROM
    Category: Games
    Region: World
    Languages: Klingon (CHANGE THIS)
    Disc Serial: 1466127

    Ringcode Information:
        Mastering Code (laser branded/etched): 1466127 R4N   E
        Mastering SID Code: IFPI L250
        Data-Side Mould SID Code: IFPI 4159
        Label-Side Mould SID Code: (REQUIRED, IF EXISTS)
        Additional Mould: (REQUIRED, IF EXISTS)
        Toolstamp or Mastering Code (engraved/stamped): 23
    Barcode: (OPTIONAL)
    Error Count: 590
    Comments: [T:ISBN] (OPTIONAL)
    Contents: (OPTIONAL)

Version and Editions:
    Version: (REQUIRED, IF EXISTS)
    Edition/Release: Original

Extras:
    Primary Volume Descriptor (PVD):

0320 : 20 20 20 20 20 20 20 20  20 20 20 20 20 32 30 30                200
0330 : 33 30 38 32 33 30 31 31  33 30 32 30 30 00 32 30   3082301130200.20
0340 : 30 33 30 38 32 33 30 31  31 33 30 32 30 30 00 30   03082301130200.0
0350 : 30 30 30 30 30 30 30 30  30 30 30 30 30 30 30 00   000000000000000.
0360 : 30 30 30 30 30 30 30 30  30 30 30 30 30 30 30 30   0000000000000000
0370 : 00 01 00 00 00 00 00 00  00 00 00 00 00 00 00 00   ................

Copy Protection:
    Copy Protection:

D:\: SafeDisc 2.90-3.10
D:\00000000.016: SafeDisc 1
D:\00000000.256: SafeDisc 1
D:\00000001.TMP: SafeDisc 1 or greater
D:\00000002.TMP: SafeDisc 2 or greater
D:\DrvMgt.dll: SafeDisc 2.90-3.10
D:\SECDRV.SYS: SafeDisc 2.90
D:\TW2004.exe: SafeDisc 2.90.040
D:\Support\Tiger Woods PGA TOUR 2004_EZ.exe: CD Check, EA CdKey Registration Module
D:\Support\Tiger Woods PGA TOUR 2004_code.exe: CD Check, EA CdKey Registration Module
D:\Support\Tiger Woods PGA TOUR 2004_eReg.exe: CD Check, EA CdKey Registration Module
D:\Support\Tiger Woods PGA TOUR 2004_uninst.exe: EA CdKey Registration Module
D:\Support\go_ez.exe: EA CdKey Registration Module

Tracks and Write Offsets:
    DAT:

<rom name="COURSES DISC.bin" size="773648064" crc="c9f51877" md5="215b81e11abb1b2f6746e71f21ae622d" sha1="0fd9188a8ad5fec740a79fbb954667962b5c20c4" />

    Cuesheet:

FILE "COURSES DISC.bin" BINARY
  TRACK 01 MODE1/2352
    INDEX 01 00:00:00

    Write Offset: 0

Disc 2
Page: http://redump.org/disc/66695/
Log: https://cdn.discordapp.com/attachments/ … IA_DISC.7z

Common Disc Info:
    Title: Tiger Woods PGA Tour 2004
    Foreign Title (Non-latin): (OPTIONAL)
    Disc Number / Letter: DISC 2
    Disc Title: DISC 2 - MEDIA DISC
    System: IBM PC Compatible
    Media Type: CD-ROM
    Category: Games
    Region: World
    Languages: Klingon (CHANGE THIS)
    Disc Serial: 1466117

    Ringcode Information:
        Mastering Code (laser branded/etched): 1466117 R6R   E
        Mastering SID Code: IFPI L241
        Data-Side Mould SID Code: IFPI 4151
        Label-Side Mould SID Code: (REQUIRED, IF EXISTS)
        Additional Mould: (REQUIRED, IF EXISTS)
        Toolstamp or Mastering Code (engraved/stamped): 23
    Barcode: (OPTIONAL)
    Error Count: 590
    Comments: [T:ISBN] (OPTIONAL)
    Contents: (OPTIONAL)

Version and Editions:
    Version: (REQUIRED, IF EXISTS)
    Edition/Release: Original

Extras:
    Primary Volume Descriptor (PVD):

0320 : 20 20 20 20 20 20 20 20  20 20 20 20 20 32 30 30                200
0330 : 33 30 38 32 33 30 31 30  38 33 35 30 30 00 32 30   3082301083500.20
0340 : 30 33 30 38 32 33 30 31  30 38 33 35 30 30 00 30   03082301083500.0
0350 : 30 30 30 30 30 30 30 30  30 30 30 30 30 30 30 00   000000000000000.
0360 : 30 30 30 30 30 30 30 30  30 30 30 30 30 30 30 30   0000000000000000
0370 : 00 01 00 00 00 00 00 00  00 00 00 00 00 00 00 00   ................

Copy Protection:
    Copy Protection:

D:\: SafeDisc 2.90-3.10
D:\00000000.016: SafeDisc 1
D:\00000000.256: SafeDisc 1
D:\00000001.TMP: SafeDisc 1 or greater
D:\00000002.TMP: SafeDisc 2 or greater
D:\DrvMgt.dll: SafeDisc 2.90-3.10
D:\SECDRV.SYS: SafeDisc 2.90
D:\TW2004.exe: SafeDisc 2.90.040
D:\Support\Tiger Woods PGA TOUR 2004_EZ.exe: CD Check, EA CdKey Registration Module
D:\Support\Tiger Woods PGA TOUR 2004_code.exe: CD Check, EA CdKey Registration Module
D:\Support\Tiger Woods PGA TOUR 2004_eReg.exe: CD Check, EA CdKey Registration Module
D:\Support\Tiger Woods PGA TOUR 2004_uninst.exe: EA CdKey Registration Module
D:\Support\go_ez.exe: EA CdKey Registration Module

Tracks and Write Offsets:
    DAT:

<rom name="MEDIA DISC.bin" size="788886672" crc="7d5acccc" md5="2eed6e0ae5d9959a1abf888d242de9f2" sha1="b03b1fa2499531765edf81d9bee7884928e23b02" />

    Cuesheet:

FILE "MEDIA DISC.bin" BINARY
  TRACK 01 MODE1/2352
    INDEX 01 00:00:00

    Write Offset: -12

Disc 1
Page: http://redump.org/disc/66694/
Log: https://cdn.discordapp.com/attachments/ … LL_DISC.7z

Common Disc Info:
    Title: Tiger Woods PGA Tour 2004
    Foreign Title (Non-latin): (OPTIONAL)
    Disc Number / Letter: Disc 1
    Disc Title: Disc 1 - Install Disc
    System: IBM PC Compatible
    Media Type: CD-ROM
    Category: Games
    Region: World
    Languages: Klingon (CHANGE THIS)
    Disc Serial: 1466107

    Ringcode Information:
        Mastering Code (laser branded/etched): 1466107 R16R   E
        Mastering SID Code: IFPI L241
        Data-Side Mould SID Code: IFPI 4153
        Label-Side Mould SID Code: (REQUIRED, IF EXISTS)
        Additional Mould: (REQUIRED, IF EXISTS)
        Toolstamp or Mastering Code (engraved/stamped): 11
    Barcode: (OPTIONAL)
    Error Count: 589
    Comments: [T:ISBN] (OPTIONAL)
    Contents: (OPTIONAL)

Version and Editions:
    Version: (REQUIRED, IF EXISTS)
    Edition/Release: Original

Extras:
    Primary Volume Descriptor (PVD):

0320 : 20 20 20 20 20 20 20 20  20 20 20 20 20 32 30 30                200
0330 : 33 30 38 32 33 30 31 30  34 35 32 30 30 00 32 30   3082301045200.20
0340 : 30 33 30 38 32 33 30 31  30 34 35 32 30 30 00 30   03082301045200.0
0350 : 30 30 30 30 30 30 30 30  30 30 30 30 30 30 30 00   000000000000000.
0360 : 30 30 30 30 30 30 30 30  30 30 30 30 30 30 30 30   0000000000000000
0370 : 00 01 00 00 00 00 00 00  00 00 00 00 00 00 00 00   ................

Copy Protection:
    Copy Protection:

D:\: SafeDisc 2.90-3.10
D:\00000000.016: SafeDisc 1
D:\00000000.256: SafeDisc 1
D:\00000001.TMP: SafeDisc 1 or greater
D:\00000002.TMP: SafeDisc 2 or greater
D:\DrvMgt.dll: SafeDisc 2.90-3.10
D:\SECDRV.SYS: SafeDisc 2.90
D:\TW2004.exe: SafeDisc 2.90.040
D:\Support\Tiger Woods PGA TOUR 2004_EZ.exe: CD Check, EA CdKey Registration Module
D:\Support\Tiger Woods PGA TOUR 2004_code.exe: CD Check, EA CdKey Registration Module
D:\Support\Tiger Woods PGA TOUR 2004_eReg.exe: CD Check, EA CdKey Registration Module
D:\Support\Tiger Woods PGA TOUR 2004_uninst.exe: EA CdKey Registration Module
D:\Support\go_ez.exe: EA CdKey Registration Module

Tracks and Write Offsets:
    DAT:

<rom name="INSTALL DISC.bin" size="771034992" crc="65c54c17" md5="04309fb234ba5f820a971922b301a4f7" sha1="9305acdde33ee6cd3f3b48f62784276621d6f749" />

    Cuesheet:

FILE "INSTALL DISC.bin" BINARY
  TRACK 01 MODE1/2352
    INDEX 01 00:00:00

    Write Offset: -12

11

(0 replies, posted in Verifications)

Page: http://redump.org/disc/49194/
Log: https://cdn.discordapp.com/attachments/ … /Skyrim.7z

Common Disc Info:
    Title: The Elder Scrolls V: Skyrim
    Foreign Title (Non-latin): (OPTIONAL)
    Disc Number / Letter: (OPTIONAL)
    Disc Title: (OPTIONAL)
    System: IBM PC Compatible
    Media Type: DVD-ROM-9
    Category: Games
    Region: World
    Languages: Klingon (CHANGE THIS)
    Disc Serial: TZB0011899UND

    Ringcode Information:
        Inner Mastering Code (laser branded/etched): (501032) ZB11899R0 01
        Inner Mastering SID Code: IFPI L779
        Inner Toolstamp or Mastering Code (engraved/stamped): 0103
        Outer Mastering Code (laser branded/etched): (501031) ZB11899R0 01
        Outer Mastering SID Code: IFPI L779
        Outer Toolstamp or Mastering Code (engraved/stamped): 0206
        Data-Side Mould SID Code: IFPI KK3W
        Label-Side Mould SID Code: IFPI KKBK
        Additional Mould: (REQUIRED, IF EXISTS)
    Barcode: 0 93155 16013 2
    Comments: [T:ISBN] (OPTIONAL)
    Contents: (OPTIONAL)

Version and Editions:
    Version: (REQUIRED, IF EXISTS)
    Edition/Release: Legendary Edition, The Elder Scrolls Anthology

Extras:
    Primary Volume Descriptor (PVD): 

Copy Protection:
    Copy Protection:

Z:\: Steam
Z:\SteamRetailInstaller.dmg: Steam

Size & Checksum:
    Layerbreak: 1802768
    Size: 7384137728
    CRC32: e0e0172a
    MD5: 13d994973a4143ff713d5a59d60a856a
    SHA1: d7713e1f2ff810735e7584743b348f5d5149f162

Disc 2
Page: http://redump.org/disc/49196/
Log: https://cdn.discordapp.com/attachments/ … ionGOTY.7z

Common Disc Info:
    Title: The Elder Scrolls IV: Oblivion
    Foreign Title (Non-latin): (OPTIONAL)
    Disc Number / Letter: DISC TWO
    Disc Title: (OPTIONAL)
    System: IBM PC Compatible
    Media Type: DVD-ROM-5
    Category: Games
    Region: World
    Languages: Klingon (CHANGE THIS)
    Disc Serial: TZB0011816UND2

    Ringcode Information:
        Mastering Code (laser branded/etched): (463095) 11775 03
        Mastering SID Code: IFPI L780
        Data-Side Mould SID Code: IFPI KK7G
        Label-Side Mould SID Code: (REQUIRED, IF EXISTS)
        Additional Mould: (FRONT) IFPI KKEK
        Toolstamp or Mastering Code (engraved/stamped): 0104
    Barcode: 0 93155 16013 2
    Comments: [T:ISBN] (OPTIONAL)
    Contents: (OPTIONAL)

Version and Editions:
    Version: (REQUIRED, IF EXISTS)
    Edition/Release: Game of the Year, The Elder Scrolls Anthology

Extras:
    Primary Volume Descriptor (PVD):

0320 : 00 00 00 00 00 00 00 00  00 00 00 00 00 00 00 00   ................
0330 : 00 00 00 00 00 00 00 00  00 00 00 30 30 F0 00 00   ...........00...
0340 : 00 00 00 00 00 00 00 00  00 00 00 00 30 30 F0 00   ............00..
0350 : 00 00 00 00 00 00 00 00  00 00 00 00 00 30 30 F0   .............00.
0360 : 00 00 00 00 00 00 00 00  00 00 00 00 00 00 30 30   ..............00
0370 : F0 01 00 00 00 00 00 00  00 00 00 00 00 00 00 00   ................

Copy Protection:
    Copy Protection: 

Size & Checksum:
    Size: 1314652160
    CRC32: d53e782c
    MD5: 8f1ce3a1a82c7d9d3fdccd9813059945
    SHA1: e9a6a83ffa7f84c6539972244316aec34e070ef7

Disc 1
Page: http://redump.org/disc/49195/
Log: https://cdn.discordapp.com/attachments/ … blivion.7z

Common Disc Info:
    Title: The Elder Scrolls IV: Oblivion
    Foreign Title (Non-latin): (OPTIONAL)
    Disc Number / Letter: DISC ONE
    Disc Title: (OPTIONAL)
    System: IBM PC Compatible
    Media Type: DVD-ROM-5
    Category: Games
    Region: World
    Languages: Klingon (CHANGE THIS)
    Disc Serial: TZB0011816UND1

    Ringcode Information:
        Mastering Code (laser branded/etched): (408868) 11754 07
        Mastering SID Code: IFPI L780
        Data-Side Mould SID Code: IFPI KK2N
        Label-Side Mould SID Code: (REQUIRED, IF EXISTS)
        Additional Mould: (FRONT) IFPI KK8K
        Toolstamp or Mastering Code (engraved/stamped): 0001
    Barcode: 0 93155 16013 2
    Comments: [T:ISBN] (OPTIONAL)
    Contents: (OPTIONAL)

Version and Editions:
    Version: (REQUIRED, IF EXISTS)
    Edition/Release: Game of the Year Edition, The Elder Scrolls Anthology

Extras:
    Primary Volume Descriptor (PVD):

0320 : 00 00 00 00 00 00 00 00  00 00 00 00 00 00 00 00   ................
0330 : 00 00 00 00 00 00 00 00  00 00 00 30 30 F0 00 00   ...........00...
0340 : 00 00 00 00 00 00 00 00  00 00 00 00 30 30 F0 00   ............00..
0350 : 00 00 00 00 00 00 00 00  00 00 00 00 00 30 30 F0   .............00.
0360 : 00 00 00 00 00 00 00 00  00 00 00 00 00 00 30 30   ..............00
0370 : F0 01 00 00 00 00 00 00  00 00 00 00 00 00 00 00   ................

Copy Protection:
    Copy Protection: Z:\data1.hdr: CD Check, CD Check, CD Check

Size & Checksum:
    Size: 4534239232
    CRC32: af2a7f72
    MD5: 228094c36b01ece2bfd83ce1e34c0fc2
    SHA1: c582372c2f776f2556442bcea1a74dd35368ff20

Disc 4
Page: http://redump.org/disc/49191/
Log: https://cdn.discordapp.com/attachments/ … ribunal.7z

Common Disc Info:
    Title: The Elder Scrolls III: Tribunal
    Foreign Title (Non-latin): (OPTIONAL)
    Disc Number / Letter: (OPTIONAL)
    Disc Title: (OPTIONAL)
    System: IBM PC Compatible
    Media Type: CD-ROM
    Category: Games
    Region: World
    Languages: Klingon (CHANGE THIS)
    Disc Serial: TZB0007501UNC

    Ringcode Information:
        Mastering Code (laser branded/etched): MTR2591   (289517) TRIBUNAL 02   Made in Mexico
        Mastering SID Code: IFPI LM86
        Data-Side Mould SID Code: IFPI KM07
        Label-Side Mould SID Code: (REQUIRED, IF EXISTS)
        Additional Mould: (REQUIRED, IF EXISTS)
        Toolstamp or Mastering Code (engraved/stamped): (REQUIRED, IF EXISTS)
    Barcode: 0 93155 16013 2
    Error Count: 0
    Comments: [T:ISBN] (OPTIONAL)
    Contents: (OPTIONAL)

Version and Editions:
    Version: (REQUIRED, IF EXISTS)
    Edition/Release: The Elder Scrolls Anthology

Extras:
    Primary Volume Descriptor (PVD):

0320 : 20 20 20 20 20 20 20 20  20 20 20 20 20 32 30 30                200
0330 : 33 30 39 31 32 31 31 34  31 30 30 30 30 F0 32 30   3091211410000.20
0340 : 30 33 30 39 31 32 31 31  34 31 30 30 30 30 F0 30   03091211410000.0
0350 : 30 30 30 30 30 30 30 30  30 30 30 30 30 30 30 00   000000000000000.
0360 : 30 30 30 30 30 30 30 30  30 30 30 30 30 30 30 30   0000000000000000
0370 : 00 01 00 00 00 00 00 00  00 00 00 00 00 00 00 00   ................

Copy Protection:
    Copy Protection: None found

Tracks and Write Offsets:
    DAT:

<rom name="Tribunal.bin" size="394272816" crc="f6abe270" md5="0e64ed72417a75acb200064e572213dc" sha1="69f4ebd448c814c35ee5af5ff4fdba1568a100b3" />

    Cuesheet:

FILE "Tribunal.bin" BINARY
  TRACK 01 MODE1/2352
    INDEX 01 00:00:00

    Write Offset: -12

Disc 3
Page: http://redump.org/disc/49188/
Log: https://cdn.discordapp.com/attachments/ … oodmoon.7z

Common Disc Info:
    Title: The Elder Scrolls III: Bloodmoon
    Foreign Title (Non-latin): (OPTIONAL)
    Disc Number / Letter: (OPTIONAL)
    Disc Title: (OPTIONAL)
    System: IBM PC Compatible
    Media Type: CD-ROM
    Category: Games
    Region: World
    Languages: Klingon (CHANGE THIS)
    Disc Serial: TZB0008508UNC

    Ringcode Information:
        Mastering Code (laser branded/etched): MTR2589   (289519) BLOODMOON   Made in Mexico
        Mastering SID Code: IFPI LM86
        Data-Side Mould SID Code: IFPI KM08
        Label-Side Mould SID Code: (REQUIRED, IF EXISTS)
        Additional Mould: (REQUIRED, IF EXISTS)
        Toolstamp or Mastering Code (engraved/stamped): (REQUIRED, IF EXISTS)
    Barcode: 0 93155 16013 2
    Error Count: 0
    Comments: [T:ISBN] (OPTIONAL)
    Contents: (OPTIONAL)

Version and Editions:
    Version: (REQUIRED, IF EXISTS)
    Edition/Release: The Elder Scrolls Anthology

Extras:
    Primary Volume Descriptor (PVD):

0320 : 20 20 20 20 20 20 20 20  20 20 20 20 20 32 30 30                200
0330 : 33 30 39 31 30 31 30 30  30 30 30 30 30 F0 32 30   3091010000000.20
0340 : 30 33 30 39 31 30 31 30  30 30 30 30 30 30 F0 30   03091010000000.0
0350 : 30 30 30 30 30 30 30 30  30 30 30 30 30 30 30 00   000000000000000.
0360 : 30 30 30 30 30 30 30 30  30 30 30 30 30 30 30 30   0000000000000000
0370 : 00 01 00 00 00 00 00 00  00 00 00 00 00 00 00 00   ................

Copy Protection:
    Copy Protection: D:\data1.hdr: CD Check, CD Check

Tracks and Write Offsets:
    DAT:

<rom name="Bloodmoon.bin" size="617948016" crc="fec1025a" md5="d11bc9d9ee2ee5461bac885c8012aa9b" sha1="4f9f723d4ca57e140eb57da47ef02658429f649f" />

    Cuesheet:

FILE "Bloodmoon.bin" BINARY
  TRACK 01 MODE1/2352
    INDEX 01 00:00:00

    Write Offset: -12

Disc 2
Page: http://redump.org/disc/49189/
Log: https://cdn.discordapp.com/attachments/ … /TES_CS.7z

Common Disc Info:
    Title: The Elder Scrolls III: Morrowind - Construction Set
    Foreign Title (Non-latin): (OPTIONAL)
    Disc Number / Letter: (OPTIONAL)
    Disc Title: (OPTIONAL)
    System: IBM PC Compatible
    Media Type: CD-ROM
    Category: Games
    Region: World
    Languages: Klingon (CHANGE THIS)
    Disc Serial: TZB0006306UNC2

    Ringcode Information:
        Mastering Code (laser branded/etched): MTR2587   (289515) CD2 - MORROWIND 04   Made in Mexico
        Mastering SID Code: IFPI LM86
        Data-Side Mould SID Code: IFPI KM02
        Label-Side Mould SID Code: (REQUIRED, IF EXISTS)
        Additional Mould: (REQUIRED, IF EXISTS)
        Toolstamp or Mastering Code (engraved/stamped): (REQUIRED, IF EXISTS)
    Barcode: 0 93155 16013 2
    Error Count: 0
    Comments: [T:ISBN] (OPTIONAL)
    Contents: (OPTIONAL)

Version and Editions:
    Version: (REQUIRED, IF EXISTS)
    Edition/Release: The Elder Scrolls Anthology

Extras:
    Primary Volume Descriptor (PVD):

0320 : 20 20 20 20 20 20 20 20  20 20 20 20 20 32 30 30                200
0330 : 32 30 39 30 39 31 34 32  34 30 30 30 30 F0 32 30   2090914240000.20
0340 : 30 32 30 39 30 39 31 34  32 34 30 30 30 30 F0 30   02090914240000.0
0350 : 30 30 30 30 30 30 30 30  30 30 30 30 30 30 30 00   000000000000000.
0360 : 30 30 30 30 30 30 30 30  30 30 30 30 30 30 30 30   0000000000000000
0370 : 00 01 00 00 00 00 00 00  00 00 00 00 00 00 00 00   ................

Copy Protection:
    Copy Protection: None found

Tracks and Write Offsets:
    DAT:

<rom name="TES CS.bin" size="695006592" crc="f384b480" md5="5690067e0827b25671dd6177430ce7da" sha1="9808e2d71cbad620ee580166a384ed289b7d1307" />

    Cuesheet:

FILE "TES CS.bin" BINARY
  TRACK 01 MODE1/2352
    INDEX 01 00:00:00

    Write Offset: -12

Disc 1
Page: http://redump.org/disc/49190/
Log: https://cdn.discordapp.com/attachments/ … rrowind.7z

Common Disc Info:
    Title: The Elder Scrolls III: Morrowind
    Foreign Title (Non-latin): (OPTIONAL)
    Disc Number / Letter: (OPTIONAL)
    Disc Title: (OPTIONAL)
    System: IBM PC Compatible
    Media Type: CD-ROM
    Category: Games
    Region: World
    Languages: Klingon (CHANGE THIS)
    Disc Serial: TZB0006306UNC1

    Ringcode Information:
        Mastering Code (laser branded/etched): MTR2586   (289513) CD1 MORROWIND 03   Made in Mexico
        Mastering SID Code: IFPI LM86
        Data-Side Mould SID Code: IFPI KM13
        Label-Side Mould SID Code: (REQUIRED, IF EXISTS)
        Additional Mould: (REQUIRED, IF EXISTS)
        Toolstamp or Mastering Code (engraved/stamped): (REQUIRED, IF EXISTS)
    Barcode: 0 93155 16013 2
    Error Count: 0
    Comments: [T:ISBN] (OPTIONAL)
    Contents: (OPTIONAL)

Version and Editions:
    Version: (REQUIRED, IF EXISTS)
    Edition/Release: The Elder Scrolls Anthology

Extras:
    Primary Volume Descriptor (PVD):

0320 : 20 20 20 20 20 20 20 20  20 20 20 20 20 32 30 30                200
0330 : 33 30 39 31 30 30 39 35  30 30 30 30 30 F0 32 30   3091009500000.20
0340 : 30 33 30 39 31 30 30 39  35 30 30 30 30 30 F0 30   03091009500000.0
0350 : 30 30 30 30 30 30 30 30  30 30 30 30 30 30 30 00   000000000000000.
0360 : 30 30 30 30 30 30 30 30  30 30 30 30 30 30 30 30   0000000000000000
0370 : 00 01 00 00 00 00 00 00  00 00 00 00 00 00 00 00   ................

Copy Protection:
    Copy Protection: 

Tracks and Write Offsets:
    DAT:

<rom name="Morrowind.bin" size="703353840" crc="c758a6e1" md5="808ece6ba7bb085966b3f0d5794d0685" sha1="8dc5ccec722cb0d9151b1cd2303b76253e239f1c" />

    Cuesheet:

FILE "Morrowind.bin" BINARY
  TRACK 01 MODE1/2352
    INDEX 01 00:00:00

    Write Offset: -12

Page: http://redump.org/disc/49192/
Log: https://cdn.discordapp.com/attachments/ … gerfall.7z

Common Disc Info:
    Title: The Elder Scrolls II: Daggerfall
    Foreign Title (Non-latin): (OPTIONAL)
    Disc Number / Letter: (OPTIONAL)
    Disc Title: (OPTIONAL)
    System: IBM PC Compatible
    Media Type: CD-ROM
    Category: Games
    Region: World
    Languages: Klingon (CHANGE THIS)
    Disc Serial: TZBDAGFALLUNC

    Ringcode Information:
        Mastering Code (laser branded/etched): MTR5710   (507035) DAGFA 01   Made in Mexico
        Mastering SID Code: IFPI LM86
        Data-Side Mould SID Code: IFPI KM06
        Label-Side Mould SID Code: (REQUIRED, IF EXISTS)
        Additional Mould: (REQUIRED, IF EXISTS)
        Toolstamp or Mastering Code (engraved/stamped): (REQUIRED, IF EXISTS)
    Barcode: 0 93155 16013 2
    Error Count: 0
    Comments: [T:ISBN] (OPTIONAL)
    Contents: (OPTIONAL)

Version and Editions:
    Version: (REQUIRED, IF EXISTS)
    Edition/Release: The Elder Scrolls Anthology

Extras:
    Primary Volume Descriptor (PVD): Disc has no PVD

Copy Protection:
    Copy Protection: 

Tracks and Write Offsets:
    DAT:

<rom name="Daggerfall.bin" size="316442784" crc="02cf867d" md5="c96438183292de9467ee2416fd389ee5" sha1="377579236dfc47e62cd27a303876f52c504984d4" />

    Cuesheet:

FILE "Daggerfall.bin" BINARY
  TRACK 01 MODE2/2352
    INDEX 01 00:00:00

    Write Offset: -12

19

(0 replies, posted in Verifications)

Page: http://redump.org/disc/49193/
Log: https://cdn.discordapp.com/attachments/ … 2/Arena.7z

Common Disc Info:
    Title: The Elder Scrolls: Arena
    Foreign Title (Non-latin): (OPTIONAL)
    Disc Number / Letter: (OPTIONAL)
    Disc Title: (OPTIONAL)
    System: IBM PC Compatible
    Media Type: CD-ROM
    Category: Games
    Region: World
    Languages: Klingon (CHANGE THIS)
    Disc Serial: TZBARENAUNC

    Ringcode Information:
        Mastering Code (laser branded/etched): MTR5702   (507030) ARENA 04   Made in Mexico
        Mastering SID Code: IFPI LM86
        Data-Side Mould SID Code: IFPI KM12
        Label-Side Mould SID Code: (REQUIRED, IF EXISTS)
        Additional Mould: (REQUIRED, IF EXISTS)
        Toolstamp or Mastering Code (engraved/stamped): (REQUIRED, IF EXISTS)
    Barcode: 0 93155 16013 2
    Error Count: 0
    Comments: [T:ISBN] (OPTIONAL)
    Contents: (OPTIONAL)

Version and Editions:
    Version: (REQUIRED, IF EXISTS)
    Edition/Release: The Elder Scrolls Anthology

Extras:
    Primary Volume Descriptor (PVD):

0320 : 20 20 20 20 20 20 20 20  20 20 20 20 20 32 30 31                201
0330 : 33 30 33 31 39 31 35 34  34 35 30 30 30 F0 32 30   3031915445000.20
0340 : 31 33 30 33 31 39 31 35  34 34 35 30 30 30 F0 30   13031915445000.0
0350 : 30 30 30 30 30 30 30 30  30 30 30 30 30 30 30 00   000000000000000.
0360 : 30 30 30 30 30 30 30 30  30 30 30 30 30 30 30 30   0000000000000000
0370 : 00 01 00 49 6D 67 42 75  72 6E 20 76 32 2E 35 2E   ...ImgBurn v2.5.

Copy Protection:
    Copy Protection: 

Tracks and Write Offsets:
    DAT:

<rom name="Arena.bin" size="42557088" crc="f5045303" md5="a2dcdad28812e36e2a750f94eab4ddb3" sha1="aa4995d51fe02cfea676b531afab17f718c2e9d0" />

    Cuesheet:

FILE "Arena.bin" BINARY
  TRACK 01 MODE2/2352
    INDEX 01 00:00:00

    Write Offset: -12

Disc 4
Page: http://redump.org/disc/61940/
Log: https://cdn.discordapp.com/attachments/ … nstall4.7z

Common Disc Info:
    Title: The Elder Scrolls: Online
    Foreign Title (Non-latin): (OPTIONAL)
    Disc Number / Letter: DISC 4
    Disc Title: (OPTIONAL)
    System: IBM PC Compatible
    Media Type: DVD-ROM-5
    Category: Games
    Region: World
    Languages: Klingon (CHANGE THIS)
    Disc Serial: TZB00012588UND4

    Ringcode Information:
        Mastering Code (laser branded/etched): (520778) TZB00012588UND4 02
        Mastering SID Code: IFPI L780
        Data-Side Mould SID Code: IFPI KKAK
        Label-Side Mould SID Code: (REQUIRED, IF EXISTS)
        Additional Mould: (REQUIRED, IF EXISTS)
        Toolstamp or Mastering Code (engraved/stamped): 0401
    Barcode: 0 93155 12588 9
    Comments: [T:ISBN] (OPTIONAL)
    Contents: (OPTIONAL)

Version and Editions:
    Version: (REQUIRED, IF EXISTS)
    Edition/Release: Walmart Exclusive

Extras:
    Primary Volume Descriptor (PVD):

0320 : 20 20 20 20 20 20 20 20  20 20 20 20 20 32 30 31                201
0330 : 34 30 32 31 31 30 35 34  33 34 35 30 30 00 32 30   4021105434500.20
0340 : 31 34 30 32 31 31 30 35  34 33 34 35 30 30 00 00   14021105434500..
0350 : 00 00 00 00 00 00 00 00  00 00 00 00 00 00 00 00   ................
0360 : 00 00 00 00 00 00 00 00  00 00 00 00 00 00 00 00   ................
0370 : 00 01 00 00 00 00 00 00  00 00 00 00 00 00 00 00   ................

Copy Protection:
    Copy Protection: None found

Size & Checksum:
    Size: 3277324288
    CRC32: 2ca26390
    MD5: cf2a57e114d40d65e7a794c7c8655a79
    SHA1: 5f48d99ecb22bfe9769295680a6ecce9b5d2c1a9

Disc 3
Page: http://redump.org/disc/61938/
Log: https://cdn.discordapp.com/attachments/ … nstall3.7z

Common Disc Info:
    Title: The Elder Scrolls: Online
    Foreign Title (Non-latin): (OPTIONAL)
    Disc Number / Letter: DISC 3
    Disc Title: (OPTIONAL)
    System: IBM PC Compatible
    Media Type: DVD-ROM-9
    Category: Games
    Region: World
    Languages: Klingon (CHANGE THIS)
    Disc Serial: TZB00012588UND3

    Ringcode Information:
        Inner Mastering Code (laser branded/etched): (520724) TZB00012588UND3 02
        Inner Mastering SID Code: IFPI L780
        Inner Toolstamp or Mastering Code (engraved/stamped): 0502
        Outer Mastering Code (laser branded/etched): (520723) TZB00012588UND3 02
        Outer Mastering SID Code: IFPI LV76
        Outer Toolstamp or Mastering Code (engraved/stamped): 0107
        Data-Side Mould SID Code: IFPI KKNB
        Label-Side Mould SID Code: IFPI KKNW
        Additional Mould: (REQUIRED, IF EXISTS)
    Barcode: 0 93155 12588 9
    Comments: [T:ISBN] (OPTIONAL)
    Contents: (OPTIONAL)

Version and Editions:
    Version: (REQUIRED, IF EXISTS)
    Edition/Release: Walmart Exclusive

Extras:
    Primary Volume Descriptor (PVD):

0320 : 20 20 20 20 20 20 20 20  20 20 20 20 20 32 30 31                201
0330 : 34 30 32 31 31 30 35 33  39 31 39 30 30 00 32 30   4021105391900.20
0340 : 31 34 30 32 31 31 30 35  33 39 31 39 30 30 00 00   14021105391900..
0350 : 00 00 00 00 00 00 00 00  00 00 00 00 00 00 00 00   ................
0360 : 00 00 00 00 00 00 00 00  00 00 00 00 00 00 00 00   ................
0370 : 00 01 00 00 00 00 00 00  00 00 00 00 00 00 00 00   ................

Copy Protection:
    Copy Protection: None found

Size & Checksum:
    Layerbreak: 2075712
    Size: 8502116352
    CRC32: 1ffba926
    MD5: 74f6ccb069d86d91efa25025d4b385cb
    SHA1: afd9534de18ebc90d730761256d039cb33c7b4bb

Disc 2
Page: http://redump.org/disc/61937/
Log: https://cdn.discordapp.com/attachments/ … nstall2.7z

Common Disc Info:
    Title: The Elder Scrolls: Online
    Foreign Title (Non-latin): (OPTIONAL)
    Disc Number / Letter: DISC 2
    Disc Title: (OPTIONAL)
    System: IBM PC Compatible
    Media Type: DVD-ROM-9
    Category: Games
    Region: World
    Languages: Klingon (CHANGE THIS)
    Disc Serial: TZB00012588UND2

    Ringcode Information:
        Inner Mastering Code (laser branded/etched): (520742) TZB00012588UND2 02
        Inner Mastering SID Code: IFPI L779
        Inner Toolstamp or Mastering Code (engraved/stamped): 0207
        Outer Mastering Code (laser branded/etched): (520741) TZB00012588UND2 02
        Outer Mastering SID Code: IFPI LV76
        Outer Toolstamp or Mastering Code (engraved/stamped): 0204
        Data-Side Mould SID Code: IFPI KKFC
        Label-Side Mould SID Code: IFPI KKLR
        Additional Mould: (REQUIRED, IF EXISTS)
    Barcode: 0 93155 12588 9
    Comments: [T:ISBN] (OPTIONAL)
    Contents: (OPTIONAL)

Version and Editions:
    Version: (REQUIRED, IF EXISTS)
    Edition/Release: Walmart Exclusive

Extras:
    Primary Volume Descriptor (PVD):

0320 : 20 20 20 20 20 20 20 20  20 20 20 20 20 32 30 31                201
0330 : 34 30 32 31 31 30 35 33  33 30 30 30 30 00 32 30   4021105330000.20
0340 : 31 34 30 32 31 31 30 35  33 33 30 30 30 30 00 00   14021105330000..
0350 : 00 00 00 00 00 00 00 00  00 00 00 00 00 00 00 00   ................
0360 : 00 00 00 00 00 00 00 00  00 00 00 00 00 00 00 00   ................
0370 : 00 01 00 00 00 00 00 00  00 00 00 00 00 00 00 00   ................

Copy Protection:
    Copy Protection: None found

Size & Checksum:
    Layerbreak: 2074400
    Size: 8496709632
    CRC32: f587f096
    MD5: fba66768b551b4b6e2d4036b4686ffbd
    SHA1: e02fc5b330aa89b4c4e1424488e27b433cb88895

Disc 1
Page: http://redump.org/disc/61936/
Log: https://cdn.discordapp.com/attachments/ … Install.7z

Common Disc Info:
    Title: The Elder Scrolls: Online
    Foreign Title (Non-latin): (OPTIONAL)
    Disc Number / Letter: DISC 1
    Disc Title: (OPTIONAL)
    System: IBM PC Compatible
    Media Type: DVD-ROM-9
    Category: Games
    Region: World
    Languages: Klingon (CHANGE THIS)
    Disc Serial: TZB12588UND1

    Ringcode Information:
        Inner Mastering Code (laser branded/etched): (520720) TZB00012588UND1 02
        Inner Mastering SID Code: IFPI L780
        Inner Toolstamp or Mastering Code (engraved/stamped): 0403
        Outer Mastering Code (laser branded/etched): (520719) TZB00012588UND1 02
        Outer Mastering SID Code: IFPI L779
        Outer Toolstamp or Mastering Code (engraved/stamped): 0115
        Data-Side Mould SID Code: IFPI KKFQ
        Label-Side Mould SID Code: IFPI KK2I
        Additional Mould: (REQUIRED, IF EXISTS)
    Barcode: 0 93155 12588 9
    Comments: [T:ISBN] (OPTIONAL)
    Contents: (OPTIONAL)

Version and Editions:
    Version: (REQUIRED, IF EXISTS)
    Edition/Release: Walmart Exclusive

Extras:
    Primary Volume Descriptor (PVD):

0320 : 20 20 20 20 20 20 20 20  20 20 20 20 20 32 30 31                201
0330 : 34 30 32 31 31 30 35 32  36 33 35 30 30 00 32 30   4021105263500.20
0340 : 31 34 30 32 31 31 30 35  32 36 33 35 30 30 00 00   14021105263500..
0350 : 00 00 00 00 00 00 00 00  00 00 00 00 00 00 00 00   ................
0360 : 00 00 00 00 00 00 00 00  00 00 00 00 00 00 00 00   ................
0370 : 00 01 00 00 00 00 00 00  00 00 00 00 00 00 00 00   ................

Copy Protection:
    Copy Protection: 

Size & Checksum:
    Layerbreak: 2086912
    Size: 8294400000
    CRC32: 6c7a5fad
    MD5: f1c512c194dd1ea0d2f71595272dfa0a
    SHA1: aa5b19825de798661242c56a189e359c2100e58b

24

(0 replies, posted in New Dumps)

Log: https://cdn.discordapp.com/attachments/ … TheShip.7z

Common Disc Info:
    Title: The Ship
    Foreign Title (Non-latin): (OPTIONAL)
    Disc Number / Letter: (OPTIONAL)
    Disc Title: (OPTIONAL)
    System: IBM PC Compatible
    Media Type: DVD-ROM-5
    Category: Games
    Region: World
    Languages: Klingon (CHANGE THIS)
    Disc Serial: (REQUIRED, IF EXISTS)

    Ringcode Information:
        Mastering Code (laser branded/etched): MSM00056-1   sonopress   + +   G544501
        Mastering SID Code: IFPI LB41
        Data-Side Mould SID Code: IFPI I0H9
        Label-Side Mould SID Code: (REQUIRED, IF EXISTS)
        Additional Mould: (REQUIRED, IF EXISTS)
        Toolstamp or Mastering Code (engraved/stamped): A03
    Barcode: (OPTIONAL)
    Comments: [T:ISBN] (OPTIONAL)
    Contents: (OPTIONAL)

Version and Editions:
    Version: (REQUIRED, IF EXISTS)
    Edition/Release: Original

Extras:
    Primary Volume Descriptor (PVD):

0320 : 20 20 20 20 20 20 20 20  20 20 20 20 20 32 30 30                200
0330 : 37 30 32 32 33 31 32 35  36 31 31 30 30 00 32 30   7022312561100.20
0340 : 30 37 30 32 32 33 31 32  35 36 31 31 30 30 00 30   07022312561100.0
0350 : 30 30 30 30 30 30 30 30  30 30 30 30 30 30 30 00   000000000000000.
0360 : 32 30 30 37 30 32 32 33  31 32 35 36 31 31 30 30   2007022312561100
0370 : 00 01 00 20 20 20 20 20  20 20 20 20 20 20 20 20   ...

Copy Protection:
    Copy Protection:

Z:\: Steam
Z:\SteamInstall.exe: Steam
Z:\SteamInstall.ini: Steam
Z:\SteamInstall.msi: Steam

Size & Checksum:
    Size: 1015709696
    CRC32: d16595c0
    MD5: b2cf76a753a906ad8621a7e2387ea784
    SHA1: 94aa2783ddd831c4bbfc56eb5840ef637c304a53

25

(0 replies, posted in New Dumps)

Log: https://cdn.discordapp.com/attachments/ … eCasino.7z

Common Disc Info:
    Title: Hoyle Casino Games
    Foreign Title (Non-latin): (OPTIONAL)
    Disc Number / Letter: (OPTIONAL)
    Disc Title: (OPTIONAL)
    System: IBM PC Compatible
    Media Type: DVD-ROM-5
    Category: Games
    Region: World
    Languages: Klingon (CHANGE THIS)
    Disc Serial: 16559-DVD

    Ringcode Information:
        Mastering Code (laser branded/etched): E16550-DVD   + +   HN34603
        Mastering SID Code: IFPI LB41
        Data-Side Mould SID Code: IFPI I0M3
        Label-Side Mould SID Code: (REQUIRED, IF EXISTS)
        Additional Mould: (Label) IFPI I0M2
        Toolstamp or Mastering Code (engraved/stamped): A01
    Barcode: (OPTIONAL)
    Comments: [T:ISBN] (OPTIONAL)
    Contents: (OPTIONAL)

Version and Editions:
    Version: v1.0
    Edition/Release: Original

Extras:
    Primary Volume Descriptor (PVD):

0320 : 20 20 20 20 20 20 20 20  20 20 20 20 20 32 30 30                200
0330 : 38 30 38 32 37 31 39 30  34 31 35 30 30 00 32 30   8082719041500.20
0340 : 30 38 30 38 32 37 31 39  30 34 31 35 30 30 00 30   08082719041500.0
0350 : 30 30 30 30 30 30 30 30  30 30 30 30 30 30 30 00   000000000000000.
0360 : 30 30 30 30 30 30 30 30  30 30 30 30 30 30 30 30   0000000000000000
0370 : 00 01 00 00 00 00 00 00  00 00 00 00 00 00 00 00   ................

Copy Protection:
    Copy Protection: None found

Size & Checksum:
    Size: 4233854976
    CRC32: 434d352f
    MD5: d5b7c9feeefb0a37a538f765055d9fe5
    SHA1: 634b48580ff80b48c9c85ac82ebc04d9f1c4e958