Page: http://redump.org/disc/31786/
Log: https://cdn.discordapp.com/attachments/ … 6/Ranma.7z

Common Disc Info:
    Title: Ranma ½: Toraware no Hanayome
    Foreign Title (Non-latin): らんま1/2~とらわれの花嫁~
    Disc Number / Letter: (OPTIONAL)
    Disc Title: (OPTIONAL)
    System: NEC PC-Engine / TurboGrafx CD
    Media Type: CD-ROM
    Category: Games
    Region: Japan
    Languages: Klingon (CHANGE THIS)
    Disc Serial: NSCD 1006

    Ringcode Information:
        Data Side Mastering Code (laser branded/etched): NSCD1006-3-1006-R1M    V
        Data Side Mastering SID Code: (REQUIRED, IF EXISTS)
        Data Side Toolstamp or Mastering Code (engraved/stamped): 23
        Data Side Mould SID Code: (REQUIRED, IF EXISTS)
        Data Side Additional Mould: (REQUIRED, IF EXISTS)
        Label Side Mould SID Code: (REQUIRED, IF EXISTS)
        Label Side Additional Mould: 
    Barcode: T4988616002068
    Error Count: 0
    Comments: (OPTIONAL)
    Contents: (OPTIONAL)

Version and Editions:
    Version: (REQUIRED, IF EXISTS)
    Edition/Release: NCS CD Vol. 6

Extras:
    Primary Volume Descriptor (PVD): Disc has no PVD

Tracks and Write Offsets:
    DAT:

<rom name="Audio CD (Track 01).bin" size="5214384" crc="66e44128" md5="95483521ac0dc3a0a929df69faa398d5" sha1="bb29ddd747366f7aba6e437ed032361e2868ac70" />
<rom name="Audio CD (Track 02).bin" size="92680560" crc="a87fe379" md5="96b79436ec791d9dcf0d446ce999a3b4" sha1="7422901588e9360b74f661131be0247242ce2a23" />
<rom name="Audio CD (Track 03).bin" size="1681680" crc="3a4aef68" md5="9a173b38e9f329b057cb0f23bd4a0ab2" sha1="71adfa935ecda063408923a37376ec3037ff895c" />
<rom name="Audio CD (Track 04).bin" size="7702800" crc="20f17bb8" md5="c899762cb4ef14976d9fb5c9842f79dc" sha1="2d6bb880b33c41d5f8b842a54007654bbe52efc4" />
<rom name="Audio CD (Track 05).bin" size="1738128" crc="475ddb72" md5="414683a9be0d29ed1e6dbee3ce09e4c4" sha1="577af41886396592e9649530997ac68cd74c391f" />
<rom name="Audio CD (Track 06).bin" size="3212832" crc="d5acee3c" md5="7d8d8bb29c15b18aa7f52a78adb9917e" sha1="f037d373bcdd3136228c6a6405f6675ef6be5f50" />
<rom name="Audio CD (Track 07).bin" size="3114048" crc="ca4a4a22" md5="95e68a3008a4e93aa930ed97373f866f" sha1="5636368a1008bc948035cdabe47ae5abd8eb01cb" />
<rom name="Audio CD (Track 08).bin" size="1328880" crc="aadbe5f5" md5="7899f244a2b0a12eeb6378f2d9dbe97c" sha1="058da3e164a218528c96ec95b096e2194bb41826" />
<rom name="Audio CD (Track 09).bin" size="3048192" crc="5fa4dbf3" md5="41850e8159cdd7828185120cf0365242" sha1="fc454422db38b8bbd175e8ba8275620d28124c68" />
<rom name="Audio CD (Track 10).bin" size="1147776" crc="3b83e361" md5="6b6c244f492633d0bb56a8f85e100c9d" sha1="1a961c51c0ed4e9cddf877b2a4eb9d01a8b14783" />
<rom name="Audio CD (Track 11).bin" size="1655808" crc="11dc25bb" md5="0437ae0284412c4be038dbaa73023fed" sha1="6bc7553f631b7e596c456493ee4a5bd15461f7da" />
<rom name="Audio CD (Track 12).bin" size="1180704" crc="255d2633" md5="2f2dc364548293d7abc4b48f2016a471" sha1="56a454ee089cb93ecbd54d65d93e736787708481" />
<rom name="Audio CD (Track 13).bin" size="1164240" crc="c0a2c800" md5="4acbed6f9d5ac8cb59141a7b2874f2d1" sha1="5f807e9a6dcbcb1df241efb234276fb2bc53eb3c" />
<rom name="Audio CD (Track 14).bin" size="5981136" crc="ae455b65" md5="d8ff808558948c9be5bdfa50e0013329" sha1="64e44f3c829f902eb91b98ce4046dd1256272993" />
<rom name="Audio CD (Track 15).bin" size="3866688" crc="dad7bbc9" md5="adfafa38aebf6fe59c419b05f36db668" sha1="35e4d5ea968ca6a14b8f5fad1b4b0be61e530f93" />
<rom name="Audio CD (Track 16).bin" size="2803584" crc="f5666a50" md5="6b762266d5c0cdc5ea768f4a0c00bb99" sha1="8439dc06c78552e2232143992f537d65011e8298" />
<rom name="Audio CD (Track 17).bin" size="4506432" crc="2de616f0" md5="7dd33e4d2cf8957bef7a840557ed248d" sha1="91cd65f33d2c3dc61aaf607c7c4c5952810ea236" />
<rom name="Audio CD (Track 18).bin" size="1081920" crc="2786618f" md5="28fd136fa9a7c8951eff67c3d7597c77" sha1="bf4e00a096ecae0dddb9d0dd4ed9db9ff29baf19" />
<rom name="Audio CD (Track 19).bin" size="1411200" crc="165d11c3" md5="dcfd6c0eb7e0ced7c518a62d7b4b1788" sha1="ddfd0ba0a2cc6fa592c6c2be91f543e2674b9f1d" />
<rom name="Audio CD (Track 20).bin" size="2229696" crc="4a88e141" md5="e439755f64c213ece97b606f0a540b4e" sha1="c44fe2564ce017f36d836b0ffba73f94052cee80" />
<rom name="Audio CD (Track 21).bin" size="13420512" crc="a4d1a98a" md5="8eb176fcb15e92d7882d0f0824ccc397" sha1="d4cf1bb85f3e036c3c8d82034c83ce0614c8a754" />
<rom name="Audio CD (Track 22).bin" size="5096784" crc="deaf932b" md5="59bf9b8a653e99d0d42534c8a3d2e0c3" sha1="c53b9e4c9d0aef8c62e46df61adc7bf11aa67412" />
<rom name="Audio CD (Track 23).bin" size="30738288" crc="41f0731c" md5="76609e4e481266d963017f42f6236f3c" sha1="a444f5c18816a350a3c2fdb1224c86214d8d05ab" />
<rom name="Audio CD (Track 24).bin" size="35898576" crc="abc3214c" md5="e1970424b48d9c0dbbd83e31a399fa56" sha1="848e7b161ad5ebb8a777b9649c893f79f04f7489" />
<rom name="Audio CD (Track 25).bin" size="1164240" crc="3420cf3e" md5="b90b66ad5f4afc2c71284f182e6b2ee6" sha1="c104540a6a646f72a190117ec2928ea467133ef4" />
<rom name="Audio CD (Track 26).bin" size="7554624" crc="c5dd1c20" md5="7d3262e98a97ea41652953114cfe879a" sha1="f6a802fb828a8da75df2b9f715873898555757c9" />
<rom name="Audio CD (Track 27).bin" size="4113648" crc="1c5197fc" md5="2098a2d6bb2da389926662c154044a82" sha1="192f49f4fa3a14c578f51c6794fc7386d8f8a6ba" />
<rom name="Audio CD (Track 28).bin" size="1411200" crc="58841b29" md5="f3f31930d5eb4a5691197e34e666c1f7" sha1="3f780ced018fe31a19275722fd5477ba023ba57d" />
<rom name="Audio CD (Track 29).bin" size="5736528" crc="96212157" md5="7038372d8d499e7103e6ceee6f9c543d" sha1="351384522319a85d30140b8e5885480ac90b4df9" />
<rom name="Audio CD (Track 30).bin" size="2836512" crc="c8783e94" md5="9e83b683b5e67d2b144e0b069e9d624a" sha1="ba80d9f80fb48ec4b37b85325b34d37cd6f65a19" />
<rom name="Audio CD (Track 31).bin" size="3064656" crc="1124be14" md5="82ab5b1cb74cbd7bacb3bb06d44d3e02" sha1="a788fd75caea3d02499a199f46a09c7e8c9fc935" />
<rom name="Audio CD (Track 32).bin" size="999600" crc="2e39b9ca" md5="de591493b31868c6288e7c7e53ff2c85" sha1="25dac378cf0227aea6291484dee96f4aaa34c3a4" />
<rom name="Audio CD (Track 33).bin" size="1738128" crc="1289395a" md5="2b93007f9a04f45eb1b65c31847990e4" sha1="3169dd52da3b34144ad147fd592e0196f204c1b4" />
<rom name="Audio CD (Track 34).bin" size="707952" crc="27044f55" md5="ba940c8145aeca0618b33da459a4a053" sha1="605bf480822df3ee517169de4c351dc210608527" />
<rom name="Audio CD (Track 35).bin" size="1180704" crc="804c0f85" md5="5b52ec851d429f85d545bd20f632f848" sha1="d9a936b422b1d7a837b0ce17950781d468bfb40d" />
<rom name="Audio CD (Track 36).bin" size="1390032" crc="b2828540" md5="cc4545aba546ca0845dec833dcae36e8" sha1="f7c79f44b96460b24e1c76c4a0b8568c27b3e77f" />
<rom name="Audio CD (Track 37).bin" size="2763600" crc="4e98e326" md5="050d2652e983b94e89d26723058a1e17" sha1="dd0be557ef0b869e3a4e93d43af5decec33015fe" />

    Cuesheet:

CATALOG 0000000000000
FILE "Audio CD (Track 01).bin" BINARY
  TRACK 01 AUDIO
    INDEX 01 00:00:00
FILE "Audio CD (Track 02).bin" BINARY
  TRACK 02 MODE1/2352
    INDEX 00 00:00:00
    INDEX 01 00:02:74
FILE "Audio CD (Track 03).bin" BINARY
  TRACK 03 AUDIO
    INDEX 00 00:00:00
    INDEX 01 00:02:00
FILE "Audio CD (Track 04).bin" BINARY
  TRACK 04 AUDIO
    INDEX 01 00:00:00
FILE "Audio CD (Track 05).bin" BINARY
  TRACK 05 AUDIO
    INDEX 01 00:00:00
FILE "Audio CD (Track 06).bin" BINARY
  TRACK 06 AUDIO
    INDEX 01 00:00:00
FILE "Audio CD (Track 07).bin" BINARY
  TRACK 07 AUDIO
    INDEX 01 00:00:00
FILE "Audio CD (Track 08).bin" BINARY
  TRACK 08 AUDIO
    INDEX 01 00:00:00
FILE "Audio CD (Track 09).bin" BINARY
  TRACK 09 AUDIO
    INDEX 01 00:00:00
FILE "Audio CD (Track 10).bin" BINARY
  TRACK 10 AUDIO
    INDEX 01 00:00:00
FILE "Audio CD (Track 11).bin" BINARY
  TRACK 11 AUDIO
    INDEX 01 00:00:00
FILE "Audio CD (Track 12).bin" BINARY
  TRACK 12 AUDIO
    INDEX 01 00:00:00
FILE "Audio CD (Track 13).bin" BINARY
  TRACK 13 AUDIO
    INDEX 01 00:00:00
FILE "Audio CD (Track 14).bin" BINARY
  TRACK 14 AUDIO
    INDEX 01 00:00:00
FILE "Audio CD (Track 15).bin" BINARY
  TRACK 15 AUDIO
    INDEX 01 00:00:00
FILE "Audio CD (Track 16).bin" BINARY
  TRACK 16 AUDIO
    INDEX 01 00:00:00
FILE "Audio CD (Track 17).bin" BINARY
  TRACK 17 AUDIO
    INDEX 01 00:00:00
FILE "Audio CD (Track 18).bin" BINARY
  TRACK 18 AUDIO
    INDEX 01 00:00:00
FILE "Audio CD (Track 19).bin" BINARY
  TRACK 19 AUDIO
    INDEX 01 00:00:00
FILE "Audio CD (Track 20).bin" BINARY
  TRACK 20 AUDIO
    INDEX 01 00:00:00
FILE "Audio CD (Track 21).bin" BINARY
  TRACK 21 AUDIO
    INDEX 01 00:00:00
FILE "Audio CD (Track 22).bin" BINARY
  TRACK 22 AUDIO
    INDEX 01 00:00:00
FILE "Audio CD (Track 23).bin" BINARY
  TRACK 23 AUDIO
    INDEX 01 00:00:00
FILE "Audio CD (Track 24).bin" BINARY
  TRACK 24 AUDIO
    INDEX 01 00:00:00
FILE "Audio CD (Track 25).bin" BINARY
  TRACK 25 AUDIO
    INDEX 01 00:00:00
FILE "Audio CD (Track 26).bin" BINARY
  TRACK 26 AUDIO
    INDEX 01 00:00:00
FILE "Audio CD (Track 27).bin" BINARY
  TRACK 27 AUDIO
    INDEX 01 00:00:00
FILE "Audio CD (Track 28).bin" BINARY
  TRACK 28 AUDIO
    INDEX 01 00:00:00
FILE "Audio CD (Track 29).bin" BINARY
  TRACK 29 AUDIO
    INDEX 01 00:00:00
FILE "Audio CD (Track 30).bin" BINARY
  TRACK 30 AUDIO
    INDEX 01 00:00:00
FILE "Audio CD (Track 31).bin" BINARY
  TRACK 31 AUDIO
    INDEX 01 00:00:00
FILE "Audio CD (Track 32).bin" BINARY
  TRACK 32 AUDIO
    INDEX 01 00:00:00
FILE "Audio CD (Track 33).bin" BINARY
  TRACK 33 AUDIO
    INDEX 01 00:00:00
FILE "Audio CD (Track 34).bin" BINARY
  TRACK 34 AUDIO
    INDEX 01 00:00:00
FILE "Audio CD (Track 35).bin" BINARY
  TRACK 35 AUDIO
    INDEX 01 00:00:00
FILE "Audio CD (Track 36).bin" BINARY
  TRACK 36 AUDIO
    INDEX 01 00:00:00
FILE "Audio CD (Track 37).bin" BINARY
  TRACK 37 AUDIO
    INDEX 01 00:00:00

    Write Offset: -2039

2

(0 replies, posted in Verifications)

Page: http://redump.org/disc/40895/
Log: https://cdn.discordapp.com/attachments/ … /RAYMAN.7z

Common Disc Info:
    Title: Rayman
    Foreign Title (Non-latin): (OPTIONAL)
    Disc Number / Letter: (OPTIONAL)
    Disc Title: (OPTIONAL)
    System: IBM PC Compatible
    Media Type: CD-ROM
    Category: Games
    Region: USA
    Languages: English, French, German
    Disc Serial: PRM844CE-CD

    Ringcode Information:
        Data Side Mastering Code (laser branded/etched): PRM844CE-CD    4+ +    97453-01
        Data Side Mastering SID Code: IFPI L028
        Data Side Toolstamp or Mastering Code (engraved/stamped): (REQUIRED, IF EXISTS)
        Data Side Mould SID Code: IFPI 1028
        Data Side Additional Mould: (REQUIRED, IF EXISTS)
        Label Side Mould SID Code: (REQUIRED, IF EXISTS)
        Label Side Additional Mould: 
    Barcode: 7 72040 76592 7
    Error Count: 0
    Comments: ISBN: 0-7630-1953-4
    Contents: (OPTIONAL)

Version and Editions:
    Version: (REQUIRED, IF EXISTS)
    Edition/Release: Smart Saver

Extras:
    Primary Volume Descriptor (PVD):

0320 : 20 20 20 20 20 20 20 20  20 20 20 20 20 31 39 39                199
0330 : 38 30 35 31 32 30 39 31  35 31 37 30 30 00 31 39   8051209151700.19
0340 : 39 38 30 35 31 32 30 39  31 35 31 37 30 30 00 30   98051209151700.0
0350 : 30 30 30 30 30 30 30 30  30 30 30 30 30 30 30 00   000000000000000.
0360 : 30 30 30 30 30 30 30 30  30 30 30 30 30 30 30 30   0000000000000000
0370 : 00 01 00 00 00 00 00 00  00 00 00 00 00 00 00 00   ................

Copy Protection:
    Copy Protection: Wise Installation Wizard Module

Tracks and Write Offsets:
    DAT:

<rom name="RAYMAN (Track 01).bin" size="148107792" crc="3cbcb409" md5="08a66b2b43174e5f3484d47fbb50df8a" sha1="f23a0ee0dbdbb47cbf6d12607d499eb4e682b082" />
<rom name="RAYMAN (Track 02).bin" size="27163248" crc="e233b34b" md5="4c06cbbd1f71f35314ce2a8fe3f367b8" sha1="d4eb3be771b671f2d80870e1ed454c2f17f254d8" />
<rom name="RAYMAN (Track 03).bin" size="26302416" crc="44f93950" md5="2ece85c7b452ba21461ba931bb714ca6" sha1="8acacb5fc072c9dbbbe02370beeb28c48a3a35f5" />
<rom name="RAYMAN (Track 04).bin" size="32394096" crc="8627a828" md5="69d39b87ae0fbc290900120431738fdc" sha1="4901d3825542062ea1273609ca74297940dd9158" />
<rom name="RAYMAN (Track 05).bin" size="27189120" crc="aea61cbe" md5="20d6f5c3e202906f1a3505e6a85346fc" sha1="c35015b4aa652c454062d2226629443bff4ec617" />
<rom name="RAYMAN (Track 06).bin" size="26692848" crc="112421fc" md5="b281754000d94218f7f6f2d0022a112e" sha1="be87a8202e4cd08d949ea1d34d5bc1a66e1ccbd2" />
<rom name="RAYMAN (Track 07).bin" size="26892768" crc="2394ff44" md5="986a50f4523dca56603bae1624022806" sha1="ceda2565697d9bb07b5854c8cbf15c278491643a" />
<rom name="RAYMAN (Track 08).bin" size="50316336" crc="dc34fa4b" md5="0d7425b7500a42bf3905ac79cf9f654b" sha1="b3dbb6abbf7b6a6f2ccfd5d7266ed620bce7dc99" />
<rom name="RAYMAN (Track 09).bin" size="14958720" crc="a4bfd458" md5="17c541d295ec07432a2a8d1411dc6b29" sha1="0bfd5cd15a318553029f850f906764963cdc9983" />
<rom name="RAYMAN (Track 10).bin" size="6583248" crc="e9aefaac" md5="27ef8f378da72bcd87d4986d396a65fd" sha1="64e635dfd717a19f18364dd14ab9cc4e61691529" />
<rom name="RAYMAN (Track 11).bin" size="38638656" crc="fedae8be" md5="911f15270e8ed2a0e2a03b628a77043b" sha1="e25246e17d8cf3cc02ec17ff2e3a3847c568a769" />
<rom name="RAYMAN (Track 12).bin" size="2253216" crc="abb5ecb8" md5="3fad5b41f77ec49c3ab755b2382869ae" sha1="e786ebb1cdb72178dea6f453d6be7b37b7e7d95e" />
<rom name="RAYMAN (Track 13).bin" size="46092144" crc="04172e51" md5="45c1a6f616eedb06f93535a28419b802" sha1="9f9e4a0d0e59c9f994cdd0cf89085a6e6b356e7a" />
<rom name="RAYMAN (Track 14).bin" size="52327296" crc="3747b260" md5="f84adec08b5f81f58f0eb8733c18666a" sha1="676d04966b978a6c53a73c33527c8827ff03fc56" />
<rom name="RAYMAN (Track 15).bin" size="12950112" crc="9f030590" md5="bef8838a3d96f98819c55a06673823f6" sha1="eea9fea67574d246830cf6e15aef7efd5f1c63e3" />
<rom name="RAYMAN (Track 16).bin" size="36982848" crc="46d76e14" md5="82605d58100d00f935d8329268383b38" sha1="bc84ff3e0c48d3801faff21ac331073137d76eb4" />
<rom name="RAYMAN (Track 17).bin" size="56177520" crc="3de448d8" md5="e7df2904a954e8c208fd42a03e7f3ca6" sha1="65de25081abbcbcbdfab1c8d6a2964aec8d37425" />
<rom name="RAYMAN (Track 18).bin" size="12498528" crc="d1b77a6b" md5="63b02c12e45c8fb92999c0aacd5b02de" sha1="17eb107f8ba80eb3d8c5e20c47001b9abf240001" />
<rom name="RAYMAN (Track 19).bin" size="10932096" crc="ee6d98ca" md5="085660c48fc750fe94efb8ee80d32742" sha1="227dc595d672a8ae2133c32523fd513be8bc9327" />
<rom name="RAYMAN (Track 20).bin" size="21951216" crc="d78d7d8c" md5="b58ec6e6986743363c9485d196c907fb" sha1="08b3c53901b3f88f672bded94174b596a47490e1" />
<rom name="RAYMAN (Track 21).bin" size="21979440" crc="3ca5e5ac" md5="89eefe54d452d9814dbb8d60d0437762" sha1="30af0f5143d71b6242c0bea255b8753ceb31fbe3" />
<rom name="RAYMAN (Track 22).bin" size="21988848" crc="44cd8a9e" md5="33d3c1723ef649f35d854b0d3a403f35" sha1="25125bff9e12e72353ea909d9f189dad3aceaea3" />
<rom name="RAYMAN (Track 23).bin" size="3859632" crc="2b27199b" md5="9452b331964390b714545426490b1178" sha1="51ad6081ae60a87396bcad59496c8ab5fce6751a" />
<rom name="RAYMAN (Track 24).bin" size="3212832" crc="2757a8ab" md5="1b6b81c5a07b2d712de28e21e6276430" sha1="c9e23e3503c4a7d82f666a860800e6f52250568c" />
<rom name="RAYMAN (Track 25).bin" size="3212832" crc="43f03a60" md5="76c4754c65462068859441e86cb46178" sha1="5ceb78b753bf536a015235f6b14c64cd15de85db" />
<rom name="RAYMAN (Track 26).bin" size="2168544" crc="e8733341" md5="45dbd41d38889f545a8fef4abd87a1fc" sha1="c68db5d9dc9c41b0d8d3b9e1cefa6550ad0ee2cb" />

    Cuesheet:

FILE "RAYMAN (Track 01).bin" BINARY
  TRACK 01 MODE2/2352
    INDEX 01 00:00:00
FILE "RAYMAN (Track 02).bin" BINARY
  TRACK 02 AUDIO
    INDEX 00 00:00:00
    INDEX 01 00:02:00
FILE "RAYMAN (Track 03).bin" BINARY
  TRACK 03 AUDIO
    INDEX 01 00:00:00
FILE "RAYMAN (Track 04).bin" BINARY
  TRACK 04 AUDIO
    INDEX 01 00:00:00
FILE "RAYMAN (Track 05).bin" BINARY
  TRACK 05 AUDIO
    INDEX 01 00:00:00
FILE "RAYMAN (Track 06).bin" BINARY
  TRACK 06 AUDIO
    INDEX 01 00:00:00
FILE "RAYMAN (Track 07).bin" BINARY
  TRACK 07 AUDIO
    INDEX 01 00:00:00
FILE "RAYMAN (Track 08).bin" BINARY
  TRACK 08 AUDIO
    INDEX 01 00:00:00
FILE "RAYMAN (Track 09).bin" BINARY
  TRACK 09 AUDIO
    INDEX 01 00:00:00
FILE "RAYMAN (Track 10).bin" BINARY
  TRACK 10 AUDIO
    INDEX 01 00:00:00
FILE "RAYMAN (Track 11).bin" BINARY
  TRACK 11 AUDIO
    INDEX 01 00:00:00
FILE "RAYMAN (Track 12).bin" BINARY
  TRACK 12 AUDIO
    INDEX 01 00:00:00
FILE "RAYMAN (Track 13).bin" BINARY
  TRACK 13 AUDIO
    INDEX 01 00:00:00
FILE "RAYMAN (Track 14).bin" BINARY
  TRACK 14 AUDIO
    INDEX 01 00:00:00
FILE "RAYMAN (Track 15).bin" BINARY
  TRACK 15 AUDIO
    INDEX 01 00:00:00
FILE "RAYMAN (Track 16).bin" BINARY
  TRACK 16 AUDIO
    INDEX 01 00:00:00
FILE "RAYMAN (Track 17).bin" BINARY
  TRACK 17 AUDIO
    INDEX 01 00:00:00
FILE "RAYMAN (Track 18).bin" BINARY
  TRACK 18 AUDIO
    INDEX 01 00:00:00
FILE "RAYMAN (Track 19).bin" BINARY
  TRACK 19 AUDIO
    INDEX 01 00:00:00
FILE "RAYMAN (Track 20).bin" BINARY
  TRACK 20 AUDIO
    INDEX 01 00:00:00
FILE "RAYMAN (Track 21).bin" BINARY
  TRACK 21 AUDIO
    INDEX 01 00:00:00
FILE "RAYMAN (Track 22).bin" BINARY
  TRACK 22 AUDIO
    INDEX 01 00:00:00
FILE "RAYMAN (Track 23).bin" BINARY
  TRACK 23 AUDIO
    INDEX 01 00:00:00
FILE "RAYMAN (Track 24).bin" BINARY
  TRACK 24 AUDIO
    INDEX 01 00:00:00
FILE "RAYMAN (Track 25).bin" BINARY
  TRACK 25 AUDIO
    INDEX 01 00:00:00
FILE "RAYMAN (Track 26).bin" BINARY
  TRACK 26 AUDIO
    INDEX 01 00:00:00

    Write Offset: -12

http://redump.org/disc/76119/

Steam protection needs to be added.
https://cdn.discordapp.com/attachments/766361692153577492/828011777085276230/unknown.png

http://redump.org/disc/71615/

Version in software is 4.00, contradictory to the version in ring code.
4.1 may be in reference to the cart version, maybe add comment "Bundled with v4.1 Cartridge"

https://cdn.discordapp.com/attachments/418896419986997249/826553697751400468/unknown.png

http://redump.org/disc/71591/

Playable Demos:
-SiN
-Get Medieval
-Jagged Alliance 2
-Operational Art of War
-Motorhead
-Montezuma's Return
-Ancient Conquest
-European Air War
-Plane Crazy
-CyberStorm 2: Corporate Wars
-Air Hockey
-Morpheus
-Way Point Zeta
Add-ons:
-Starcraft: End of the World
-Starcraft: Floating to Hell
-Starcraft: God Map
-Elite Warcraft II
-Duke Nukem 3D: Boot City
-Quake: The Vomitorium
-Quake: Cunning Plan
-Quake II: Heavy Metal
-Quake II: Wasted
-Quake II: REoL TOUGH: The Unforgiven!
-Quake II: 1964 Echos of the Past
-Quake II: Ghost Town 2
-Quake II: Castles of Stroggos
-Quake II: To Live & Die in Stroggos
-Quake II: The Vondarar Exception
-Coconut Monkey's Paradise Lost Quake II Mod
-Coconut Monkey's Dry Gulch Quake II Mod
-Coconut Monkey Player Model for Quake II
PCGamer CD Database Version 1.0:
-Reviews Database
-Demos Database
-Patches Database
-Companies Database
MindSpring
EarthLink
Winzip

http://redump.org/disc/30069/

Playable Demos:
-Worms Armageddon
-Starsiege
-Heroes of Might and Magic III: The Restoration of Erathia
-Re-Volt
-X-Wing: Alliance
-Requiem: Avenging Angel
-Field and Stream: Trophy Bass 3D
-Starshot
-Shattered Light
-Apache Havoc
-Bunghole in One
Add-ons:
-Half-Life Update 1.0.0.5 to 1.0.0.8
-Half-Life Update 1.0.0.8 to 1.0.0.9
-Quake II: AllenSoftware Deathmatch Map 3
-Quake II: AllenSoftware Deathmatch Rocket Arena E1M1
-Doom: UAC Deathcamp v1.2
-Duke Nukem 3D: Complex 72 (4 Maps)
-Duke Nukem 3D: Metro
-Duke Nukem 3D: Slider 4
-StarCraft: The 5th Order v1.01 (3 Episodes)
-GameSpy 3D Version 2.0.8
PCGamer CD Database Version 1.0:
-Reviews Database
-Demos Database
-Patches Database
-Companies Database
Coconut Monkey:
-Coconut Monkey Theater
-Coconut Monkey Coloring Book
-Coconut Monkey Fan Art
-The Words of Coconut Monkey
MindSpring
EarthLink
Winzip

http://redump.org/disc/71593/

Playable Demos:
-Mechwarrior 4: Vegneance
-Oni
-Rune
-No Escape
-FIFA 2001
Patches:
-Rune v1.01
-Unreal Tournament 436
-Red Alert 2 v1.002
-Flanker 2.0 v2.03a
-Starship Troopers v1.1
-Escape from Monkey Island v1.1
-Midtown Madness 2 v1.01
-Crimson Skies v1.02
Utilities:
-Gamespy 2.19
-WONswap
-Winzip 7.0
PCGamer CD Database Version 1.0:
-Reviews Database
-Demos Database
-Patches Database
-Companies Database
Coconut Monkey:
-Coconut Monkey Fan Art
-Coconut Monkey Fungus Gatherers
Other:
-TuxRacer 0.60
-EarthLink

http://redump.org/disc/30077/

Playable Demos:
-Soldier of Fortune
-Links LS 2000
-Thief II: The Metal Age
-Command & Conquer: Tiberian Sun
-Metal Fatigue
-Majesty
-Test Drive 6
Add-ons:
-VGA Tour (Links LS 2000)
-USS Darkstar (Half-Life)
-They Hunger (Half-Life)
Utilities:
-DirectX 7.0
-Gamespy 2.19
Patches:
-Jane's USAF v1.02
-Quake III Arena Point Release
-Age of Wonders v1.31
-SWAT 3 v1.1
-Unreal Tournament 405B
-Nocturne Patch 2
-Age of Empires v1.0c
PCGamer CD Database v1.0:
-Reviews Database
-Demos Database
-Patches Database
-Company Database
Coconut Monkey:
-Coconut Monkey Fan Art
-Coconut Monkey Fungus Gatherers
Earthlink

http://redump.org/disc/71590/

Coconut Monkey's Island Paradise Interactive Menu
Game Reviews Index (938 Entries)
DirectX 5.0
Non-Interactive Demos:
-The Sanitarium
Playable Demos:
-Battlezone
-Dark Omen
-F1 Racing Simulation
-Stratosphere
-VR Baseball
-Front Page Sports: Golf
-Front Page Sports: Baseball 98
-Links LS 98
-Jack Nicklaus 5 Course
-Designer
-Fighter Ace
-WarBreeds
-F-22 Raptor
-Star Trek: The Game Show
-Hardball 5
Patches and Updates:
-Command & Conquer: Red Alert Maps
-CART Precision Racing v1.01
-Chasm: The Rift: Modem Patch
-Civil War Generals II v1.2
-Descent to Undermountain v1.1
-Excalibur 2555AD: Voodoo Rush Patch
-F1 Racing Simulation: 3D Patch
-F-16 Fighting Falcon: 3Dfx Patch
-FIFA 98 v1.1
-Flight Unlimited II v1.02
-Jack Nicklaus Golf 5 v5.1
-Lands of Lore II v1.3
-Lords of Magic v1.2
-Madden NFL Football 98: 3D Patch
-MechWarrior: Mercenaries v1.1
-JailBREAK v1.0 for Quake II
-Quake II: Battle of the Sexes
-Quake II Level: Gib Me Liberty...
-Quake II Level: The Hideout
-Quake Level: The Middle Evil
-Quake Level: The Secret Installation
-WarCraft II Levels

http://redump.org/disc/71589/

Coconut Monkey's Island Paradise Interactive Menu
Game Reviews Index (919 Entries)
DirectX 5.0
Playable Demos:
-Wing Commander Prophecy
-Falcon 4.0
-Deadlock II
-Jack Nicklaus 5
-Sanitarium
-Sid Meier's Gettysberg
-Turok
-Oddworld: Abe's Obdessee
-Extreme Tactics
-Grand Theft Auto (3Dfx Version)
-Grand Theft Auto (8-bit DOS Version)
-Grand Theft Auto (24-bit DOS Version)
-Inclubation Levels
Patches and Updates:
-Actung Spitfire v1.14
-Battlespire v1.3
-Birthright v1.0.0.3 (DOS)
-Birthright v1.0.0.3 (WIN95)
-Command & Conquer: Battlefield
-Command & Conquer: Italian Coastline
-Close Combat: A Bridge Too Far v2.0
-Doom II WAD: Derek's Doom Levels
-Duke Nukem 3D: Operation Charge!
-Duke Nukem 3D: Rome
-Jet Moto v971124
-Myth v1.1 beta 5
-Quake v3.06
-Quake: Millennium Weapons Pack
-Quake: Powerball
-Quake: Qped 2.0
-Twisted Metal II v971124
-Virtual Fighter II: D3D Patch
-WarCraft II PUD: Tornado!
-WarCraft II PUD: The Castle of the Human Tyrant Lothar

http://redump.org/disc/71592/

Playable Demos:
-Heavy Metal: F.A.K.K. 2
-Age of Empires II: The Conquerors
-Tony Hawk's Pro Skater 2
-Stupid Invaders
-NASCAR Heat
-Sydney 2000
-Half-Life: Opposing Force CTF
Add-ons:
-They Hunger 1.2
-USS Darkstar
-Counterstrike 7.0 Beta
-Sanity: Aiken's Artifact PC Gamer Talents
Patches:
-Heavy Metal: F.A.K.K. 2 v1.02
-Dark Reign 2 v1.1
-Warlords Battlecry v1.01
-Unreal Tornament v428
-MDK2 v1000.1
-Diablo II v1.03
-Icewind Dale v1.06
PCGamer CD Database Version 1.0:
-Reviews Database
-Demos Database
-Patches Database
-Companies Database
Utilities:
-Gamespy 2.19
-WONswap
-Winzip 7.0
Coconut Monkey:
-Coconut Monkey Fan Art
-Coconut Monkey Fungus Gatherers
Tribes: Einstein's Hammer (Novel, PDF)
3D GameStudio A4
-Adeptus Demo
-Mission Demo
Earthlink