Qubits wrote:

Finally, to speed up the process of submitting verifications (~50 verifcations to come) Is it ok to leave some info unfilled, that is identical, like name, foreign name, region, lanuage etc?
I'm thinking about putting in the serial number and the new/missing data.
This would save me a lot of time.

Either copy/paste the identical data from the existing entry in the DB (this is what I do personally if it's too time consuming to write it down, eg for Japanese names or other stuff that can't be typed in seconds) OR omit them but clearly mention what has been omitted due to being identical. Even putting something like "all other info as seen on the current entry is identical" should be clear enough IMHO.

F1ReB4LL wrote:
Maddog wrote:

My IFPI is L155, vs Wiggy's L166. Might be two different versions or a mis-read (this looks more likely to me), but I did my best to read it properly under good light.

No word about the mould IFPI? Any pic of that 'badly stamping', maybe?

I didn't see any additional IFPI, only Wiggy mentions that. Since he got 155 wrong, he may have been seeing scratches in the plastic for all I know. wink

3

(5 replies, posted in Guests & account requests)

pdcfounder_sketch wrote:

It's been awhile but I still have all of these demos that I would like to donate somewhere for preservation purposes. I no longer have the ability to maintain a site to keep them readily available to all both present and future. All demo's are in EBOOT format and work on official firmware 6.61. Any ideas?

Redump uses .ISO format, so it can't put these in its' dats.
I would suggest making an account on archive.org and upload all there.
In most cases, Archive is a good home for things like this and anyone with an interest in them can locate and download.

4

(2 replies, posted in Verifications)

Resistiv wrote:

Also, the "9H0371   MK-51027A   maxell CA USA" ringcode that already exists on the page is most likely in error, and this "9H037L    MK-51027A    maxell CA USA" ringcode should most likely replace it. Scanning the disc barcode also returns an "L" rather than "1". See ringcode: https://cdn.discordapp.com/attachments/584478017300987947/678369904465936394/20200215_173923.jpg

This doesn't apply fully. It is an error, since what is entered as 9H0371 is actually 9H037I. I own a disc with this ringcode, so this is not just wild guessing. But do not replace it with L. I am also aware of a disc with 9H037F ringcode (and it's expected several more letters will exist, even though not known currently. Contents of these discs match (at least when done with TOSEC method).

user7 wrote:

This doesn't answer your question but many of us are using internal drives but with a USB adapter. Here are recommended brands/models. Check your localized Amazon for a cheaper price:
https://www.amazon.com/gp/product/B0019HLE7Q
https://www.amazon.com/gp/product/B00P0C4M5M

Avoid other brands / models.

Second link is not the correct product. I think this is the one user7 intended to link:
https://www.amazon.com/UGREEN-Adapter-C … 01AW40QZW/
I have successfully used this specific adapter with several different internal Plextor models and I also do my dumping using a laptop running Windows 10.

For the faulty drive, there are basically 3 things to check, IMHO the only things in a drive that an average user can fix without much knowledge of electronics. If none of these fix the fault, drive is probably for the bin.
1) clean laser lens carefully and thoroughly with pure alcohol.
2) see that drive belt is not broken (ie that disc is actually rotating in the tray), in case it's broken try to source a replacement (this will be hard)
3) adjust the pot of the laser with a multimeter (need to see initial resistance, note it, then adjust slowly and with tiny turns of the screw, checking if discs become readable inbetween adjustments.

Hope this info helps you somewhat.

Yes, this is abnormally many non-matches.
It *is* hard to match sections (with 1 and 40 being the worst), but normally at the second pass you should be getting at least 10-15 sessions matching with any good quality disc, potentially even more. And the entire disc matched within about 10 passes in most cases with disc in good condition.
We have seen cases with erratic behavior like that, where it proved better to stop and start the dumping from scratch. Ie eject disc, redo the trap disc and start again). As a rule of thumb, any dump that is going on for more than 1.30-2 hours, will never complete properly or will turn out bad even if matches found.
If your drive still behaves like that after some tries, adjusting the pot with help of a multimeter should be a last resort measure before declaring the drive bad.

user7 wrote:

if that doesn't work, then just use the tosec method for the hd area. if there's one track in the hd area hashes will be the same as redump method (when redump method works)

I believe it will work on a repeat dump, I had this scenario with ice.exe throwing an error after dcdumper had difficulties dumping a specific segment several times while dumping my stuff. Trying again later generally resolved the problem.
Majorpbx already said the disc is in good condition, so my expectation is that it will be fine after a redump.

F1ReB4LL wrote:

Also, is it a bad dump?

03  Mode1   45000  549149  504150 ok (1)

Yes, that (1) there is a definite problem. Also, track 03.bin does not match the verified TOSEC dump. IMHO a definite bad dump.

        <description>Dreamcast Middleware Conference Demo Disc Part.2 v1.000 (1999)(Sega)(NTSC-PAL)[!]</description>
        <rom name="Dreamcast Middleware Conference Demo Disc Part.2 v1.000 (1999)(Sega)(NTSC-PAL)[!].gdi" size="87" crc="d7ab4c6b" sha1="9d50b816d3f69ad192f5986ab487769965c2e082" md5="b3ecdf113fd42344dd84142679e4cb36"/>
        <rom name="track01.bin" size="705600" crc="ad7554e1" sha1="89ae513774b409b7bf0b91ae3d08794dd026bb8b" md5="360bf1a74ea1e1fc3a72558a54e8d4d7"/>
        <rom name="track02.raw" size="1735776" crc="c73e4eb1" sha1="7be6cba55f0cec2617890652b6917a5339be5f0b" md5="665aa3c2c521301f45eb3aa7d8a128cd"/>
        <rom name="track03.bin" size="1185760800" crc="81dfe0b4" sha1="7324dd046a52f4cb93e9f9cd07603b7300eef189" md5="68c439c597509d32f008f43325c0d2e3"/>

@MajorPBX: I am fairly sure the offender is the 1st section, which took a while to match. I have seen this on some of my dumps too, dcdumper getting a match after struggling with a segment, only for ice.exe to spit out an error afterwards.
If you have kept the partial dumps, delete section 1 044990-055278 and let dcdumper try again. This will save the hassle of reading the entire disc again. Worked for me several times.

9

(6 replies, posted in General discussion)

reentrant wrote:

Any of CRC32, MD5 and SHA-1 is not secure. But all combined?

All combined and with a specific file size as per current dats should be an astronomically small chance of a hash collision, even if someone tried to do this intentionally. I don't think our roms can be faked with current level of knowledge.

Matches http://redump.org/disc/60804/

Logs can be found here: https://mega.nz/#!nggwUYiJ!iMaO8_Szf6iy … OJ7NoXn6mk
Photos can be found here: https://mega.nz/#!WowmwQaJ!GuYNrQ5Wz8kM … e0kmNigbck

!submissioninfo.txt

Common Disc Info:
    Title: Starblade Demonstration-ban
    Foreign Title (Non-latin): スターブレード デモンストレーション版
    Disc Number / Letter: (OPTIONAL)
    Disc Title: (OPTIONAL)
    System: Panasonic 3DO Interactive Multiplayer
    Media Type: CD-ROM
    Category: Demos
    Region: Japan
    Languages: English (tested in emulator)
    Disc Serial: FZ-JJ9DSB-4L

    Ringcode Information:
        Mastering Code (laser branded/etched): FZ-JJ9DSB-4L<TAB>1
        Mastering SID Code: IFPI L251
        Data-Side Mould SID Code: IFPI 42A4
        Label-Side Mould SID Code: (REQUIRED, IF EXISTS)
        Additional Mould: (REQUIRED, IF EXISTS)
        Toolstamp or Mastering Code (engraved/stamped): (REQUIRED, IF EXISTS)
    Barcode: NOT FOR SALE
    Error Count: 0
    Comments: (OPTIONAL)
    Contents: (OPTIONAL)

Version and Editions:
    Version: 
    Edition/Release: Demonstration-ban

Extras:
    Primary Volume Descriptor (PVD): Disc has no PVD

Tracks and Write Offsets:
    DAT:

<rom name="Starblade Demonstration Ban 3DO.bin" size="301761600" crc="365f7661" md5="5817f091e1d43371f82b3e4636b9d849" sha1="7d3e1e699b9eac96b97aa6e0fead62a53e79ec12" />

    Cuesheet:

FILE "Starblade Demonstration Ban 3DO.bin" BINARY
  TRACK 01 MODE1/2352
    INDEX 01 00:00:00
    INDEX 02 28:26:50

    Write Offset: -22

Matches http://redump.org/disc/25228/

Logs can be found here: https://mega.nz/#!DtRwEQgb!KXi12rA5JqCI … L7nvxThF9g
Photos can be found here: https://mega.nz/#!uhYkwKzI!K5ZpSha84CuE … mGDGHn-I7A

Game comes with a sticker.

!submissioninfo.txt

Common Disc Info:
    Title: Wizard's Harmony 2
    Foreign Title (Non-latin): ウィザーズハーモニー2
    Disc Number / Letter: (OPTIONAL)
    Disc Title: (OPTIONAL)
    System: Sega Saturn
    Media Type: CD-ROM
    Category: Games
    Region: Japan
    Languages: Japanese (tested in emulator)
    Disc Serial: T-22004G

    Ringcode Information:
        Mastering Code (laser branded/etched): T-22004GP-02023<TAB>1MM1<TAB>C<TAB>7Y
        Mastering SID Code: IFPI L223
        Data-Side Mould SID Code: IFPI 3926
        Label-Side Mould SID Code: (REQUIRED, IF EXISTS)
        Additional Mould: (REQUIRED, IF EXISTS)
        Toolstamp or Mastering Code (engraved/stamped): (REQUIRED, IF EXISTS)
    Barcode: 4 510772 972024
    EXE/Build Date: 19971107
    Error Count: 0
    Comments: (OPTIONAL)
    Contents: (OPTIONAL)

Version and Editions:
    Version: V1.002
    Edition/Release: Original

Extras:
    Primary Volume Descriptor (PVD):

0320 : 20 20 20 20 20 20 20 20  20 20 20 20 20 31 39 39                199
0330 : 37 31 31 30 37 30 30 30  30 30 30 30 30 24 31 39   7110700000000$19
0340 : 39 37 31 31 30 37 32 30  35 35 31 30 30 30 14 30   97110720551000.0
0350 : 30 30 30 30 30 30 30 30  30 30 30 30 30 30 30 00   000000000000000.
0360 : 30 30 30 30 30 30 30 30  30 30 30 30 30 30 30 30   0000000000000000
0370 : 00 01 00 00 00 00 00 00  00 00 00 00 00 00 00 00   ................

    Header:

0000 : 53 45 47 41 20 53 45 47  41 53 41 54 55 52 4E 20   SEGA SEGASATURN 
0010 : 53 45 47 41 20 54 50 20  54 2D 32 32 30 20 20 20   SEGA TP T-220   
0020 : 54 2D 32 32 30 30 34 47  20 20 56 31 2E 30 30 32   T-22004G  V1.002
0030 : 31 39 39 37 31 31 30 37  43 44 2D 31 2F 31 20 20   19971107CD-1/1  
0040 : 4A 20 20 20 20 20 20 20  20 20 20 20 20 20 20 20   J               
0050 : 4A 4D 20 20 20 20 20 20  20 20 20 20 20 20 20 20   JM              
0060 : 57 49 5A 41 52 44 53 20  48 41 52 4D 4F 4E 59 32   WIZARDS HARMONY2
0070 : 20 20 20 20 20 20 20 20  20 20 20 20 20 20 20 20                   
0080 : 20 20 20 20 20 20 20 20  20 20 20 20 20 20 20 20                   
0090 : 20 20 20 20 20 20 20 20  20 20 20 20 20 20 20 20                   
00A0 : 20 20 20 20 20 20 20 20  20 20 20 20 20 20 20 20                   
00B0 : 20 20 20 20 20 20 20 20  20 20 20 20 20 20 20 20                   
00C0 : 20 20 20 20 20 20 20 20  20 20 20 20 20 20 20 20                   
00D0 : 00 00 00 00 00 00 00 00  00 00 00 00 00 00 00 00   ................
00E0 : 00 00 18 00 00 00 00 00  00 00 00 00 00 00 00 00   ................
00F0 : 06 00 40 00 00 00 00 00  00 00 00 00 00 00 00 00   ..@.............

Tracks and Write Offsets:
    DAT:

<rom name="Wizard's Harmony 2 (Track 1).bin" size="48959232" crc="94957406" md5="e43a552a967d133b704de8fc65445a0c" sha1="e052e38d1f8d4842906d757b0a35f7cae6d8d870" />
<rom name="Wizard's Harmony 2 (Track 2).bin" size="171503136" crc="84c9c624" md5="f138a449c9ca069bb76f9720aabcba98" sha1="2b93578a860ae6109e4d0448c971a03d2f1f668a" />
<rom name="Wizard's Harmony 2 (Track 3).bin" size="23863392" crc="3d5216f7" md5="4f9d1ba9639af33a4a7eeef9350f2e8d" sha1="218dc1561d041eb2d6bb5cd2b7a0d80e75df288f" />
<rom name="Wizard's Harmony 2 (Track 4).bin" size="30173808" crc="d7a66fe8" md5="c123a7373eaa2ceb2e92ab4723c0d9a6" sha1="debb98a9993d13be638211cba5293a5917eee888" />

    Cuesheet:

CATALOG 0000000000000
FILE "Wizard's Harmony 2 (Track 1).bin" BINARY
  TRACK 01 MODE1/2352
    INDEX 01 00:00:00
FILE "Wizard's Harmony 2 (Track 2).bin" BINARY
  TRACK 02 MODE2/2352
    INDEX 00 00:00:00
    INDEX 01 00:03:00
FILE "Wizard's Harmony 2 (Track 3).bin" BINARY
  TRACK 03 AUDIO
    INDEX 00 00:00:00
    INDEX 01 00:02:00
FILE "Wizard's Harmony 2 (Track 4).bin" BINARY
  TRACK 04 AUDIO
    INDEX 00 00:00:00
    INDEX 01 00:02:00

    Write Offset: 0

Matches http://redump.org/disc/29084/

Dumped both 1 MB RAM cart version and standalone version without RAM.
Currently it is dumped only from the Samurai Spirits Best Collection version.

Logs (both versions) can be found here: https://mega.nz/#!C45hEYaT!NuuyXSAvIXh1 … 00KYQMXgTY
Photos (both versions) can be found here: https://mega.nz/#!H5pVASxZ!L-aNFjkeGtSN … 7mus_EzZrQ

Game has English menus, but most of the rest is in Japanese.

RAM Cart version (T-3104G)
!submissioninfo.txt

Common Disc Info:
    Title: Samurai Spirits Zankurou Mousuken
    Foreign Title (Non-latin): サムライスピリッツ斬紅郎無双剣
    Disc Number / Letter: (OPTIONAL)
    Disc Title: (OPTIONAL)
    System: Sega Saturn
    Media Type: CD-ROM
    Category: Games
    Region: Japan
    Languages: Japanese
    Disc Serial: T-3104G 

    Ringcode Information:
        Mastering Code (laser branded/etched): T-3104GP-01125-P2K<TAB>V
        Mastering SID Code: IFPI L237
        Data-Side Mould SID Code: IFPI4011 (no gap)
        Label-Side Mould SID Code: (REQUIRED, IF EXISTS)
        Additional Mould: (REQUIRED, IF EXISTS)
        Toolstamp or Mastering Code (engraved/stamped): 23
    Barcode: T4964808 20002 3
    EXE/Build Date: 19961004
    Error Count: 0
    Comments: Bundled together with 1MB RAM cartridge (HSS-0150 part code) (which is required to run the game) in a cardboard box. Game's jewel case does not have a back insert.
    Contents: (OPTIONAL)

Version and Editions:
    Version: V1.009
    Edition/Release: Kakuchou RAM Cartridge-tsuki Okaidoku Set!! / 拡張RAMカートリッジ付き「お買得セット」!!

Extras:
    Primary Volume Descriptor (PVD):

0320 : 20 20 20 20 20 20 20 20  20 20 20 20 20 31 39 39                199
0330 : 36 31 30 30 34 32 31 35  36 35 33 30 30 14 31 39   6100421565300.19
0340 : 39 36 31 30 30 34 32 31  35 36 35 33 30 30 14 30   96100421565300.0
0350 : 30 30 30 30 30 30 30 30  30 30 30 30 30 30 30 00   000000000000000.
0360 : 30 30 30 30 30 30 30 30  30 30 30 30 30 30 30 30   0000000000000000
0370 : 00 01 00 00 00 00 00 00  00 00 00 00 00 00 00 00   ................

    Header:

0000 : 53 45 47 41 20 53 45 47  41 53 41 54 55 52 4E 20   SEGA SEGASATURN 
0010 : 53 45 47 41 20 54 50 20  54 2D 33 31 20 20 20 20   SEGA TP T-31    
0020 : 54 2D 33 31 30 34 47 20  20 20 56 31 2E 30 30 39   T-3104G   V1.009
0030 : 31 39 39 36 31 30 30 34  43 44 2D 31 2F 31 20 20   19961004CD-1/1  
0040 : 4A 54 20 20 20 20 20 20  20 20 20 20 20 20 20 20   JT              
0050 : 4A 20 20 20 20 20 20 20  20 20 20 20 20 20 20 20   J               
0060 : 53 41 4D 55 52 41 49 20  53 50 49 52 49 54 53 20   SAMURAI SPIRITS 
0070 : 5A 41 4E 4B 55 52 4F 20  4D 55 53 4F 4B 45 4E 20   ZANKURO MUSOKEN 
0080 : 20 20 20 20 20 20 20 20  20 20 20 20 20 20 20 20                   
0090 : 20 20 20 20 20 20 20 20  20 20 20 20 20 20 20 20                   
00A0 : 20 20 20 20 20 20 20 20  20 20 20 20 20 20 20 20                   
00B0 : 20 20 20 20 20 20 20 20  20 20 20 20 20 20 20 20                   
00C0 : 20 20 20 20 20 20 20 20  20 20 20 20 20 20 20 20                   
00D0 : 00 00 00 00 00 00 00 00  00 00 00 00 00 00 00 00   ................
00E0 : 00 00 18 00 00 00 00 00  06 00 20 00 06 00 10 00   .......... .....
00F0 : 06 00 A0 00 00 00 00 00  00 00 00 00 00 00 00 00   ................

Tracks and Write Offsets:
    DAT:

<rom name="SAMURAI_SHOWDOWN_3 RAM (Track 01).bin" size="57504048" crc="5ddfd8b3" md5="10ef62790e424328f00d37bfe36d0ce7" sha1="8b19487e66d3999709578a526d9f200154ab5583" />
<rom name="SAMURAI_SHOWDOWN_3 RAM (Track 02).bin" size="4967424" crc="ee6a78c1" md5="8d1f2feb25ca3e1d3bbde1e95a1bf1de" sha1="3989fbed270ce8baa2b0445d31e28a899f4afe09" />
<rom name="SAMURAI_SHOWDOWN_3 RAM (Track 03).bin" size="27894720" crc="19f2e53f" md5="cc36040acfac00a0e6235401f29d0d27" sha1="03a34f0310415ef204f8098afcac7df747a19072" />
<rom name="SAMURAI_SHOWDOWN_3 RAM (Track 04).bin" size="28118160" crc="34983243" md5="8714454f6f2340b50ac95f5534fb9722" sha1="d31a06b03c8e48cad2562f1242c6c257cec07ba3" />
<rom name="SAMURAI_SHOWDOWN_3 RAM (Track 05).bin" size="2827104" crc="217a83ab" md5="8299f5b009447a62187143d2b456d61a" sha1="0f12217eecc1867a5e8f2622f223153902b76c6a" />
<rom name="SAMURAI_SHOWDOWN_3 RAM (Track 06).bin" size="1472352" crc="c3efce55" md5="e66694f355d6e12f3bfa0499791de7aa" sha1="f8c958d040a0e99b77797c9ed85c65e9e0f5f4c7" />
<rom name="SAMURAI_SHOWDOWN_3 RAM (Track 07).bin" size="30806496" crc="8e4bdc43" md5="b2836c0db3fb9b479f226d3f819f468a" sha1="2fd0213a0797f49c558d8f8db835f077b3ba86d8" />
<rom name="SAMURAI_SHOWDOWN_3 RAM (Track 08).bin" size="18714864" crc="873ade53" md5="5aa4d7c3662b4d67816c188af986f956" sha1="8e0a06559f9590c3cea0ecedb31c65bb5335fe12" />
<rom name="SAMURAI_SHOWDOWN_3 RAM (Track 09).bin" size="7418208" crc="2d32602d" md5="d42f36f706cc4ede29a197ff2c96f23e" sha1="142c8a5ce53d0adfcb76a8c3ab7ccfe6c81b9af7" />
<rom name="SAMURAI_SHOWDOWN_3 RAM (Track 10).bin" size="1058400" crc="70db886e" md5="b0bff6118baab2caf1b3a7837fab9b2c" sha1="dbc87bb9ac2680e357aa2402e068a50b960f3fa3" />
<rom name="SAMURAI_SHOWDOWN_3 RAM (Track 11).bin" size="2255568" crc="88587721" md5="dc49db03067c651b81c0c07c7a2a5633" sha1="89a48583e16fcbc26a4ced8e3fc41b2007685282" />
<rom name="SAMURAI_SHOWDOWN_3 RAM (Track 12).bin" size="1058400" crc="c184d1ea" md5="d48301520b17f1b05a64a58c6e05b9ac" sha1="a5e686658b0091eac0bbcb991f5b27cf909d32ac" />
<rom name="SAMURAI_SHOWDOWN_3 RAM (Track 13).bin" size="4271232" crc="d605ae04" md5="66904e250d43b61ceca49f76396c5c36" sha1="299c74e86af0f56ebe14de6b7a36fe53a343ebe6" />
<rom name="SAMURAI_SHOWDOWN_3 RAM (Track 14).bin" size="6310416" crc="21f9f257" md5="b782cea5e9bc217b40d7b554c96ca9fb" sha1="6a94b554cf2dfc0c3d32a7464a3bc8b89c23f1ed" />
<rom name="SAMURAI_SHOWDOWN_3 RAM (Track 15).bin" size="31076976" crc="1d221388" md5="ad2c5c8beb5bdade950046047eaaf906" sha1="d6e77aeef40b4035845c9bc24375a82e872bb26d" />
<rom name="SAMURAI_SHOWDOWN_3 RAM (Track 16).bin" size="31874304" crc="c9455a45" md5="f514c485aec542d704f24aa3a01aaee2" sha1="6a1380b70b860ed80e9fe568e15eb4f6e1e3634e" />
<rom name="SAMURAI_SHOWDOWN_3 RAM (Track 17).bin" size="14758800" crc="9ce78c2b" md5="82a52f5e3cfa8689876f8b60cbb4fc44" sha1="7392f7a81da67f6ceb74b85899a9de8fc0863a6a" />
<rom name="SAMURAI_SHOWDOWN_3 RAM (Track 18).bin" size="18510240" crc="447497e9" md5="72562d31fca86cf938ae75c0465aea98" sha1="76dbb55f2560ebe6d871c742669bc9d10dd211a1" />
<rom name="SAMURAI_SHOWDOWN_3 RAM (Track 19).bin" size="31036992" crc="64f7d494" md5="d3bf1d8ef0900dfd6ce6650dadef4852" sha1="0a807f3ca1a530c276f6652842ed310585957c1c" />
<rom name="SAMURAI_SHOWDOWN_3 RAM (Track 20).bin" size="25721472" crc="1727727e" md5="8e0257db3cd018d86b084943b5d4e00a" sha1="1f25de026bf0cb033665e5ab8e5ea545859edb18" />
<rom name="SAMURAI_SHOWDOWN_3 RAM (Track 21).bin" size="26126016" crc="a6e75c98" md5="4ec42d744b6ca4bf01f2fe6eba83b26b" sha1="d0783c184315b31d261fd02c2148eb9a47979628" />
<rom name="SAMURAI_SHOWDOWN_3 RAM (Track 22).bin" size="31354512" crc="f8c03df1" md5="c635720995c16ce7e0b2609aee430ca9" sha1="06255bfb70e1351e75d3e82f6bf2682d2b4fc2ec" />
<rom name="SAMURAI_SHOWDOWN_3 RAM (Track 23).bin" size="30804144" crc="0cb1b75d" md5="00fc26a5ac77b5eccb5132f913d4e6f5" sha1="8549e2e65ab0d749bbf7b60288f37eadd708b3da" />
<rom name="SAMURAI_SHOWDOWN_3 RAM (Track 24).bin" size="6317472" crc="eaf7b024" md5="56602259943de8d86b6ccd698d61dcbb" sha1="5b516a374ec3f4471f1a0de5917eae6952fc51b8" />
<rom name="SAMURAI_SHOWDOWN_3 RAM (Track 25).bin" size="1959216" crc="bf67543b" md5="729fae0278680a49772c0b4ce9e3b965" sha1="ca0506ff6f8b9e8ee5e05fb78c5c1a60c43ce421" />
<rom name="SAMURAI_SHOWDOWN_3 RAM (Track 26).bin" size="2192064" crc="4092d85e" md5="779a177f7e4680afac23936b4867b707" sha1="6108d7471d785616e1851276b0caed7c95f22ea7" />
<rom name="SAMURAI_SHOWDOWN_3 RAM (Track 27).bin" size="18693696" crc="70a83cd9" md5="396e90c125eb8fc8d548c59995ce63d2" sha1="3206597c657398cfc60da6702d972d6a77030b18" />
<rom name="SAMURAI_SHOWDOWN_3 RAM (Track 28).bin" size="1124256" crc="5acbfb62" md5="5f7c13429231669ff0b6d7e5aeacf47b" sha1="9d4e804268946c1dd5fc2ff87db82c5d6dc2db7a" />
<rom name="SAMURAI_SHOWDOWN_3 RAM (Track 29).bin" size="12566736" crc="0d66b8af" md5="11f57e1024d19d2970a994b0e08be45c" sha1="5491658f95f36be19cd6fbcabbe01c4546c9b497" />
<rom name="SAMURAI_SHOWDOWN_3 RAM (Track 30).bin" size="14841120" crc="030fdaa7" md5="28f626eea08c9ee0e5ccce4c49e6446d" sha1="56b1218a9d66fd0fb6641d801a9905022c11bc52" />
<rom name="SAMURAI_SHOWDOWN_3 RAM (Track 31).bin" size="42841680" crc="6fc5d7d1" md5="719b6a12f662aaf4a2499cd8ddea07e5" sha1="147bfccfd8af4109c4a0fac7b56a2dc5fd049a29" />
<rom name="SAMURAI_SHOWDOWN_3 RAM (Track 32).bin" size="42905184" crc="f424202e" md5="44730c2696b39fb67372073628fd1273" sha1="89c4c922df1fec2a46bbe7ed5074306ba0f6b913" />
<rom name="SAMURAI_SHOWDOWN_3 RAM (Track 33).bin" size="10111248" crc="8953a0dd" md5="2766731e20861b72d0ca1f90df3f5d9f" sha1="b86ae41c359187f63dd9a4ec72c0945061475985" />
<rom name="SAMURAI_SHOWDOWN_3 RAM (Track 34).bin" size="8424864" crc="21b648fb" md5="d61cb85e11f0f06616934c872f197417" sha1="33572a9bb366babfe7a7cd73807e03cf96d5f30f" />
<rom name="SAMURAI_SHOWDOWN_3 RAM (Track 35).bin" size="10115952" crc="66500b45" md5="6ca0e6edb53749021d205dcf5afadc76" sha1="8dad542924ed38180d6b7c6d7f5791ae90130fdb" />
<rom name="SAMURAI_SHOWDOWN_3 RAM (Track 36).bin" size="9377424" crc="67e66ab5" md5="46332f0170856079a222d1e7fb431e5b" sha1="f77657bb8460ad0a4d61a823fa5f69d8ae1ab427" />
<rom name="SAMURAI_SHOWDOWN_3 RAM (Track 37).bin" size="2246160" crc="e67bdc32" md5="10203a04ec3439c919caa9c0d2a40c30" sha1="4daeef0e13ff4af0f185296a23e13129b92a53e8" />

    Cuesheet:

CATALOG 0000000000000
FILE "SAMURAI_SHOWDOWN_3 RAM (Track 01).bin" BINARY
  TRACK 01 MODE1/2352
    INDEX 01 00:00:00
FILE "SAMURAI_SHOWDOWN_3 RAM (Track 02).bin" BINARY
  TRACK 02 AUDIO
    INDEX 00 00:00:00
    INDEX 01 00:02:00
FILE "SAMURAI_SHOWDOWN_3 RAM (Track 03).bin" BINARY
  TRACK 03 AUDIO
    INDEX 00 00:00:00
    INDEX 01 00:01:74
FILE "SAMURAI_SHOWDOWN_3 RAM (Track 04).bin" BINARY
  TRACK 04 AUDIO
    INDEX 00 00:00:00
    INDEX 01 00:01:74
FILE "SAMURAI_SHOWDOWN_3 RAM (Track 05).bin" BINARY
  TRACK 05 AUDIO
    INDEX 00 00:00:00
    INDEX 01 00:01:74
FILE "SAMURAI_SHOWDOWN_3 RAM (Track 06).bin" BINARY
  TRACK 06 AUDIO
    INDEX 00 00:00:00
    INDEX 01 00:01:74
FILE "SAMURAI_SHOWDOWN_3 RAM (Track 07).bin" BINARY
  TRACK 07 AUDIO
    INDEX 00 00:00:00
    INDEX 01 00:01:74
FILE "SAMURAI_SHOWDOWN_3 RAM (Track 08).bin" BINARY
  TRACK 08 AUDIO
    INDEX 00 00:00:00
    INDEX 01 00:01:74
FILE "SAMURAI_SHOWDOWN_3 RAM (Track 09).bin" BINARY
  TRACK 09 AUDIO
    INDEX 00 00:00:00
    INDEX 01 00:01:74
FILE "SAMURAI_SHOWDOWN_3 RAM (Track 10).bin" BINARY
  TRACK 10 AUDIO
    INDEX 00 00:00:00
    INDEX 01 00:01:74
FILE "SAMURAI_SHOWDOWN_3 RAM (Track 11).bin" BINARY
  TRACK 11 AUDIO
    INDEX 00 00:00:00
    INDEX 01 00:01:74
FILE "SAMURAI_SHOWDOWN_3 RAM (Track 12).bin" BINARY
  TRACK 12 AUDIO
    INDEX 00 00:00:00
    INDEX 01 00:01:74
FILE "SAMURAI_SHOWDOWN_3 RAM (Track 13).bin" BINARY
  TRACK 13 AUDIO
    INDEX 00 00:00:00
    INDEX 01 00:01:74
FILE "SAMURAI_SHOWDOWN_3 RAM (Track 14).bin" BINARY
  TRACK 14 AUDIO
    INDEX 00 00:00:00
    INDEX 01 00:01:74
FILE "SAMURAI_SHOWDOWN_3 RAM (Track 15).bin" BINARY
  TRACK 15 AUDIO
    INDEX 00 00:00:00
    INDEX 01 00:01:74
FILE "SAMURAI_SHOWDOWN_3 RAM (Track 16).bin" BINARY
  TRACK 16 AUDIO
    INDEX 00 00:00:00
    INDEX 01 00:01:74
FILE "SAMURAI_SHOWDOWN_3 RAM (Track 17).bin" BINARY
  TRACK 17 AUDIO
    INDEX 00 00:00:00
    INDEX 01 00:01:74
FILE "SAMURAI_SHOWDOWN_3 RAM (Track 18).bin" BINARY
  TRACK 18 AUDIO
    INDEX 00 00:00:00
    INDEX 01 00:01:74
FILE "SAMURAI_SHOWDOWN_3 RAM (Track 19).bin" BINARY
  TRACK 19 AUDIO
    INDEX 00 00:00:00
    INDEX 01 00:01:74
FILE "SAMURAI_SHOWDOWN_3 RAM (Track 20).bin" BINARY
  TRACK 20 AUDIO
    INDEX 00 00:00:00
    INDEX 01 00:01:74
FILE "SAMURAI_SHOWDOWN_3 RAM (Track 21).bin" BINARY
  TRACK 21 AUDIO
    INDEX 00 00:00:00
    INDEX 01 00:01:74
FILE "SAMURAI_SHOWDOWN_3 RAM (Track 22).bin" BINARY
  TRACK 22 AUDIO
    INDEX 00 00:00:00
    INDEX 01 00:01:74
FILE "SAMURAI_SHOWDOWN_3 RAM (Track 23).bin" BINARY
  TRACK 23 AUDIO
    INDEX 00 00:00:00
    INDEX 01 00:01:74
FILE "SAMURAI_SHOWDOWN_3 RAM (Track 24).bin" BINARY
  TRACK 24 AUDIO
    INDEX 00 00:00:00
    INDEX 01 00:01:74
FILE "SAMURAI_SHOWDOWN_3 RAM (Track 25).bin" BINARY
  TRACK 25 AUDIO
    INDEX 00 00:00:00
    INDEX 01 00:01:74
FILE "SAMURAI_SHOWDOWN_3 RAM (Track 26).bin" BINARY
  TRACK 26 AUDIO
    INDEX 00 00:00:00
    INDEX 01 00:01:74
FILE "SAMURAI_SHOWDOWN_3 RAM (Track 27).bin" BINARY
  TRACK 27 AUDIO
    INDEX 00 00:00:00
    INDEX 01 00:01:74
FILE "SAMURAI_SHOWDOWN_3 RAM (Track 28).bin" BINARY
  TRACK 28 AUDIO
    INDEX 00 00:00:00
    INDEX 01 00:01:74
FILE "SAMURAI_SHOWDOWN_3 RAM (Track 29).bin" BINARY
  TRACK 29 AUDIO
    INDEX 00 00:00:00
    INDEX 01 00:01:74
FILE "SAMURAI_SHOWDOWN_3 RAM (Track 30).bin" BINARY
  TRACK 30 AUDIO
    INDEX 00 00:00:00
    INDEX 01 00:01:74
FILE "SAMURAI_SHOWDOWN_3 RAM (Track 31).bin" BINARY
  TRACK 31 AUDIO
    INDEX 00 00:00:00
    INDEX 01 00:01:74
FILE "SAMURAI_SHOWDOWN_3 RAM (Track 32).bin" BINARY
  TRACK 32 AUDIO
    INDEX 00 00:00:00
    INDEX 01 00:01:74
FILE "SAMURAI_SHOWDOWN_3 RAM (Track 33).bin" BINARY
  TRACK 33 AUDIO
    INDEX 00 00:00:00
    INDEX 01 00:01:74
FILE "SAMURAI_SHOWDOWN_3 RAM (Track 34).bin" BINARY
  TRACK 34 AUDIO
    INDEX 00 00:00:00
    INDEX 01 00:01:74
FILE "SAMURAI_SHOWDOWN_3 RAM (Track 35).bin" BINARY
  TRACK 35 AUDIO
    INDEX 00 00:00:00
    INDEX 01 00:01:74
FILE "SAMURAI_SHOWDOWN_3 RAM (Track 36).bin" BINARY
  TRACK 36 AUDIO
    INDEX 00 00:00:00
    INDEX 01 00:01:74
FILE "SAMURAI_SHOWDOWN_3 RAM (Track 37).bin" BINARY
  TRACK 37 AUDIO
    INDEX 00 00:00:00
    INDEX 01 00:01:74

    Write Offset: 684

Standalone version (T-3106G)
!submissioninfo.txt

Common Disc Info:
    Title: Samurai Spirits Zankurou Musouken
    Foreign Title (Non-latin): サムライスピリッツ斬紅郎無双剣
    Disc Number / Letter: (OPTIONAL)
    Disc Title: (OPTIONAL)
    System: Sega Saturn
    Media Type: CD-ROM
    Category: Games
    Region: Japan
    Languages: Japanese
    Disc Serial: T-3106G

    Ringcode Information:
        Mastering Code (laser branded/etched): T-3104GP-01125-P2K<TAB>V
        Mastering SID Code: IFPI L237
        Data-Side Mould SID Code: IFPI4011 (no gap)
        Label-Side Mould SID Code: (REQUIRED, IF EXISTS)
        Additional Mould: (REQUIRED, IF EXISTS)
        Toolstamp or Mastering Code (engraved/stamped): 23
    Barcode: T4964808 20006 1
    EXE/Build Date: 19961004
    Error Count: 0
    Comments: Standalone version, but requires 1MB RAM cart to function.
    Contents: (OPTIONAL)

Version and Editions:
    Version: V1.009
    Edition/Release: Original

Extras:
    Primary Volume Descriptor (PVD):

0320 : 20 20 20 20 20 20 20 20  20 20 20 20 20 31 39 39                199
0330 : 36 31 30 30 34 32 31 35  36 35 33 30 30 14 31 39   6100421565300.19
0340 : 39 36 31 30 30 34 32 31  35 36 35 33 30 30 14 30   96100421565300.0
0350 : 30 30 30 30 30 30 30 30  30 30 30 30 30 30 30 00   000000000000000.
0360 : 30 30 30 30 30 30 30 30  30 30 30 30 30 30 30 30   0000000000000000
0370 : 00 01 00 00 00 00 00 00  00 00 00 00 00 00 00 00   ................

    Header:

0000 : 53 45 47 41 20 53 45 47  41 53 41 54 55 52 4E 20   SEGA SEGASATURN 
0010 : 53 45 47 41 20 54 50 20  54 2D 33 31 20 20 20 20   SEGA TP T-31    
0020 : 54 2D 33 31 30 34 47 20  20 20 56 31 2E 30 30 39   T-3104G   V1.009
0030 : 31 39 39 36 31 30 30 34  43 44 2D 31 2F 31 20 20   19961004CD-1/1  
0040 : 4A 54 20 20 20 20 20 20  20 20 20 20 20 20 20 20   JT              
0050 : 4A 20 20 20 20 20 20 20  20 20 20 20 20 20 20 20   J               
0060 : 53 41 4D 55 52 41 49 20  53 50 49 52 49 54 53 20   SAMURAI SPIRITS 
0070 : 5A 41 4E 4B 55 52 4F 20  4D 55 53 4F 4B 45 4E 20   ZANKURO MUSOKEN 
0080 : 20 20 20 20 20 20 20 20  20 20 20 20 20 20 20 20                   
0090 : 20 20 20 20 20 20 20 20  20 20 20 20 20 20 20 20                   
00A0 : 20 20 20 20 20 20 20 20  20 20 20 20 20 20 20 20                   
00B0 : 20 20 20 20 20 20 20 20  20 20 20 20 20 20 20 20                   
00C0 : 20 20 20 20 20 20 20 20  20 20 20 20 20 20 20 20                   
00D0 : 00 00 00 00 00 00 00 00  00 00 00 00 00 00 00 00   ................
00E0 : 00 00 18 00 00 00 00 00  06 00 20 00 06 00 10 00   .......... .....
00F0 : 06 00 A0 00 00 00 00 00  00 00 00 00 00 00 00 00   ................

Tracks and Write Offsets:
    DAT:

<rom name="SAMURAI_SHOWDOWN_3_no RAM (Track 01).bin" size="57504048" crc="5ddfd8b3" md5="10ef62790e424328f00d37bfe36d0ce7" sha1="8b19487e66d3999709578a526d9f200154ab5583" />
<rom name="SAMURAI_SHOWDOWN_3_no RAM (Track 02).bin" size="4967424" crc="ee6a78c1" md5="8d1f2feb25ca3e1d3bbde1e95a1bf1de" sha1="3989fbed270ce8baa2b0445d31e28a899f4afe09" />
<rom name="SAMURAI_SHOWDOWN_3_no RAM (Track 03).bin" size="27894720" crc="19f2e53f" md5="cc36040acfac00a0e6235401f29d0d27" sha1="03a34f0310415ef204f8098afcac7df747a19072" />
<rom name="SAMURAI_SHOWDOWN_3_no RAM (Track 04).bin" size="28118160" crc="34983243" md5="8714454f6f2340b50ac95f5534fb9722" sha1="d31a06b03c8e48cad2562f1242c6c257cec07ba3" />
<rom name="SAMURAI_SHOWDOWN_3_no RAM (Track 05).bin" size="2827104" crc="217a83ab" md5="8299f5b009447a62187143d2b456d61a" sha1="0f12217eecc1867a5e8f2622f223153902b76c6a" />
<rom name="SAMURAI_SHOWDOWN_3_no RAM (Track 06).bin" size="1472352" crc="c3efce55" md5="e66694f355d6e12f3bfa0499791de7aa" sha1="f8c958d040a0e99b77797c9ed85c65e9e0f5f4c7" />
<rom name="SAMURAI_SHOWDOWN_3_no RAM (Track 07).bin" size="30806496" crc="8e4bdc43" md5="b2836c0db3fb9b479f226d3f819f468a" sha1="2fd0213a0797f49c558d8f8db835f077b3ba86d8" />
<rom name="SAMURAI_SHOWDOWN_3_no RAM (Track 08).bin" size="18714864" crc="873ade53" md5="5aa4d7c3662b4d67816c188af986f956" sha1="8e0a06559f9590c3cea0ecedb31c65bb5335fe12" />
<rom name="SAMURAI_SHOWDOWN_3_no RAM (Track 09).bin" size="7418208" crc="2d32602d" md5="d42f36f706cc4ede29a197ff2c96f23e" sha1="142c8a5ce53d0adfcb76a8c3ab7ccfe6c81b9af7" />
<rom name="SAMURAI_SHOWDOWN_3_no RAM (Track 10).bin" size="1058400" crc="70db886e" md5="b0bff6118baab2caf1b3a7837fab9b2c" sha1="dbc87bb9ac2680e357aa2402e068a50b960f3fa3" />
<rom name="SAMURAI_SHOWDOWN_3_no RAM (Track 11).bin" size="2255568" crc="88587721" md5="dc49db03067c651b81c0c07c7a2a5633" sha1="89a48583e16fcbc26a4ced8e3fc41b2007685282" />
<rom name="SAMURAI_SHOWDOWN_3_no RAM (Track 12).bin" size="1058400" crc="c184d1ea" md5="d48301520b17f1b05a64a58c6e05b9ac" sha1="a5e686658b0091eac0bbcb991f5b27cf909d32ac" />
<rom name="SAMURAI_SHOWDOWN_3_no RAM (Track 13).bin" size="4271232" crc="d605ae04" md5="66904e250d43b61ceca49f76396c5c36" sha1="299c74e86af0f56ebe14de6b7a36fe53a343ebe6" />
<rom name="SAMURAI_SHOWDOWN_3_no RAM (Track 14).bin" size="6310416" crc="21f9f257" md5="b782cea5e9bc217b40d7b554c96ca9fb" sha1="6a94b554cf2dfc0c3d32a7464a3bc8b89c23f1ed" />
<rom name="SAMURAI_SHOWDOWN_3_no RAM (Track 15).bin" size="31076976" crc="1d221388" md5="ad2c5c8beb5bdade950046047eaaf906" sha1="d6e77aeef40b4035845c9bc24375a82e872bb26d" />
<rom name="SAMURAI_SHOWDOWN_3_no RAM (Track 16).bin" size="31874304" crc="c9455a45" md5="f514c485aec542d704f24aa3a01aaee2" sha1="6a1380b70b860ed80e9fe568e15eb4f6e1e3634e" />
<rom name="SAMURAI_SHOWDOWN_3_no RAM (Track 17).bin" size="14758800" crc="9ce78c2b" md5="82a52f5e3cfa8689876f8b60cbb4fc44" sha1="7392f7a81da67f6ceb74b85899a9de8fc0863a6a" />
<rom name="SAMURAI_SHOWDOWN_3_no RAM (Track 18).bin" size="18510240" crc="447497e9" md5="72562d31fca86cf938ae75c0465aea98" sha1="76dbb55f2560ebe6d871c742669bc9d10dd211a1" />
<rom name="SAMURAI_SHOWDOWN_3_no RAM (Track 19).bin" size="31036992" crc="64f7d494" md5="d3bf1d8ef0900dfd6ce6650dadef4852" sha1="0a807f3ca1a530c276f6652842ed310585957c1c" />
<rom name="SAMURAI_SHOWDOWN_3_no RAM (Track 20).bin" size="25721472" crc="1727727e" md5="8e0257db3cd018d86b084943b5d4e00a" sha1="1f25de026bf0cb033665e5ab8e5ea545859edb18" />
<rom name="SAMURAI_SHOWDOWN_3_no RAM (Track 21).bin" size="26126016" crc="a6e75c98" md5="4ec42d744b6ca4bf01f2fe6eba83b26b" sha1="d0783c184315b31d261fd02c2148eb9a47979628" />
<rom name="SAMURAI_SHOWDOWN_3_no RAM (Track 22).bin" size="31354512" crc="f8c03df1" md5="c635720995c16ce7e0b2609aee430ca9" sha1="06255bfb70e1351e75d3e82f6bf2682d2b4fc2ec" />
<rom name="SAMURAI_SHOWDOWN_3_no RAM (Track 23).bin" size="30804144" crc="0cb1b75d" md5="00fc26a5ac77b5eccb5132f913d4e6f5" sha1="8549e2e65ab0d749bbf7b60288f37eadd708b3da" />
<rom name="SAMURAI_SHOWDOWN_3_no RAM (Track 24).bin" size="6317472" crc="eaf7b024" md5="56602259943de8d86b6ccd698d61dcbb" sha1="5b516a374ec3f4471f1a0de5917eae6952fc51b8" />
<rom name="SAMURAI_SHOWDOWN_3_no RAM (Track 25).bin" size="1959216" crc="bf67543b" md5="729fae0278680a49772c0b4ce9e3b965" sha1="ca0506ff6f8b9e8ee5e05fb78c5c1a60c43ce421" />
<rom name="SAMURAI_SHOWDOWN_3_no RAM (Track 26).bin" size="2192064" crc="4092d85e" md5="779a177f7e4680afac23936b4867b707" sha1="6108d7471d785616e1851276b0caed7c95f22ea7" />
<rom name="SAMURAI_SHOWDOWN_3_no RAM (Track 27).bin" size="18693696" crc="70a83cd9" md5="396e90c125eb8fc8d548c59995ce63d2" sha1="3206597c657398cfc60da6702d972d6a77030b18" />
<rom name="SAMURAI_SHOWDOWN_3_no RAM (Track 28).bin" size="1124256" crc="5acbfb62" md5="5f7c13429231669ff0b6d7e5aeacf47b" sha1="9d4e804268946c1dd5fc2ff87db82c5d6dc2db7a" />
<rom name="SAMURAI_SHOWDOWN_3_no RAM (Track 29).bin" size="12566736" crc="0d66b8af" md5="11f57e1024d19d2970a994b0e08be45c" sha1="5491658f95f36be19cd6fbcabbe01c4546c9b497" />
<rom name="SAMURAI_SHOWDOWN_3_no RAM (Track 30).bin" size="14841120" crc="030fdaa7" md5="28f626eea08c9ee0e5ccce4c49e6446d" sha1="56b1218a9d66fd0fb6641d801a9905022c11bc52" />
<rom name="SAMURAI_SHOWDOWN_3_no RAM (Track 31).bin" size="42841680" crc="6fc5d7d1" md5="719b6a12f662aaf4a2499cd8ddea07e5" sha1="147bfccfd8af4109c4a0fac7b56a2dc5fd049a29" />
<rom name="SAMURAI_SHOWDOWN_3_no RAM (Track 32).bin" size="42905184" crc="f424202e" md5="44730c2696b39fb67372073628fd1273" sha1="89c4c922df1fec2a46bbe7ed5074306ba0f6b913" />
<rom name="SAMURAI_SHOWDOWN_3_no RAM (Track 33).bin" size="10111248" crc="8953a0dd" md5="2766731e20861b72d0ca1f90df3f5d9f" sha1="b86ae41c359187f63dd9a4ec72c0945061475985" />
<rom name="SAMURAI_SHOWDOWN_3_no RAM (Track 34).bin" size="8424864" crc="21b648fb" md5="d61cb85e11f0f06616934c872f197417" sha1="33572a9bb366babfe7a7cd73807e03cf96d5f30f" />
<rom name="SAMURAI_SHOWDOWN_3_no RAM (Track 35).bin" size="10115952" crc="66500b45" md5="6ca0e6edb53749021d205dcf5afadc76" sha1="8dad542924ed38180d6b7c6d7f5791ae90130fdb" />
<rom name="SAMURAI_SHOWDOWN_3_no RAM (Track 36).bin" size="9377424" crc="67e66ab5" md5="46332f0170856079a222d1e7fb431e5b" sha1="f77657bb8460ad0a4d61a823fa5f69d8ae1ab427" />
<rom name="SAMURAI_SHOWDOWN_3_no RAM (Track 37).bin" size="2246160" crc="e67bdc32" md5="10203a04ec3439c919caa9c0d2a40c30" sha1="4daeef0e13ff4af0f185296a23e13129b92a53e8" />

    Cuesheet:

CATALOG 0000000000000
FILE "SAMURAI_SHOWDOWN_3_no RAM (Track 01).bin" BINARY
  TRACK 01 MODE1/2352
    INDEX 01 00:00:00
FILE "SAMURAI_SHOWDOWN_3_no RAM (Track 02).bin" BINARY
  TRACK 02 AUDIO
    INDEX 00 00:00:00
    INDEX 01 00:02:00
FILE "SAMURAI_SHOWDOWN_3_no RAM (Track 03).bin" BINARY
  TRACK 03 AUDIO
    INDEX 00 00:00:00
    INDEX 01 00:01:74
FILE "SAMURAI_SHOWDOWN_3_no RAM (Track 04).bin" BINARY
  TRACK 04 AUDIO
    INDEX 00 00:00:00
    INDEX 01 00:01:74
FILE "SAMURAI_SHOWDOWN_3_no RAM (Track 05).bin" BINARY
  TRACK 05 AUDIO
    INDEX 00 00:00:00
    INDEX 01 00:01:74
FILE "SAMURAI_SHOWDOWN_3_no RAM (Track 06).bin" BINARY
  TRACK 06 AUDIO
    INDEX 00 00:00:00
    INDEX 01 00:01:74
FILE "SAMURAI_SHOWDOWN_3_no RAM (Track 07).bin" BINARY
  TRACK 07 AUDIO
    INDEX 00 00:00:00
    INDEX 01 00:01:74
FILE "SAMURAI_SHOWDOWN_3_no RAM (Track 08).bin" BINARY
  TRACK 08 AUDIO
    INDEX 00 00:00:00
    INDEX 01 00:01:74
FILE "SAMURAI_SHOWDOWN_3_no RAM (Track 09).bin" BINARY
  TRACK 09 AUDIO
    INDEX 00 00:00:00
    INDEX 01 00:01:74
FILE "SAMURAI_SHOWDOWN_3_no RAM (Track 10).bin" BINARY
  TRACK 10 AUDIO
    INDEX 00 00:00:00
    INDEX 01 00:01:74
FILE "SAMURAI_SHOWDOWN_3_no RAM (Track 11).bin" BINARY
  TRACK 11 AUDIO
    INDEX 00 00:00:00
    INDEX 01 00:01:74
FILE "SAMURAI_SHOWDOWN_3_no RAM (Track 12).bin" BINARY
  TRACK 12 AUDIO
    INDEX 00 00:00:00
    INDEX 01 00:01:74
FILE "SAMURAI_SHOWDOWN_3_no RAM (Track 13).bin" BINARY
  TRACK 13 AUDIO
    INDEX 00 00:00:00
    INDEX 01 00:01:74
FILE "SAMURAI_SHOWDOWN_3_no RAM (Track 14).bin" BINARY
  TRACK 14 AUDIO
    INDEX 00 00:00:00
    INDEX 01 00:01:74
FILE "SAMURAI_SHOWDOWN_3_no RAM (Track 15).bin" BINARY
  TRACK 15 AUDIO
    INDEX 00 00:00:00
    INDEX 01 00:01:74
FILE "SAMURAI_SHOWDOWN_3_no RAM (Track 16).bin" BINARY
  TRACK 16 AUDIO
    INDEX 00 00:00:00
    INDEX 01 00:01:74
FILE "SAMURAI_SHOWDOWN_3_no RAM (Track 17).bin" BINARY
  TRACK 17 AUDIO
    INDEX 00 00:00:00
    INDEX 01 00:01:74
FILE "SAMURAI_SHOWDOWN_3_no RAM (Track 18).bin" BINARY
  TRACK 18 AUDIO
    INDEX 00 00:00:00
    INDEX 01 00:01:74
FILE "SAMURAI_SHOWDOWN_3_no RAM (Track 19).bin" BINARY
  TRACK 19 AUDIO
    INDEX 00 00:00:00
    INDEX 01 00:01:74
FILE "SAMURAI_SHOWDOWN_3_no RAM (Track 20).bin" BINARY
  TRACK 20 AUDIO
    INDEX 00 00:00:00
    INDEX 01 00:01:74
FILE "SAMURAI_SHOWDOWN_3_no RAM (Track 21).bin" BINARY
  TRACK 21 AUDIO
    INDEX 00 00:00:00
    INDEX 01 00:01:74
FILE "SAMURAI_SHOWDOWN_3_no RAM (Track 22).bin" BINARY
  TRACK 22 AUDIO
    INDEX 00 00:00:00
    INDEX 01 00:01:74
FILE "SAMURAI_SHOWDOWN_3_no RAM (Track 23).bin" BINARY
  TRACK 23 AUDIO
    INDEX 00 00:00:00
    INDEX 01 00:01:74
FILE "SAMURAI_SHOWDOWN_3_no RAM (Track 24).bin" BINARY
  TRACK 24 AUDIO
    INDEX 00 00:00:00
    INDEX 01 00:01:74
FILE "SAMURAI_SHOWDOWN_3_no RAM (Track 25).bin" BINARY
  TRACK 25 AUDIO
    INDEX 00 00:00:00
    INDEX 01 00:01:74
FILE "SAMURAI_SHOWDOWN_3_no RAM (Track 26).bin" BINARY
  TRACK 26 AUDIO
    INDEX 00 00:00:00
    INDEX 01 00:01:74
FILE "SAMURAI_SHOWDOWN_3_no RAM (Track 27).bin" BINARY
  TRACK 27 AUDIO
    INDEX 00 00:00:00
    INDEX 01 00:01:74
FILE "SAMURAI_SHOWDOWN_3_no RAM (Track 28).bin" BINARY
  TRACK 28 AUDIO
    INDEX 00 00:00:00
    INDEX 01 00:01:74
FILE "SAMURAI_SHOWDOWN_3_no RAM (Track 29).bin" BINARY
  TRACK 29 AUDIO
    INDEX 00 00:00:00
    INDEX 01 00:01:74
FILE "SAMURAI_SHOWDOWN_3_no RAM (Track 30).bin" BINARY
  TRACK 30 AUDIO
    INDEX 00 00:00:00
    INDEX 01 00:01:74
FILE "SAMURAI_SHOWDOWN_3_no RAM (Track 31).bin" BINARY
  TRACK 31 AUDIO
    INDEX 00 00:00:00
    INDEX 01 00:01:74
FILE "SAMURAI_SHOWDOWN_3_no RAM (Track 32).bin" BINARY
  TRACK 32 AUDIO
    INDEX 00 00:00:00
    INDEX 01 00:01:74
FILE "SAMURAI_SHOWDOWN_3_no RAM (Track 33).bin" BINARY
  TRACK 33 AUDIO
    INDEX 00 00:00:00
    INDEX 01 00:01:74
FILE "SAMURAI_SHOWDOWN_3_no RAM (Track 34).bin" BINARY
  TRACK 34 AUDIO
    INDEX 00 00:00:00
    INDEX 01 00:01:74
FILE "SAMURAI_SHOWDOWN_3_no RAM (Track 35).bin" BINARY
  TRACK 35 AUDIO
    INDEX 00 00:00:00
    INDEX 01 00:01:74
FILE "SAMURAI_SHOWDOWN_3_no RAM (Track 36).bin" BINARY
  TRACK 36 AUDIO
    INDEX 00 00:00:00
    INDEX 01 00:01:74
FILE "SAMURAI_SHOWDOWN_3_no RAM (Track 37).bin" BINARY
  TRACK 37 AUDIO
    INDEX 00 00:00:00
    INDEX 01 00:01:74

    Write Offset: 684

Matches http://redump.org/disc/63437/
Logs can be found here: https://mega.nz/#!zlgRWSKZ!dhx0RCEItzUQ … efD3XwH4hw
Photos can be found here: https://mega.nz/#!Pt5DiYhC!zKW71RQPwLDh … cvziK8K0mg
All info matching the existing.

!submissioninfo.txt

Common Disc Info:
    Title: Janshin Densetsu - Quest of Jongmaster
    Foreign Title (Non-latin): 雀神伝説 - Quest of Jongmaster
    Disc Number / Letter: (OPTIONAL)
    Disc Title: (OPTIONAL)
    System: SNK Neo Geo CD
    Media Type: CD-ROM
    Category: Games
    Region: Japan
    Languages: Japanese
    Disc Serial: AICD-048

    Ringcode Information:
        Mastering Code (laser branded/etched): AICD-048 MT<TAB>B01
        Mastering SID Code: IFPI L262
        Data-Side Mould SID Code: IFPI 4411
        Label-Side Mould SID Code: (REQUIRED, IF EXISTS)
        Additional Mould: B
        Toolstamp or Mastering Code (engraved/stamped): (REQUIRED, IF EXISTS)
    Barcode: T4964808 50077 2
    EXE/Build Date: (REQUIRED)
    Error Count: 0
    Comments: Box and Disc also show "Mahjong Battle Game"
    Contents: (OPTIONAL)

Version and Editions:
    Version: (REQUIRED, IF EXISTS)
    Edition/Release: Original

Extras:
    Primary Volume Descriptor (PVD):

0320 : 20 20 20 20 20 20 20 20  20 20 20 20 20 30 30 30                000
0330 : 30 30 30 30 30 30 30 30  30 30 30 30 30 00 30 30   0000000000000.00
0340 : 30 30 30 30 30 30 30 30  30 30 30 30 30 30 00 30   00000000000000.0
0350 : 30 30 30 30 30 30 30 30  30 30 30 30 30 30 30 00   000000000000000.
0360 : 30 30 30 30 30 30 30 30  30 30 30 30 30 30 30 30   0000000000000000
0370 : 00 01 00 48 79 62 72 69  64 20 46 6F 72 6D 61 74   ...Hybrid Format

Tracks and Write Offsets:
    DAT:

<rom name="Janshin Densetsu - Quest of Jongmaster (Track 01).bin" size="7782768" crc="c4da8b3a" md5="519e86da78f7ec36ce03d3ff56dbfd08" sha1="de3ee6a052b604824c0bc097e7edf0be62dd733e" />
<rom name="Janshin Densetsu - Quest of Jongmaster (Track 02).bin" size="2646000" crc="26aad272" md5="62ea4134aac1774993135e1c6b5a0426" sha1="ec401422c29965dcc5dbae2fa550b7da94f63777" />
<rom name="Janshin Densetsu - Quest of Jongmaster (Track 03).bin" size="14464800" crc="24de858c" md5="958b737df56aec43293c2c453dcf20c7" sha1="6832005c3ebea62a86a143dcb2a019b109da45fa" />
<rom name="Janshin Densetsu - Quest of Jongmaster (Track 04).bin" size="25227552" crc="ca7d0443" md5="343bc8daf23b7fb68092b79887a08bf2" sha1="32acabe5b179f9692ef9ce80ce68df8717e924d1" />
<rom name="Janshin Densetsu - Quest of Jongmaster (Track 05).bin" size="9302160" crc="6696e519" md5="bc32834641575e34e8dc25952f5c7212" sha1="7d2b774547b4ce6d2aa25ef0da19c92bd4dec91e" />
<rom name="Janshin Densetsu - Quest of Jongmaster (Track 06).bin" size="14789376" crc="493f743c" md5="cd31a336e8098fe2fb78d759a6486936" sha1="1268b55ac2e3d960e6f18bbaff236839d0d9a595" />
<rom name="Janshin Densetsu - Quest of Jongmaster (Track 07).bin" size="39160800" crc="f64d8e68" md5="1cab0b0ac49c1f97890fadc035c1652c" sha1="75a28f5f73491b8b790e987a28d7f65ddd6fb266" />
<rom name="Janshin Densetsu - Quest of Jongmaster (Track 08).bin" size="33868800" crc="16faffbf" md5="cb63bf30c0081f6c8b3eb3f523728a98" sha1="5dd39475f542612c3637eab750326f1bd2487f78" />
<rom name="Janshin Densetsu - Quest of Jongmaster (Track 09).bin" size="14643552" crc="b02f3c8e" md5="d25de5b0664684599f85a238d13612a9" sha1="be2f6fddb2ea5ae6e2f4e679eb64ee1f9919ec2a" />
<rom name="Janshin Densetsu - Quest of Jongmaster (Track 10).bin" size="17995152" crc="a4b250e4" md5="3824df7d86f7369942572902c7e6ed17" sha1="c2b08a8e2a964adca4f5bffc82a5d624523c358d" />
<rom name="Janshin Densetsu - Quest of Jongmaster (Track 11).bin" size="14707056" crc="14a1df1c" md5="181ade317fe9e557f7fb4678ebdf28f3" sha1="f5614e28fd67e065bea1c5cd5052ce6f6faeaa63" />
<rom name="Janshin Densetsu - Quest of Jongmaster (Track 12).bin" size="10170048" crc="799390e2" md5="2886b9806c62566b9d1fe48d45a4eb41" sha1="de451c814586bc3b88693328969ddc30649a78e8" />
<rom name="Janshin Densetsu - Quest of Jongmaster (Track 13).bin" size="15770160" crc="04a27db6" md5="8f04105736d025edc8a52bc75f813c19" sha1="fbd7a6b72144fe7c7fc551ca038049ef2445af3b" />
<rom name="Janshin Densetsu - Quest of Jongmaster (Track 14).bin" size="13512240" crc="8b8d3813" md5="8114ec79fa636294c0d661dc03380b9d" sha1="0ac1e20352eea11f1a4e11ddfd94a9885a104dcb" />
<rom name="Janshin Densetsu - Quest of Jongmaster (Track 15).bin" size="19100592" crc="1a34982a" md5="3834e10ff79cea314b424737fb77cff1" sha1="f2bac6c72202d71f3d5e8f3fde7af472b94ec170" />
<rom name="Janshin Densetsu - Quest of Jongmaster (Track 16).bin" size="17294256" crc="6b31d65a" md5="c368ffb0850bfbb9463194f9b12bc494" sha1="90215d9bbd60305f6b57152e65eb591e27b2ae69" />
<rom name="Janshin Densetsu - Quest of Jongmaster (Track 17).bin" size="26043696" crc="392a638a" md5="bd60e6108a60b561dde092c4bcdf4dca" sha1="5d7c976bf935236c6eec1a8c4463b0aa0375ef7e" />
<rom name="Janshin Densetsu - Quest of Jongmaster (Track 18).bin" size="15135120" crc="cfa194c4" md5="e34e685517360814fc7bde5ec82afd92" sha1="71011072f9fc382b5a31d5990f250e73a3821774" />
<rom name="Janshin Densetsu - Quest of Jongmaster (Track 19).bin" size="11444832" crc="080254bd" md5="539e3728ef3d6e5d62280c68a184d8e3" sha1="1ca878ea15f80058e03784ef427c2a7be798c9c6" />
<rom name="Janshin Densetsu - Quest of Jongmaster (Track 20).bin" size="12825456" crc="6118376c" md5="6f11e0a23aba2a33ba790678c7a5e583" sha1="b100403b0039f365c0aae6b3248eaf03406e5246" />
<rom name="Janshin Densetsu - Quest of Jongmaster (Track 21).bin" size="18230352" crc="380ed1fa" md5="f862e9e45ed971fde9ba1e550be9bb21" sha1="79d2bee35a8b1b5c2a8147052ec78bc1249813f2" />
<rom name="Janshin Densetsu - Quest of Jongmaster (Track 22).bin" size="15349152" crc="23136fff" md5="3c6a05756eb619a73e2ce86831afc136" sha1="e036cba82b7beef828a31163b143fa563ec48cf8" />
<rom name="Janshin Densetsu - Quest of Jongmaster (Track 23).bin" size="16583952" crc="eab8a61f" md5="2f9df76f699d2b5685325a2f87887e05" sha1="30aebef0ec314097577a36e4c007fbd601b895c5" />
<rom name="Janshin Densetsu - Quest of Jongmaster (Track 24).bin" size="14921088" crc="6ebdcd82" md5="a8bff253c373fa0dc11d0d4e2bfa039d" sha1="1048b65d93a64fa8471fec20874c28195f5506dc" />
<rom name="Janshin Densetsu - Quest of Jongmaster (Track 25).bin" size="17623536" crc="54d94df6" md5="653424c049f4fc643e82a3f88e2f39f0" sha1="08ef5c3f5124b6585dab75cf9fc463dd091b1659" />
<rom name="Janshin Densetsu - Quest of Jongmaster (Track 26).bin" size="12792528" crc="37180e25" md5="73e5015946775204ffa4cf1c25145918" sha1="e1dadcd4ccfdfb3e79dba3eae7906686e04fbd5c" />
<rom name="Janshin Densetsu - Quest of Jongmaster (Track 27).bin" size="15560832" crc="428e4a22" md5="7272cf99a1b0f1fe904dfde6370986c8" sha1="2d07198f44c7e91a0d4820dda746a6f88fc8a3da" />
<rom name="Janshin Densetsu - Quest of Jongmaster (Track 28).bin" size="15836016" crc="324073b3" md5="29cef2be39fd2c6a6ea09da97edd91fe" sha1="aa5fb80ae61060e40190b59d8dae69ce4ec5e214" />
<rom name="Janshin Densetsu - Quest of Jongmaster (Track 29).bin" size="14885808" crc="adabcfc5" md5="3576e29f01815e9030945d7fe9c0e880" sha1="ba7b4988358150f2ae338ab1aa25e0d711a9e166" />
<rom name="Janshin Densetsu - Quest of Jongmaster (Track 30).bin" size="14676480" crc="876e05e7" md5="3314d9abbdb7bbb4f065baa78a789cc9" sha1="a0d0f779efca5325e348685479bdba58bad2033a" />
<rom name="Janshin Densetsu - Quest of Jongmaster (Track 31).bin" size="3403344" crc="4e5c9e1d" md5="18a81af8347f19232b3c86ddb939a7b4" sha1="1695780e5271ae7197a391ea10491d868f5b1234" />
<rom name="Janshin Densetsu - Quest of Jongmaster (Track 32).bin" size="11035584" crc="3c7677de" md5="6ba2d553e9545de45d2773fce5dc89e3" sha1="ea63dd9161df16c469078f88c6f55334de80f1d1" />
<rom name="Janshin Densetsu - Quest of Jongmaster (Track 33).bin" size="5842368" crc="ec8a40df" md5="65fe16af1e0727c754d5cd030272952f" sha1="91a60e2194bd3728e201985ac04d7ab3e5984b0a" />
<rom name="Janshin Densetsu - Quest of Jongmaster (Track 34).bin" size="3175200" crc="4dcb7815" md5="aa98752aebcd6b65e4dfe8b3baebdbe2" sha1="60b1226754c137f06d14b19789aa06afa40aaeb9" />
<rom name="Janshin Densetsu - Quest of Jongmaster (Track 35).bin" size="23461200" crc="7a329635" md5="e80d5c767f264713fc1d317f3b51baf6" sha1="f9f7441d5fb5d2dca996cd450602e07735b30631" />
<rom name="Janshin Densetsu - Quest of Jongmaster (Track 36).bin" size="3433920" crc="cd30ae98" md5="a0ae553b7bb340539c32699c4af7fd63" sha1="ae5ec8c3af18587ce2382cbafc15b618974732ed" />

    Cuesheet:

FILE "Janshin Densetsu - Quest of Jongmaster (Track 01).bin" BINARY
  TRACK 01 MODE1/2352
    INDEX 01 00:00:00
FILE "Janshin Densetsu - Quest of Jongmaster (Track 02).bin" BINARY
  TRACK 02 AUDIO
    INDEX 00 00:00:00
    INDEX 01 00:03:00
FILE "Janshin Densetsu - Quest of Jongmaster (Track 03).bin" BINARY
  TRACK 03 AUDIO
    INDEX 00 00:00:00
    INDEX 01 00:02:00
FILE "Janshin Densetsu - Quest of Jongmaster (Track 04).bin" BINARY
  TRACK 04 AUDIO
    INDEX 00 00:00:00
    INDEX 01 00:02:00
FILE "Janshin Densetsu - Quest of Jongmaster (Track 05).bin" BINARY
  TRACK 05 AUDIO
    INDEX 00 00:00:00
    INDEX 01 00:02:00
FILE "Janshin Densetsu - Quest of Jongmaster (Track 06).bin" BINARY
  TRACK 06 AUDIO
    INDEX 00 00:00:00
    INDEX 01 00:02:00
FILE "Janshin Densetsu - Quest of Jongmaster (Track 07).bin" BINARY
  TRACK 07 AUDIO
    INDEX 00 00:00:00
    INDEX 01 00:02:00
FILE "Janshin Densetsu - Quest of Jongmaster (Track 08).bin" BINARY
  TRACK 08 AUDIO
    INDEX 00 00:00:00
    INDEX 01 00:02:00
FILE "Janshin Densetsu - Quest of Jongmaster (Track 09).bin" BINARY
  TRACK 09 AUDIO
    INDEX 00 00:00:00
    INDEX 01 00:02:00
FILE "Janshin Densetsu - Quest of Jongmaster (Track 10).bin" BINARY
  TRACK 10 AUDIO
    INDEX 00 00:00:00
    INDEX 01 00:02:00
FILE "Janshin Densetsu - Quest of Jongmaster (Track 11).bin" BINARY
  TRACK 11 AUDIO
    INDEX 00 00:00:00
    INDEX 01 00:02:00
FILE "Janshin Densetsu - Quest of Jongmaster (Track 12).bin" BINARY
  TRACK 12 AUDIO
    INDEX 00 00:00:00
    INDEX 01 00:02:00
FILE "Janshin Densetsu - Quest of Jongmaster (Track 13).bin" BINARY
  TRACK 13 AUDIO
    INDEX 00 00:00:00
    INDEX 01 00:02:00
FILE "Janshin Densetsu - Quest of Jongmaster (Track 14).bin" BINARY
  TRACK 14 AUDIO
    INDEX 00 00:00:00
    INDEX 01 00:02:00
FILE "Janshin Densetsu - Quest of Jongmaster (Track 15).bin" BINARY
  TRACK 15 AUDIO
    INDEX 00 00:00:00
    INDEX 01 00:02:00
FILE "Janshin Densetsu - Quest of Jongmaster (Track 16).bin" BINARY
  TRACK 16 AUDIO
    INDEX 00 00:00:00
    INDEX 01 00:02:00
FILE "Janshin Densetsu - Quest of Jongmaster (Track 17).bin" BINARY
  TRACK 17 AUDIO
    INDEX 00 00:00:00
    INDEX 01 00:02:00
FILE "Janshin Densetsu - Quest of Jongmaster (Track 18).bin" BINARY
  TRACK 18 AUDIO
    INDEX 00 00:00:00
    INDEX 01 00:02:00
FILE "Janshin Densetsu - Quest of Jongmaster (Track 19).bin" BINARY
  TRACK 19 AUDIO
    INDEX 00 00:00:00
    INDEX 01 00:02:00
FILE "Janshin Densetsu - Quest of Jongmaster (Track 20).bin" BINARY
  TRACK 20 AUDIO
    INDEX 00 00:00:00
    INDEX 01 00:02:00
FILE "Janshin Densetsu - Quest of Jongmaster (Track 21).bin" BINARY
  TRACK 21 AUDIO
    INDEX 00 00:00:00
    INDEX 01 00:02:00
FILE "Janshin Densetsu - Quest of Jongmaster (Track 22).bin" BINARY
  TRACK 22 AUDIO
    INDEX 00 00:00:00
    INDEX 01 00:02:00
FILE "Janshin Densetsu - Quest of Jongmaster (Track 23).bin" BINARY
  TRACK 23 AUDIO
    INDEX 00 00:00:00
    INDEX 01 00:02:00
FILE "Janshin Densetsu - Quest of Jongmaster (Track 24).bin" BINARY
  TRACK 24 AUDIO
    INDEX 00 00:00:00
    INDEX 01 00:02:00
FILE "Janshin Densetsu - Quest of Jongmaster (Track 25).bin" BINARY
  TRACK 25 AUDIO
    INDEX 00 00:00:00
    INDEX 01 00:02:00
FILE "Janshin Densetsu - Quest of Jongmaster (Track 26).bin" BINARY
  TRACK 26 AUDIO
    INDEX 00 00:00:00
    INDEX 01 00:02:00
FILE "Janshin Densetsu - Quest of Jongmaster (Track 27).bin" BINARY
  TRACK 27 AUDIO
    INDEX 00 00:00:00
    INDEX 01 00:02:00
FILE "Janshin Densetsu - Quest of Jongmaster (Track 28).bin" BINARY
  TRACK 28 AUDIO
    INDEX 00 00:00:00
    INDEX 01 00:02:00
FILE "Janshin Densetsu - Quest of Jongmaster (Track 29).bin" BINARY
  TRACK 29 AUDIO
    INDEX 00 00:00:00
    INDEX 01 00:02:00
FILE "Janshin Densetsu - Quest of Jongmaster (Track 30).bin" BINARY
  TRACK 30 AUDIO
    INDEX 00 00:00:00
    INDEX 01 00:02:00
FILE "Janshin Densetsu - Quest of Jongmaster (Track 31).bin" BINARY
  TRACK 31 AUDIO
    INDEX 00 00:00:00
    INDEX 01 00:02:00
FILE "Janshin Densetsu - Quest of Jongmaster (Track 32).bin" BINARY
  TRACK 32 AUDIO
    INDEX 00 00:00:00
    INDEX 01 00:02:00
FILE "Janshin Densetsu - Quest of Jongmaster (Track 33).bin" BINARY
  TRACK 33 AUDIO
    INDEX 00 00:00:00
    INDEX 01 00:02:00
FILE "Janshin Densetsu - Quest of Jongmaster (Track 34).bin" BINARY
  TRACK 34 AUDIO
    INDEX 00 00:00:00
    INDEX 01 00:02:00
FILE "Janshin Densetsu - Quest of Jongmaster (Track 35).bin" BINARY
  TRACK 35 AUDIO
    INDEX 00 00:00:00
    INDEX 01 00:02:00
FILE "Janshin Densetsu - Quest of Jongmaster (Track 36).bin" BINARY
  TRACK 36 AUDIO
    INDEX 00 00:00:00
    INDEX 01 00:02:00

    Write Offset: 2

When added, please add it as verified. Checksums match my dump.

Some comments in addition to what wiggy has posted above:

There's no actual Japanese title on cover and disc, the name is displayed only in English.
The only words displayed in Japanese on cover/disc are Taikenban (trial version) and Hikanhin (not for sale). Please refer to photos.

Language has been tested. Game plays fully in English and has English menu but winning quote after the fight is displayed in Japanese. So you could say it's 95% English.

My IFPI is L155, vs Wiggy's L166. Might be two different versions or a mis-read (this looks more likely to me), but I did my best to read it properly under good light.

Photos can be found here: https://mega.nz/#!DspkgCyB!SP0VAL145IXX … 4wh21kDwIQ
Logs can be found here: https://mega.nz/#!z04GiaSa!BOmik_lT_tJn … Q-l2mTru0A

15

(3 replies, posted in General discussion)

It's not the same disc and IMHO it would be wrong to just hack it to compliance, however convenient that may seem in reducing data volume and amount of dumps in DB. Applying additional offset correction apart from what the dumping method already does is totally equivalent to hacking stuff to compliance.

Again IMHO, it's significant to indicate different print runs/different ringcodes, at least when they result in different dumps when using the same standard dumping method.

Also had a similar case with one of my dumps recently that was accepted as separate discs, which of course they are.

http://redump.org/disc/39867/
http://redump.org/disc/65686/

Same with the Vampire example, discs are different and it was correct that all of them were included.

16

(1 replies, posted in General discussion)

A Murder of Crows wrote:

the biggest things i'm seeing are Categories (clrmame doesn't have/use them) and the fact that my dat says "Machine Name" instead of "Game name"

thanks!

The Machine vs Game issue is easily fixable.
Open cmpro.ini, in Notepad, find the line

Adv_SetElementXML = machine

and change machine to game so it looks like this:

Adv_SetElementXML = game

For the categories question, I am not sure what you mean.
Headers for Redump dats look like this:

     <header>
        <name>Sega - Dreamcast</name>
        <description>Sega - Dreamcast - Discs (1277) (2019-11-14 22-30-10)</description>
        <version>2019-11-14 22-30-10</version>
        <date>2019-11-14 22-30-10</date>
        <author>redump.org</author>
        <homepage>redump.org</homepage>
        <url>http://redump.org/</url>
    </header>

What are the categories you are referring to?

I can give my 2 cents on the GDX-0015 vs GDX-0016 issue.
GDX-0015 and GDX-0015A has the title written in Japanese script on the disc itself: 湾岸ミッドナイト マキシマムチューン2
GDX-0016 and GDX-0016A has the title written in English on the disc itself: Wangan Midnight Maximum Tune 2
I have photos of all these discs found on the net, if you need to see for yourself, but this is the only visible difference as far as I can tell.

As Chihiro is unemulated, we can't be certain how these discs behave when run on machines with different region BIOS, but previous experience with other similar cases (eg Initial D for NAOMI) shows that presumably the Japanese disc only works on Japanese machines while the "Export" disc works in all other regions. For the NAOMI case, the Initial D "Export" works with both US and Export BIOS machines.
It is quite likely this is the case here as well, but unless somebody owns multiple Chihiro boards to test the real disc or the board becomes emulated so we can run the dump, we can never be totally sure.

I know nothing about Chihiro regions, but here's what I see in MAME source code:

ic10_g24lc64.bin: This dump contains the firmware of the Base Board, serial number and REGION of the whole system
Region is located at Offset 0x00001F10 , 01 means JPN, 02 Means USA, 03 Means EXPORT, if you
want to change the region of your Chihiro Board, just change this byte.

It would be reasonable to assume the GDX-0016 works in US and Export regions and the GDX-0015 works in Japan region.

18

(0 replies, posted in Verifications)

Matches http://redump.org/disc/17752/

Apart from adding PVD, all other information is already known.

!submissioninfo.txt

Common Disc Info:
    Title: Machi Sample
    Foreign Title (Non-latin): 街SAMPLE
    Disc Number / Letter: (OPTIONAL)
    Disc Title: (OPTIONAL)
    System: Sega Saturn
    Media Type: CD-ROM
    Category: Demos
    Region: Japan
    Languages: Japanese
    Disc Serial: 610-6777 

    Ringcode Information:
        Mastering Code (laser branded/etched): 610-6777P-01931<TAB>1MB2<TAB>C<TAB>7X<TAB>Y
        Mastering SID Code: IFPI L223
        Data-Side Mould SID Code: IFPI 3980
        Label-Side Mould SID Code: (REQUIRED, IF EXISTS)
        Additional Mould: (REQUIRED, IF EXISTS)
        Toolstamp or Mastering Code (engraved/stamped): (REQUIRED, IF EXISTS)
    Barcode: NOT FOR SALE
    EXE/Build Date: 19971006
    Error Count: 0
    Comments: Part of the "Otanoshimi 3 Shiro! Disc" 3 demos bundle (this one is the third and it's listed as 3シロ! DISC (3 Shiro! DISC) on the inlay-refer to photos
    Contents: (OPTIONAL)

Version and Editions:
    Version: V1.001
    Edition/Release: Sample (Otanoshimi 3 Shiro! Disc お楽しみ 3シロ! DISC)

Extras:
    Primary Volume Descriptor (PVD):

0320 : 20 20 20 20 20 20 20 20  20 20 20 20 20 31 39 39                199
0330 : 37 31 30 30 38 30 30 30  30 30 30 30 30 24 31 39   7100800000000$19
0340 : 39 37 31 30 30 38 31 37  30 36 32 39 30 30 14 30   97100817062900.0
0350 : 30 30 30 30 30 30 30 30  30 30 30 30 30 30 30 00   000000000000000.
0360 : 30 30 30 30 30 30 30 30  30 30 30 30 30 30 30 30   0000000000000000
0370 : 00 01 00 00 00 00 00 00  00 00 00 00 00 00 00 00   ................

    Header:

0000 : 53 45 47 41 20 53 45 47  41 53 41 54 55 52 4E 20   SEGA SEGASATURN 
0010 : 53 45 47 41 20 54 50 20  54 2D 33 34 30 20 20 20   SEGA TP T-340   
0020 : 36 31 30 36 37 37 37 20  20 20 56 31 2E 30 30 31   6106777   V1.001
0030 : 31 39 39 37 31 30 30 36  43 44 2D 31 2F 31 20 20   19971006CD-1/1  
0040 : 4A 20 20 20 20 20 20 20  20 20 20 20 20 20 20 20   J               
0050 : 4A 20 20 20 20 20 20 20  20 20 20 20 20 20 20 20   J               
0060 : 4D 41 43 48 49 20 20 20  20 20 20 20 20 20 20 20   MACHI           
0070 : 20 20 20 20 20 20 20 20  20 20 20 20 20 20 20 20                   
0080 : 20 20 20 20 20 20 20 20  20 20 20 20 20 20 20 20                   
0090 : 20 20 20 20 20 20 20 20  20 20 20 20 20 20 20 20                   
00A0 : 20 20 20 20 20 20 20 20  20 20 20 20 20 20 20 20                   
00B0 : 20 20 20 20 20 20 20 20  20 20 20 20 20 20 20 20                   
00C0 : 20 20 20 20 20 20 20 20  20 20 20 20 20 20 20 20                   
00D0 : 00 00 00 00 00 00 00 00  00 00 00 00 00 00 00 00   ................
00E0 : 00 00 18 00 00 00 00 00  00 00 00 00 00 00 00 00   ................
00F0 : 06 00 40 00 00 00 00 00  00 00 00 00 00 00 00 00   ..@.............

Tracks and Write Offsets:
    DAT:

<rom name="Machi Sample (Track 1).bin" size="367182480" crc="442e93ba" md5="25a6d3f8a196d6e5ed3f7d933e46c1a5" sha1="72ac89ea3704a8b9ce7ec34fff7eb343d826b443" />
<rom name="Machi Sample (Track 2).bin" size="3880800" crc="f335bd36" md5="b32d1caeebe83dd63ae9f586947adc84" sha1="85527e6c041beb4a7e29c346d5079ec2e6325edc" />

    Cuesheet:

CATALOG 0000000000000
FILE "Machi Sample (Track 1).bin" BINARY
  TRACK 01 MODE1/2352
    INDEX 01 00:00:00
FILE "Machi Sample (Track 2).bin" BINARY
  TRACK 02 AUDIO
    INDEX 00 00:00:00
    INDEX 01 00:02:00

    Write Offset: 0

Photos can be found here: https://mega.nz/#!WwwARS4a!MKD6JdXYqtq4 … QHwPCp-nzA
Logs can be found here: https://mega.nz/#!K45FnYBD!zrmRoNBIoEfQ … WIPL-__szw

Matches http://redump.org/disc/33434/

PVD submitted. Minor fix needed for IFPI4011. See also comment for "28" Toolstamp.

!submissioninfo.txt

Common Disc Info:
    Title: Shining Force III - Scenario 1 - Outo no Kyoshin Taikenban
    Foreign Title (Non-latin): シャイニングフォースIII シナリオ1~王都の巨神~ 体験版
    Disc Number / Letter: (OPTIONAL)
    Disc Title: (OPTIONAL)
    System: Sega Saturn
    Media Type: CD-ROM
    Category: Demos
    Region: Japan
    Languages: Japanese
    Disc Serial: 610-6816 

    Ringcode Information:
        Mastering Code (laser branded/etched): 610-6816P-02003-P1C    V
        Mastering SID Code: IFPI L231
        Data-Side Mould SID Code: IFPI4011
        Label-Side Mould SID Code: (REQUIRED, IF EXISTS)
        Additional Mould: (REQUIRED, IF EXISTS)
        Toolstamp or Mastering Code (engraved/stamped): 2 plus an extra character that looks like a § with bottom "tail" removed. I suppose it's what was translated as "28" on the existing dumps.
    Barcode: NOT FOR SALE
    EXE/Build Date: 19971024
    Error Count: 0
    Comments: Part of the "Otanoshimi 3 Shiro! Disc" 3 demos bundle (this one is the second and it's listed as 2シロ! DISC (2 Shiro! DISC) on the inlay-refer to photos
    Contents: (OPTIONAL)

Version and Editions:
    Version: V1.000
    Edition/Release: Taikenban (Otanoshimi 3 Shiro! Disc お楽しみ 3シロ! DISC)

Extras:
    Primary Volume Descriptor (PVD):

0320 : 20 20 20 20 20 20 20 20  20 20 20 20 20 31 39 39                199
0330 : 37 31 30 32 36 30 30 35  38 31 38 30 30 14 31 39   7102600581800.19
0340 : 39 37 31 30 32 36 30 30  35 38 31 38 30 30 14 30   97102600581800.0
0350 : 30 30 30 30 30 30 30 30  30 30 30 30 30 30 30 00   000000000000000.
0360 : 30 30 30 30 30 30 30 30  30 30 30 30 30 30 30 30   0000000000000000
0370 : 00 01 00 00 00 00 00 00  00 00 00 00 00 00 00 00   ................

    Header:

0000 : 53 45 47 41 20 53 45 47  41 53 41 54 55 52 4E 20   SEGA SEGASATURN 
0010 : 53 45 47 41 20 45 4E 54  45 52 50 52 49 53 45 53   SEGA ENTERPRISES
0020 : 36 31 30 36 38 31 36 20  20 20 56 31 2E 30 30 30   6106816   V1.000
0030 : 31 39 39 37 31 30 32 34  43 44 2D 31 2F 31 20 20   19971024CD-1/1  
0040 : 4A 54 20 20 20 20 20 20  20 20 20 20 20 20 20 20   JT              
0050 : 4A 45 41 20 20 20 20 20  20 20 20 20 20 20 20 20   JEA             
0060 : 53 48 49 4E 49 4E 47 20  46 4F 52 43 45 20 33 20   SHINING FORCE 3 
0070 : 53 43 45 4E 41 52 49 4F  20 31 20 20 20 20 20 20   SCENARIO 1      
0080 : 4F 48 54 4F 20 4E 4F 20  4B 59 4F 53 48 49 4E 20   OHTO NO KYOSHIN 
0090 : 54 41 49 4B 45 4E 42 41  4E 20 20 20 20 20 20 20   TAIKENBAN       
00A0 : 20 20 20 20 20 20 20 20  20 20 20 20 20 20 20 20                   
00B0 : 20 20 20 20 20 20 20 20  20 20 20 20 20 20 20 20                   
00C0 : 20 20 20 20 20 20 20 20  20 20 20 20 20 20 20 20                   
00D0 : 00 00 00 00 00 00 00 00  00 00 00 00 00 00 00 00   ................
00E0 : 00 00 10 00 00 00 00 00  06 00 20 00 06 00 10 00   .......... .....
00F0 : 06 00 40 00 00 00 00 00  00 00 00 00 00 00 00 00   ..@.............

Tracks and Write Offsets:
    DAT:

<rom name="Shining Force Taikenban (Track 1).bin" size="61683552" crc="85e32509" md5="f612baa034019bac3cccfb14d0c83e9a" sha1="a407d296d4cbcaa193c639f8fafff1adfed1eb23" />
<rom name="Shining Force Taikenban (Track 2).bin" size="1818096" crc="8c119b40" md5="d4048c1e705f5c576dbd3dcdda9b9c19" sha1="021edf3c2293243d6b6f52028fed44f569946249" />

    Cuesheet:

CATALOG 0000000000000
FILE "Shining Force Taikenban (Track 1).bin" BINARY
  TRACK 01 MODE1/2352
    INDEX 01 00:00:00
FILE "Shining Force Taikenban (Track 2).bin" BINARY
  TRACK 02 AUDIO
    INDEX 00 00:00:00
    INDEX 01 00:02:00

    Write Offset: 1842

Photos can be found here: https://mega.nz/#!WwwARS4a!MKD6JdXYqtq4 … QHwPCp-nzA
Logs can be found here: https://mega.nz/#!e5pRwYJY!jdSaXZM-iZY- … Ed3youhG-Q

20

(0 replies, posted in Verifications)

Matches http://redump.org/disc/33433/

There are a couple of corrections needed in this entry. Language is English, both in menus and in game. Also IFPI4011 is without a space.
There's also a new toolstamp, extra photos have been sent to F1ReB4LL about this as it looks quite weird and he's the expert on the subject. smile

!submissioninfo.txt

Common Disc Info:
    Title: Sonic R Taikenban
    Foreign Title (Non-latin): ソニックR 体験版
    Disc Number / Letter: (OPTIONAL)
    Disc Title: (OPTIONAL)
    System: Sega Saturn
    Media Type: CD-ROM
    Category: Demos
    Region: Japan
    Languages: English
    Disc Serial: 610-6815 

    Ringcode Information:
        Mastering Code (laser branded/etched): 610-6815P-02002-P2K    V
        Mastering SID Code: IFPI L237
        Data-Side Mould SID Code: IFPI4011
        Label-Side Mould SID Code: (REQUIRED, IF EXISTS)
        Additional Mould: (REQUIRED, IF EXISTS)
        Toolstamp or Mastering Code (engraved/stamped): 12 or K2 plus an extra character that looks like a § with bottom "tail" removed. Very hard to read properly.
    Barcode: NOT FOR SALE
    EXE/Build Date: 19971029
    Error Count: 0
    Comments: Part of the "Otanoshimi 3 Shiro! Disc" 3 demos bundle (this one is the first and it's listed as 1シロ! DISC (1 Shiro! DISC) on the inlay-refer to photos
    Contents: (OPTIONAL)

Version and Editions:
    Version: V1.001
    Edition/Release: Taikenban (Otanoshimi 3 Shiro! Disc お楽しみ 3シロ! DISC)

Extras:
    Primary Volume Descriptor (PVD):

0320 : 20 20 20 20 20 20 20 20  20 20 20 20 20 31 39 39                199
0330 : 37 31 32 30 34 30 30 30  30 30 30 30 30 24 31 39   7120400000000$19
0340 : 39 37 31 32 30 34 30 30  30 30 30 30 30 30 24 30   97120400000000$0
0350 : 30 30 30 30 30 30 30 30  30 30 30 30 30 30 30 00   000000000000000.
0360 : 30 30 30 30 30 30 30 30  30 30 30 30 30 30 30 30   0000000000000000
0370 : 00 01 00 00 00 00 00 00  00 00 00 00 00 00 00 00   ................

    Header:

0000 : 53 45 47 41 20 53 45 47  41 53 41 54 55 52 4E 20   SEGA SEGASATURN 
0010 : 53 45 47 41 20 45 4E 54  45 52 50 52 49 53 45 53   SEGA ENTERPRISES
0020 : 36 31 30 36 38 31 35 20  20 20 56 31 2E 30 30 31   6106815   V1.001
0030 : 31 39 39 37 31 30 32 39  43 44 2D 31 2F 31 20 20   19971029CD-1/1  
0040 : 4A 54 20 20 20 20 20 20  20 20 20 20 20 20 20 20   JT              
0050 : 4A 45 20 20 20 20 20 20  20 20 20 20 20 20 20 20   JE              
0060 : 53 4F 4E 49 43 20 52 20  44 45 4D 4F 20 20 20 20   SONIC R DEMO    
0070 : 20 20 20 20 20 20 20 20  20 20 20 20 20 20 20 20                   
0080 : 20 20 20 20 20 20 20 20  20 20 20 20 20 20 20 20                   
0090 : 20 20 20 20 20 20 20 20  20 20 20 20 20 20 20 20                   
00A0 : 20 20 20 20 20 20 20 20  20 20 20 20 20 20 20 20                   
00B0 : 20 20 20 20 20 20 20 20  20 20 20 20 20 20 20 20                   
00C0 : 20 20 20 20 20 20 20 20  20 20 20 20 20 20 20 20                   
00D0 : 00 00 00 00 00 00 00 00  00 00 00 00 00 00 00 00   ................
00E0 : 00 00 18 00 00 00 00 00  00 00 00 00 00 00 00 00   ................
00F0 : 06 00 40 00 00 00 00 00  00 00 00 00 00 00 00 00   ..@.............

Tracks and Write Offsets:
    DAT:

<rom name="Sonic R Taikenban (Track 1).bin" size="5376672" crc="2c67828f" md5="04715c85d78368eb9ec788c5099fc14c" sha1="c94b41706419f19d29437bc4b0800d067403b664" />
<rom name="Sonic R Taikenban (Track 2).bin" size="7977984" crc="7ad1a00f" md5="129f48fd07d13b1df397b29709b8523f" sha1="b7868540e5b73e5c25f1a0fdf74ed25805466928" />
<rom name="Sonic R Taikenban (Track 3).bin" size="1587600" crc="462deb43" md5="98b69e012ab8a25317b9a56d5e62b607" sha1="ba72604de287d3c4056d1a50e9aec990270abd36" />
<rom name="Sonic R Taikenban (Track 4).bin" size="2147376" crc="2fa9f684" md5="65fa25e57e2d097a7ee50a0487f7b744" sha1="142b83c56aa113e4ff9e6709c7cdb97c5169140e" />
<rom name="Sonic R Taikenban (Track 5).bin" size="10066560" crc="0ef41a2d" md5="5a7ae44938b2c3cbe6ed6ac4ac7527e8" sha1="4cf7eb722678469285437a660d4d1ccbdc9994f4" />
<rom name="Sonic R Taikenban (Track 6).bin" size="54208896" crc="beb18400" md5="94198669e9cd944239fbd7e2ebfad1a7" sha1="091aa4fa1f2ebe9403b58c5eee4720a485b66f14" />
<rom name="Sonic R Taikenban (Track 7).bin" size="1058400" crc="1284111f" md5="c5ae07cac78f2cc5bdbf981eb096ef8c" sha1="e157a2b460a14dea173680dbd48c273022087a85" />
<rom name="Sonic R Taikenban (Track 8).bin" size="1491168" crc="efb6d712" md5="372bbddaa6f6e1e961c86f66f562cc3a" sha1="ac6c1f9e0ae774790f099c0486fe16226616b9d9" />
<rom name="Sonic R Taikenban (Track 9).bin" size="1241856" crc="8e8b5a80" md5="447aa0218af31dfc63f9ab6a0bdd008f" sha1="8c1bbba2edfbaff8ec7878ffb92379984150caaf" />

    Cuesheet:

CATALOG 0000000000000
FILE "Sonic R Taikenban (Track 1).bin" BINARY
  TRACK 01 MODE1/2352
    INDEX 01 00:00:00
FILE "Sonic R Taikenban (Track 2).bin" BINARY
  TRACK 02 AUDIO
    INDEX 00 00:00:00
    INDEX 01 00:02:00
FILE "Sonic R Taikenban (Track 3).bin" BINARY
  TRACK 03 AUDIO
    INDEX 00 00:00:00
    INDEX 01 00:01:74
FILE "Sonic R Taikenban (Track 4).bin" BINARY
  TRACK 04 AUDIO
    INDEX 00 00:00:00
    INDEX 01 00:01:74
FILE "Sonic R Taikenban (Track 5).bin" BINARY
  TRACK 05 AUDIO
    INDEX 00 00:00:00
    INDEX 01 00:01:74
FILE "Sonic R Taikenban (Track 6).bin" BINARY
  TRACK 06 AUDIO
    INDEX 00 00:00:00
    INDEX 01 00:01:74
FILE "Sonic R Taikenban (Track 7).bin" BINARY
  TRACK 07 AUDIO
    INDEX 00 00:00:00
    INDEX 01 00:01:74
FILE "Sonic R Taikenban (Track 8).bin" BINARY
  TRACK 08 AUDIO
    INDEX 00 00:00:00
    INDEX 01 00:01:74
FILE "Sonic R Taikenban (Track 9).bin" BINARY
  TRACK 09 AUDIO
    INDEX 00 00:00:00
    INDEX 01 00:01:74

    Write Offset: 684

Photos of the entire Otanoshimi 3 Shiro! DISC set can be found here: https://mega.nz/#!WwwARS4a!MKD6JdXYqtq4 … QHwPCp-nzA
Logs can be found here: https://mega.nz/#!2o5CjQgD!vzCNWF0xPq_R … EnPr58jddY

21

(2,467 replies, posted in General discussion)

I am sure a good explanation exists, but thought to ask about it.
I just dumped a PS2 CD ROM: http://forum.redump.org/topic/25130/ps2 … to-no-ken/
At first pass, the dump came back with some C2 errors. However, final checksums of the dump with the errors were the same as the existing verified dump. I gave this disc a thorough wash with soap and it fixed the errors, resulting in same checksums again but this time with 0 C2 errors as expected.

I was wondering how a disc with C2 errors can still come back with the correct checksums? Theory says that C2 is uncorrectable error which *should* break the dump and cause wrong checksums, but probably I understand something wrongly here and would love to hear explanation from the experts. smile

Logs of the dump with C2 errors: https://mega.nz/#!30hAyAyB!eRiljbOBIBnf … pwpe5hgZ1Q
Logs of dump of same disc without C2 errors: https://mega.nz/#!v95wWYhJ!Pp7cAIze9SnG … hERx9f-gF4

I have to agree with F1ReB4LL on this.
When you are dumping/doing preservation work, you should not be hacking things to compliance or to "intended" values, even if that feels convenient and/or reduces number of dumps. You are supposed to be documenting the disc itself (not just the data that is on a disc). Nothing more, no less. If the disc is crap, you have to document a crap disc, not make it look nice and proper.

In my opinion, any other approaches would be exactly the same big NO-NO like an archaeologist discarding a fragment of bone or pottery because he has already thousands of very very similar fragments. Or to correct a grammatical error in an ancient script because what was actually written and what was intended to be written were not the same.

I agree that this approach may feel counter intuitive to the layman and that it is even pointless from a gamer's or rom collector's point of view. However, preservation is just coincidentally useful to these categories and should not be going out of its' way to cater for such needs. Documenting discs is the point here. At least that's how I understand the project.

23

(2,467 replies, posted in General discussion)

sarami wrote:

http://www.mediafire.com/file/q5b8c94jv … st.7z/file
- fixed: TimeOutValue was not set

Good news on my side. smile
With this release, there's no longer any error message in the console window (I am tempted to say DOS to make F1ReB4LL correct me again, xD) and the output seems to contain title keys normally.
Attaching 3 consecutive runs for each of the 2 discs, results are identical in all 3 runs.

24

(2,467 replies, posted in General discussion)

sarami wrote:

Uploaded test version. http://www.mediafire.com/file/q5b8c94jv … st.7z/file

F1ReB4LL wrote:

GetLastError: 2147681032 Copy Protection Error - DVD session key not established

- fixed: establishment of session is needed per title key for some drive

sarami wrote:

It seems [001] to [081] are all same every time, but the remains are all different every time.

- fixed: mpc-hc original code

Tried using this new test version.
I have an LG USB DVD (GP65NB60 model)
When I run it I get this message:

D:\Downloads\CSS\Release>css s out.txt
[F:ExecReadDisc][L:150] GetLastError: 87, The parameter is incorrect.

lpCmd: a8, 00, 00, 00, 00, 10, 00, 00, 00, 01, 00, 00
dwBufSize: 2048

This message was the same in 20190531.

It produces output with matching keys after 81, unlike the 20090531 version I tried earlier.
But, output files end without the expected list of files (none of the LBA, file, key is output) :

[406]: 7B 8A DB 7A 9E [407]: 89 9C 3B E4 ED [408]: C7 D3 CA 2E B6 [409]: 7E 9E 1C 8B EF
PlayerKey[1]: 01 AF E3 12 80
DecryptedDiscKey[020]: 2E 90 FE F6 E8
END OF FILE

This behavior is the same in this version and 20090531.
Attaching results of 3 consecutive css.exe runs for the 2 discs I have here, DICUI output logs for the same discs can be found on the relevant dumps thread.

My drive is region 2. Historical Disc is also region 2. Dramatic DVD is region free (1-8).

25

(1 replies, posted in Guests & account requests)

Full marks for honesty, but there are exactly ZERO game downloads in this website. Just FYI.