...after a lot of new PC dumps and sub checks it's clear the last version of PR has a bug on gaps detection: it finds a lot of INDEX>1 on single data tracks CDs and sometimes also on audio tracks, the weird issue is that those INDEX are also double or out of order. An example on last dump:

FILE "01.- Treasure Island (J).track.img" BINARY
  TRACK 01 MODE1/2352
    INDEX 11 11:07:42
    INDEX 01 00:00:00
    INDEX 11 12:57:22
    INDEX 01 12:57:23
FILE "02.- Treasure Island (J).track.pcm" BINARY
  TRACK 02 AUDIO
    INDEX 00 00:00:00
    INDEX 01 00:02:00
FILE "03.- Treasure Island (J).track.pcm" BINARY
  TRACK 03 AUDIO
    INDEX 00 00:00:00
    INDEX 01 00:02:00
    INDEX 21 00:21:62
    INDEX 01 00:21:63
FILE "04.- Treasure Island (J).track.pcm" BINARY
  TRACK 04 AUDIO
    INDEX 00 00:00:00
    INDEX 01 00:02:00
FILE "05.- Treasure Island (J).track.pcm" BINARY
  TRACK 05 AUDIO
    INDEX 00 00:00:00
    INDEX 01 00:02:00
FILE "06.- Treasure Island (J).track.pcm" BINARY
  TRACK 06 AUDIO
    INDEX 00 00:00:00
    INDEX 01 00:02:00
My patch requests thread
--------------------------------

Yes, it was said multiple times NOT to use this version, those bugs are known.

On May they were unknown and I got no warning but posting some subs... maybe I missed some discussions

My patch requests thread
--------------------------------

I make this thread sticky so everyone can check if these errors happen.

b32R gives same errors in gap

My patch requests thread
--------------------------------

What subchannel reading mode do you use, 001b or 100b? With 001b it may happen that your drive occassionally drops in some erroneous subchanel bits (which is used to determine index changes) and maybe PerfectRip isn't able to detect and compensate them properly.

http://forum.redump.org/topic/4495/sega … ing-guide/

We always use 100b

My patch requests thread
--------------------------------

7 (edited by Nexy 2009-10-24 12:24:31)

Where do I get a non bugging version then? The one on cdfreaks is still b34. I can't post on that forum because it bugs in firefox for me, and the support email is invalid too.

Plextor PX-760A 1.07 (+30) : Plextor PX-W5224A 1.04 (+30) : Plextor PX-W1210TA 1.10 (+99) : Plextor PX-W1610TA (+99) : Lite-On LTR-48246S (+6) : Lite-On LH-20A1H LL0DN (+6) : BenQ DW1655 BCIB (+618) :  ASUS DRW-2014L1 1.02 (+6) : Yamaha CRW-F1 (+733)

"because it bugs in firefox for me"
Just try it on a clean profile (run firefox.exe -p)
I use it here without a problem whatsoever (with ABP and scripts enabled in NoScript)