http://redump.org/disc/58546/
log: http://interbutt.com/misc/FS_DISK_1_logs.zip

Common Disc Info:
    Title: Microsoft Flight Simulator 2002
    Disc Number / Letter: 1
    Disc Title: 
    System: IBM PC compatible
    Media Type: CD-ROM
    Category: Games
    Matching IDs: 58546
    Region: USA, Europe
    Languages: English
    Disc Serial: 0701 Part No. X08-34715

    Ringcode Information:
        Data Side Mastering Code (laser branded/etched): 7922 X0855843 D11001-13    SAF
        Data Side Mastering SID Code: L388
        Data Side Toolstamp or Mastering Code (engraved/stamped): 
        Data Side Mould SID Code: IFPI6100
        Data Side Additional Mould: 
        Label Side Mould SID Code: 
        Label Side Additional Mould: M1S3
    Barcode: 
    Error Count: 62
    Comments:

[T:VOL] FS_DISK_1
Serials on paper sleeve: 0701 Part No. X08-34711, CD SET:X08-55845

    Contents: 

Version and Editions:
    Version: 
    Edition/Release: Original

Extras:
    Primary Volume Descriptor (PVD):

0320 : 20 20 20 20 20 20 20 20  20 20 20 20 20 32 30 30                200
0330 : 31 30 39 31 39 32 31 32  33 30 38 30 30 00 32 30   1091921230800.20
0340 : 30 31 30 39 31 39 32 31  32 33 30 38 30 30 00 30   01091921230800.0
0350 : 30 30 30 30 30 30 30 30  30 30 30 30 30 30 30 00   000000000000000.
0360 : 30 30 30 30 30 30 30 30  30 30 30 30 30 30 30 30   0000000000000000
0370 : 00 01 00 00 00 00 00 00  00 00 00 00 00 00 00 00   ................

Copy Protection:
    Copy Protection: SafeDisc 1/Lite

Tracks and Write Offsets:
    DAT:

<rom name="FS_DISK_1.bin" size="670879776" crc="e585d21c" md5="26eba5f6ccb4ba9d2566279c7059b56f" sha1="eb49ea37d4f9a9112013488825aea8356e096731" />

    Cuesheet:

FILE "FS_DISK_1.bin" BINARY
  TRACK 01 MODE1/2352
    INDEX 01 00:00:00

    Write Offset: -12

http://redump.org/disc/58547/
log: http://interbutt.com/misc/FS_DISK_2_logs.zip

Common Disc Info:
    Title: Microsoft Flight Simulator 2002
    Disc Number / Letter: 2
    Disc Title: 
    System: IBM PC compatible
    Media Type: CD-ROM
    Category: Games
    Matching IDs: 58547
    Region: USA, Europe
    Languages: English
    Disc Serial: 0701 Part No. X08-34720

    Ringcode Information:
        Data Side Mastering Code (laser branded/etched): 7922 X0834719 C10926-02 O
        Data Side Mastering SID Code: L385
        Data Side Toolstamp or Mastering Code (engraved/stamped): 
        Data Side Mould SID Code: IFPI6100
        Data Side Additional Mould: 
        Label Side Mould SID Code: 
        Label Side Additional Mould: M1S4
    Barcode: 
    Error Count: 0
    Comments:

[T:VOL] FS_DISK_2
Regions dumped: USA, Italy, Germany
<b>Game ID (Germany)</b>: 0801 Artikelnr. X08-37512 DE (Disc), 0901 Artikelnr. X08-37546 DE (Disc Sleve), CDSET: X08-36596, J 334192 (ID above Disc Sleeve barcode)

    Contents: 

Version and Editions:
    Version: 
    Edition/Release: Original

Extras:
    Primary Volume Descriptor (PVD):

0320 : 20 20 20 20 20 20 20 20  20 20 20 20 20 32 30 30                200
0330 : 31 30 39 32 31 31 38 33  30 34 38 31 30 E0 32 30   1092118304810.20
0340 : 30 31 30 39 32 31 31 38  33 30 34 38 31 30 E0 32   01092118304810.2
0350 : 31 30 31 30 39 32 31 31  38 33 30 34 38 31 30 E0   101092118304810.
0360 : 32 30 30 31 30 39 32 31  31 38 33 30 34 38 31 30   2001092118304810
0370 : E0 01 00 00 00 00 00 00  00 00 00 00 00 00 00 00   ................

Copy Protection:
    Copy Protection: None found

Tracks and Write Offsets:
    DAT:

<rom name="FS_DISK_2.bin" size="206759616" crc="c9611e70" md5="aeae3dc3d0aea4244c27cf755127fea7" sha1="3340dc08953e5bf28b8426043cdc8bd0d94dd229" />

    Cuesheet:

FILE "FS_DISK_2.bin" BINARY
  TRACK 01 MODE1/2352
    INDEX 01 00:00:00

    Write Offset: -12

http://redump.org/disc/28715/
log: http://interbutt.com/misc/FS_DISK_3_logs.zip

Common Disc Info:
    Title: Microsoft Flight Simulator 2002
    Disc Number / Letter: 3
    Disc Title: 
    System: IBM PC compatible
    Media Type: CD-ROM
    Category: Games
    Matching IDs: 28715
    Region: USA, Europe
    Languages: English
    Disc Serial: 0701 Part No. X08-34725

    Ringcode Information:
        Data Side Mastering Code (laser branded/etched): 7922 X0834724    D10928-10 O
        Data Side Mastering SID Code: L388
        Data Side Toolstamp or Mastering Code (engraved/stamped): 
        Data Side Mould SID Code: IFPI6100
        Data Side Additional Mould: 
        Label Side Mould SID Code: 
        Label Side Additional Mould: M1S1
    Barcode: 
    Error Count: 0
    Comments:

[T:VOL] FS_DISK_3
Regions dumped: USA, Italy, Germany
<b>Game ID (Germany)</b>: 0801 Artikelnr. X08-37521 DE (Disc), 0901 Artikelnr. X08-37546 DE (Disc Sleve), CDSET: X08-36596, J 334192 (ID above Disc Sleeve barcode)

    Contents: 

Version and Editions:
    Version: 
    Edition/Release: Original

Extras:
    Primary Volume Descriptor (PVD):

0320 : 20 20 20 20 20 20 20 20  20 20 20 20 20 32 30 30                200
0330 : 31 30 39 32 31 31 38 31  30 34 36 34 32 E0 32 30   1092118104642.20
0340 : 30 31 30 39 32 31 31 38  31 30 34 36 34 32 E0 32   01092118104642.2
0350 : 31 30 31 30 39 32 31 31  38 31 30 34 36 34 32 E0   101092118104642.
0360 : 32 30 30 31 30 39 32 31  31 38 31 30 34 36 34 32   2001092118104642
0370 : E0 01 00 00 00 00 00 00  00 00 00 00 00 00 00 00   ................

Copy Protection:
    Copy Protection: None found

Tracks and Write Offsets:
    DAT:

<rom name="FS_DISK_3.bin" size="763962528" crc="e4c3722f" md5="8ace29a74e4b53ca7374e1020c5d28cf" sha1="d0d2ca2a2ce9a7a5ac4c17bd885dd95f66c7f896" />

    Cuesheet:

FILE "FS_DISK_3.bin" BINARY
  TRACK 01 MODE1/2352
    INDEX 01 00:00:00

    Write Offset: -12

2

(0 replies, posted in Verifications)

http://redump.org/disc/12582/
log: http://interbutt.com/misc/FREESPACE_1_logs.zip

Common Disc Info:
    Title: Descent: FreeSpace: The Great War
    Foreign Title (Non-latin): 
    Disc Number / Letter: 1
    Disc Title: 
    System: IBM PC Compatible
    Media Type: CD-ROM
    Category: Games
    Matching IDs: 12582
    Region: USA
    Languages: English
    Disc Serial: CD-C95-273-2

    Ringcode Information:
        Data Side Mastering Code (laser branded/etched): FUTURE MEDIA \ CA    FM 18739 (CD-C95-273-2/IN0002)
        Data Side Mastering SID Code: IFPI LG32
        Data Side Toolstamp or Mastering Code (engraved/stamped): C01 M02 S05
        Data Side Mould SID Code: IFPI 3V19
        Data Side Additional Mould: 
        Label Side Mould SID Code: 
        Label Side Additional Mould: 
    Barcode: 0 40421 01034 9
    Error Count: 0
    Comments: 
    Contents: 

Version and Editions:
    Version: 1.06
    Edition/Release: The Great War & Silent Threat bundle

Extras:
    Primary Volume Descriptor (PVD):

0320 : 20 20 20 20 20 20 20 20  20 20 20 20 20 32 30 30                200
0330 : 30 30 32 31 35 31 37 33  30 31 33 30 30 00 32 30   0021517301300.20
0340 : 30 30 30 32 31 35 31 37  33 30 31 33 30 30 00 30   00021517301300.0
0350 : 30 30 30 30 30 30 30 30  30 30 30 30 30 30 30 00   000000000000000.
0360 : 30 30 30 30 30 30 30 30  30 30 30 30 30 30 30 30   0000000000000000
0370 : 00 01 00 00 00 00 00 00  00 00 00 00 00 00 00 00   ................

Copy Protection:
    Copy Protection: Executable-Based Online Registration 2.03.44

Tracks and Write Offsets:
    DAT:

<rom name="FREESPACE_1.bin" size="783420624" crc="75b62744" md5="f7394396b7466462cbfbe128cececdb5" sha1="d4cb50844b456482f1faf02a5bd24aff91c51c95" />

    Cuesheet:

FILE "FREESPACE_1.bin" BINARY
  TRACK 01 MODE2/2352
    INDEX 01 00:00:00

    Write Offset: -22

http://redump.org/disc/12583/
log: http://interbutt.com/misc/FREESPACE_2_logs.zip

Common Disc Info:
    Title: Descent: FreeSpace: The Great War
    Foreign Title (Non-latin): 
    Disc Number / Letter: 2
    Disc Title: 
    System: IBM PC Compatible
    Media Type: CD-ROM
    Category: Games
    Matching IDs: 12583
    Region: USA
    Languages: English
    Disc Serial: CD-C95-273-3

    Ringcode Information:
        Data Side Mastering Code (laser branded/etched): FUTURE MEDIA \ CA    FM 18740 (CD-C95-273-3/IN0002)
        Data Side Mastering SID Code: IFPI LG32
        Data Side Toolstamp or Mastering Code (engraved/stamped): C01 M01 S10
        Data Side Mould SID Code: IFPI 3V12
        Data Side Additional Mould: 
        Label Side Mould SID Code: 
        Label Side Additional Mould: 
    Barcode: 0 40421 01034 9
    Error Count: 0
    Comments: 
    Contents: 

Version and Editions:
    Version: 1.06
    Edition/Release: The Great War & Silent Threat bundle

Extras:
    Primary Volume Descriptor (PVD):

0320 : 20 20 20 20 20 20 20 20  20 20 20 20 20 31 39 39                199
0330 : 38 30 35 31 35 31 32 30  30 30 30 30 30 00 31 39   8051512000000.19
0340 : 39 38 30 35 31 35 31 32  30 30 30 30 30 30 00 32   98051512000000.2
0350 : 30 30 38 30 35 31 32 31  32 30 30 30 30 30 30 00   008051212000000.
0360 : 31 39 39 38 30 35 31 35  31 32 30 30 30 30 30 30   1998051512000000
0370 : 00 01 00 00 00 00 00 00  00 00 00 00 00 00 00 00   ................

Copy Protection:
    Copy Protection: None found

Tracks and Write Offsets:
    DAT:

<rom name="FREESPACE_2.bin" size="621944064" crc="f1c2aa0f" md5="63aa82035a3c198bf5c00287e1e10011" sha1="d1a86d66480ec497fb405062b2d55ca7f1ed6a9b" />

    Cuesheet:

FILE "FREESPACE_2.bin" BINARY
  TRACK 01 MODE1/2352
    INDEX 01 00:00:00

    Write Offset: -22

http://redump.org/disc/12584/
log: http://interbutt.com/misc/FS2_logs.zip

Common Disc Info:
    Title: Descent: FreeSpace: Silent Threat
    Foreign Title (Non-latin): 
    Disc Number / Letter: 
    Disc Title: 
    System: IBM PC Compatible
    Media Type: CD-ROM
    Category: Add-Ons
    Matching IDs: 12584
    Region: USA
    Languages: English
    Disc Serial: CD-C95-891-1

    Ringcode Information:
        Data Side Mastering Code (laser branded/etched): FUTURE MEDIA \ CA    FM 19570 (CD-C95-891-1/IN0002)
        Data Side Mastering SID Code: IFPI LG32
        Data Side Toolstamp or Mastering Code (engraved/stamped): C01 M02 S07
        Data Side Mould SID Code: IFPI 3V20
        Data Side Additional Mould: 
        Label Side Mould SID Code: 
        Label Side Additional Mould: 
    Barcode: 0 40421 01034 9
    Error Count: 0
    Comments: 
    Contents: 

Version and Editions:
    Version: 1.06
    Edition/Release: The Great War & Silent Threat bundle

Extras:
    Primary Volume Descriptor (PVD):

0320 : 20 20 20 20 20 20 20 20  20 20 20 20 20 32 30 30                200
0330 : 30 30 35 31 39 31 30 34  38 35 39 30 30 00 32 30   0051910485900.20
0340 : 30 30 30 35 31 39 31 30  34 38 35 39 30 30 00 30   00051910485900.0
0350 : 30 30 30 30 30 30 30 30  30 30 30 30 30 30 30 00   000000000000000.
0360 : 30 30 30 30 30 30 30 30  30 30 30 30 30 30 30 30   0000000000000000
0370 : 00 01 00 00 00 00 00 00  00 00 00 00 00 00 00 00   ................

Copy Protection:
    Copy Protection: Executable-Based Online Registration 2.03.44, Executable-Based Online Registration 2.02.01C02

Tracks and Write Offsets:
    DAT:

<rom name="FS2.bin" size="292508832" crc="d8fe403f" md5="038fffec63d0484bedc273d2b7f0bf87" sha1="951a59db10bcdb5fd599fcd6c695cce6d3bb0c70" />

    Cuesheet:

FILE "FS2.bin" BINARY
  TRACK 01 MODE2/2352
    INDEX 01 00:00:00

    Write Offset: -22

http://redump.org/disc/87465/
log: http://interbutt.com/misc/010614_1245_logs.zip

Common Disc Info:
    Title: Mavis Beacon Teaches Typing: Version 12
    Disc Number / Letter: 
    Disc Title: 
    System: IBM PC compatible
    Media Type: CD-ROM
    Category: Games
    Matching IDs: 87465
    Region: USA
    Languages: English, Spanish
    Disc Serial: 380858A-CD

    Ringcode Information:
        Data Side Mastering Code (laser branded/etched): Made in Canada    ST3036784C    380858A-CD
        Data Side Mastering SID Code: IFPI LG06
        Data Side Toolstamp or Mastering Code (engraved/stamped): 
        Data Side Mould SID Code: IFPI 9L05
        Data Side Additional Mould: 
        Label Side Mould SID Code: 
    Barcode: 
    Error Count: 0
    Comments:

[T:VOL] 010614_1245
Case serial: 380858-BI 280858-ASM

    Contents: 

Version and Editions:
    Version: 12.01
    Edition/Release: Original

Extras:
    Primary Volume Descriptor (PVD):

0320 : 20 20 20 20 20 20 20 20  20 20 20 20 20 32 30 30                200
0330 : 31 30 38 32 38 31 31 31  34 30 33 30 30 00 32 30   1082811140300.20
0340 : 30 31 30 38 32 38 31 31  31 35 34 31 30 30 00 00   01082811154100..
0350 : 00 00 00 00 00 00 00 00  00 00 00 00 00 00 00 00   ................
0360 : 00 00 00 00 00 00 00 00  00 00 00 00 00 00 00 00   ................
0370 : 00 01 00 00 00 00 00 00  00 00 00 00 00 00 00 00   ................

Copy Protection:
    Copy Protection: 

Tracks and Write Offsets:
    DAT:

<rom name="010614_1245.bin" size="288178800" crc="8e012e9a" md5="38a77370f6a2c84ae28a26c155dcb3e6" sha1="f0df4a82711d8431dcf0e68213ca8d97655df8ff" />

    Cuesheet:

FILE "010614_1245.bin" BINARY
  TRACK 01 MODE1/2352
    INDEX 01 00:00:00

    Write Offset: 0

4

(0 replies, posted in Verifications)

http://redump.org/disc/9889/
log: http://interbutt.com/misc/NFS3_logs.zip

Note: the menu says "Moto Racer 2 demo" but it just plays a video file and not an executable demo.

Common Disc Info:
    Title: Need for Speed III: Hot Pursuit
    Disc Number / Letter: 
    Disc Title: 
    System: IBM PC compatible
    Media Type: CD-ROM
    Category: Games
    Matching IDs: 9889
    Region: USA, Asia
    Languages: English, Spanish
    Disc Serial: 

    Ringcode Information:
        Data Side Mastering Code (laser branded/etched): 507901B
        Data Side Mastering SID Code: IFPI LB22
        Data Side Toolstamp or Mastering Code (engraved/stamped): 
        Data Side Mould SID Code: 
        Data Side Additional Mould: 
        Label Side Mould SID Code: 
    Barcode: 
    Error Count: 0
    Comments:

[T:VOL] NFS3
Asia region: No MCN

    Contents:

[T:GF] Moto Racer 2 trailer
DirectX 5.0

Version and Editions:
    Version: 
    Edition/Release: Original

Extras:
    Primary Volume Descriptor (PVD):

0320 : 20 20 20 20 20 20 20 20  20 20 20 20 20 31 39 39                199
0330 : 38 30 39 30 33 31 31 33  35 32 31 30 30 00 31 39   8090311352100.19
0340 : 39 38 30 39 30 33 31 31  33 35 32 31 30 30 00 30   98090311352100.0
0350 : 30 30 30 30 30 30 30 30  30 30 30 30 30 30 30 00   000000000000000.
0360 : 30 30 30 30 30 30 30 30  30 30 30 30 30 30 30 30   0000000000000000
0370 : 00 01 00 00 00 00 00 00  00 00 00 00 00 00 00 00   ................

Copy Protection:
    Copy Protection: 

Tracks and Write Offsets:
    DAT:

<rom name="NFS3.bin" size="620436432" crc="8ea8d2a0" md5="9bc27020018607b71cb672c551f7c40c" sha1="9a503f5b4add837aa53cddfe497d0dc3b15b3e23" />

    Cuesheet:

FILE "NFS3.bin" BINARY
  TRACK 01 MODE2/2352
    INDEX 01 00:00:00

    Write Offset: 0

http://redump.org/disc/54013/

Common Disc Info:
    Title: Star Wars Trilogy
    Disc Number / Letter: 
    Disc Title: Bonus Material
    System: DVD-Video
    Media Type: DVD-ROM-9
    Category: Demos
    Matching IDs: 54013
    Region: USA
    Languages: English
    Disc Serial: 

    Ringcode Information:
        Layer 0 (Inner) Mastering Code (laser branded/etched): L803 9661 24090R2 @ R40710-09Y
        Layer 0 (Inner) Mastering SID Code: 
        Layer 0 (Inner) Toolstamp or Mastering Code (engraved/stamped): 
        Data Side Mould SID Code: IFPI 2F29
        Data Side Additional Mould: 
        Layer 1 (Outer) Mastering Code (laser branded/etched): L801 9661 24091R2 @ N40619-02Z
        Layer 1 (Outer) Mastering SID Code: 
        Layer 1 (Outer) Toolstamp or Mastering Code (engraved/stamped): 
        Label Side Mould SID Code: IFPI 2F29
    Barcode: 0 24543 12341 5 00
    Comments: [T:VOL] STAR_WARS_BONUS_DISC
    Contents:

[T:PD]
Star Wars: Battlefront (Xbox)

[T:GF]
Star Wars: Battlefront Trailer

[T:V]
Star Wars: Episode III - Making the Game

Version and Editions:
    Version: 
    Edition/Release: Widescreen

Extras:
    Primary Volume Descriptor (PVD):

0320 : 20 20 20 20 20 20 20 20  20 20 20 20 20 32 30 30                200
0330 : 34 30 36 31 35 31 32 31  31 33 36 30 30 24 30 30   4061512113600$00
0340 : 30 30 30 30 30 30 30 30  30 30 30 30 30 30 00 30   00000000000000.0
0350 : 30 30 30 30 30 30 30 30  30 30 30 30 30 30 30 00   000000000000000.
0360 : 30 30 30 30 30 30 30 30  30 30 30 30 30 30 30 30   0000000000000000
0370 : 00 01 00 00 00 00 00 00  00 00 00 00 00 00 00 00   ................

Copy Protection:
    Copy Protection:

Region: 1
Copyright Protection System Type: CSS/CPPM
VIDEO_TS.VOB Title Key: No Title Key
VTS_01_0.VOB Title Key: C0 59 A6 25 1D
VTS_01_1.VOB Title Key: C0 59 A6 25 1D
VTS_02_1.VOB Title Key: C0 95 40 EF 1D
VTS_02_2.VOB Title Key: C0 95 40 EF 1D
VTS_03_1.VOB Title Key: C0 D0 DB B9 1D
VTS_04_0.VOB Title Key: C1 0C 76 83 1D
VTS_04_1.VOB Title Key: C1 0C 76 83 1D
VTS_04_2.VOB Title Key: C1 0C 76 83 1D
VTS_04_3.VOB Title Key: C1 0C 76 83 1D
VTS_04_4.VOB Title Key: C1 0C 76 83 1D
VTS_04_5.VOB Title Key: C1 0C 76 83 1D
VTS_05_1.VOB Title Key: C1 48 11 4D 1D
VTS_06_1.VOB Title Key: C1 83 AC 17 1D
VTS_07_1.VOB Title Key: C1 BF 46 E1 1D
VTS_08_0.VOB Title Key: C1 FA E1 AB 1D
VTS_08_1.VOB Title Key: C1 FA E1 AB 1D
VTS_09_1.VOB Title Key: C2 36 7C 75 1D
Decrypted Disc Key: 0B BC 6F 9E C1

Size & Checksum:
    Layerbreak: 2077936
    Size: 8511199232
    CRC32: b00b66e0
    MD5: 3fb0ea767c6f02af77d3e846fd8852db
    SHA1: 35966080a83cab6e374bd3170bf5c95ee9a319b5

6

(0 replies, posted in Verifications)

http://redump.org/disc/6635/

Common Disc Info:
    Title: Myst III: Exile
    Foreign Title (Non-latin): 
    Disc Number / Letter: 
    Disc Title: 
    System: IBM PC Compatible
    Media Type: DVD-ROM-5
    Category: Games
    Matching IDs: 6635
    Region: USA
    Languages: Dutch, English, French, German, Italian, Spanish
    Disc Serial: 651116-DVD3

    Ringcode Information:
        Data Side Mastering Code (laser branded/etched): 651115-DVD3    sono press    + +    CB93601
        Data Side Mastering SID Code: IFPI LB48
        Data Side Toolstamp or Mastering Code (engraved/stamped): A18
        Data Side Mould SID Code: IFPI 10A3
        Data Side Additional Mould: 
        Label Side Mould SID Code: IFPI 10C6
        Label Side Additional Mould: 
    Barcode: 0 08888 68163 2
    Comments:

PC/MAC Hybrid

10th Anniversary DVD Edition (Disc 3)

Bundled with the Limited Edition of Myst IV: Revelation too. <a href=/disc/19849/>Disc 1</a> and <a href=/disc/19850/>Disc 2</a>.

    Contents: [+]The Making of Myst III: Exile (Video).

Version and Editions:
    Version: 1.27
    Edition/Release: Bundle with Myst IV

Extras:
    Primary Volume Descriptor (PVD):

0320 : 20 20 20 20 20 20 20 20  20 20 20 20 20 32 30 30                200
0330 : 33 30 39 32 35 32 30 31  34 31 33 30 30 00 32 30   3092520141300.20
0340 : 30 33 30 39 32 35 32 30  34 34 33 33 30 30 00 00   03092520443300..
0350 : 00 00 00 00 00 00 00 00  00 00 00 00 00 00 00 00   ................
0360 : 00 00 00 00 00 00 00 00  00 00 00 00 00 00 00 00   ................
0370 : 00 01 00 00 00 00 00 00  00 00 00 00 00 00 00 00   ................

Copy Protection:
    Copy Protection: None found

Size & Checksum:
    Size: 3351707648
    CRC32: 54cee860
    MD5: d53e3293bce116b10c29460117988e7e
    SHA1: 86d09de05a3d189be7ba02e1c4a5016b66d6ff91

7

(1 replies, posted in Verifications)

http://redump.org/disc/19850/

Common Disc Info:
    Title: Myst IV: Revelation
    Foreign Title (Non-latin): 
    Disc Number / Letter: 2
    Disc Title: 
    System: IBM PC Compatible
    Media Type: DVD-ROM-9
    Category: Games
    Matching IDs: 19850
    Region: USA, Europe
    Languages: Dutch, English, French, German, Italian, Spanish
    Disc Serial: 681632-DVD2

    Ringcode Information:
        Layer 0 (Inner) Mastering Code (laser branded/etched): DA73403-L0    +    +    681632-DVD2-L0
        Layer 0 (Inner) Mastering SID Code: IFPI LB41
        Layer 0 (Inner) Toolstamp or Mastering Code (engraved/stamped): 
        Data Side Mould SID Code: IFPI 10E3
        Data Side Additional Mould: 
        Layer 1 (Outer) Mastering Code (laser branded/etched): DA73502-L1    +    +    681632-DVD2-L1
        Layer 1 (Outer) Mastering SID Code: IFPI LB41
        Layer 1 (Outer) Toolstamp or Mastering Code (engraved/stamped): 
        Label Side Mould SID Code: IFPI 10E4
        Label Side Additional Mould: 
    Barcode: 0 08888 68163 2
    Comments:

PC/Mac Hybrid

Limited Edition includes a 3rd disc: <a href=/disc/6635/>Myst III: Exile</a>.

    Contents: 

Version and Editions:
    Version: 
    Edition/Release: Original

Extras:
    Primary Volume Descriptor (PVD):

0320 : 20 20 20 20 20 20 20 20  20 20 20 20 20 32 30 30                200
0330 : 34 30 39 30 34 32 30 30  37 33 33 30 30 00 32 30   4090420073300.20
0340 : 30 34 30 39 30 34 32 30  33 38 31 34 30 30 00 00   04090420381400..
0350 : 00 00 00 00 00 00 00 00  00 00 00 00 00 00 00 00   ................
0360 : 00 00 00 00 00 00 00 00  00 00 00 00 00 00 00 00   ................
0370 : 00 01 00 00 00 00 00 00  00 00 00 00 00 00 00 00   ................

Copy Protection:
    Copy Protection: SafeDisc (drvmgt.dll) 3.15-3.20, SafeDisc (secdrv.sys) 3.20, SafeDisc 1-3

Size & Checksum:
    Layerbreak: 2084960
    Size: 6528385024
    CRC32: da9baa48
    MD5: 3683d95d7157a2498108edefc263eb48
    SHA1: 87a941ce3edd537b6f84d4fdb0608fd76588db33

8

(1 replies, posted in Verifications)

http://redump.org/disc/19849/

Common Disc Info:
    Title: Myst IV: Revelation
    Foreign Title (Non-latin): 
    Disc Number / Letter: 1
    Disc Title: 
    System: IBM PC Compatible
    Media Type: DVD-ROM-5
    Category: Games
    Matching IDs: 19849
    Region: USA, Europe
    Languages: Dutch, English, French, German, Italian, Spanish
    Disc Serial: 681632-DVD1

    Ringcode Information:
        Data Side Mastering Code (laser branded/etched): 681632-DVD1    + +    DA72603
        Data Side Mastering SID Code: IFPI LB48
        Data Side Toolstamp or Mastering Code (engraved/stamped): A02
        Data Side Mould SID Code: IFPI 10B9
        Data Side Additional Mould: 
        Label Side Mould SID Code: IFPI 10D9
        Label Side Additional Mould: 
    Barcode: 0 08888 68163 2
    Comments:

PC/Mac Hybrid

Limited Edition includes a 3rd disc: <a href=/disc/6635/>Myst III: Exile</a>.

    Contents: [+]Extras: Myst Jigsaw Puzzles

Version and Editions:
    Version: 
    Edition/Release: Original

Extras:
    Primary Volume Descriptor (PVD):

0320 : 20 20 20 20 20 20 20 20  20 20 20 20 20 32 30 30                200
0330 : 34 30 39 30 35 31 30 34  32 31 38 30 30 00 32 30   4090510421800.20
0340 : 30 34 30 39 30 35 31 33  33 37 30 32 30 30 00 00   04090513370200..
0350 : 00 00 00 00 00 00 00 00  00 00 00 00 00 00 00 00   ................
0360 : 00 00 00 00 00 00 00 00  00 00 00 00 00 00 00 00   ................
0370 : 00 01 00 00 00 00 00 00  00 00 00 00 00 00 00 00   ................

Copy Protection:
    Copy Protection: SafeDisc 3.20.022

Size & Checksum:
    Size: 3987079168
    CRC32: 31b83fd2
    MD5: 0130dc186036bdc573c6b3c68ae57e22
    SHA1: 6d83e2c92c804698f2d6e4156e137d7f3ab56d1c

9

(0 replies, posted in Verifications)

http://redump.org/disc/2520

Common Disc Info:
    Title: The Elder Scrolls IV: Oblivion
    Foreign Title (Non-latin): 
    Disc Number / Letter: 
    Disc Title: 
    System: IBM PC Compatible
    Media Type: DVD-ROM-5
    Category: Games
    Matching IDs: 2520
    Region: USA
    Languages: English
    Disc Serial: 

    Ringcode Information:
        Data Side Mastering Code (laser branded/etched): 21713-1    sonopress arvato A05 + +    F357001
        Data Side Mastering SID Code: IFPI LB48
        Data Side Toolstamp or Mastering Code (engraved/stamped): 
        Data Side Mould SID Code: IFPI 10G3
        Data Side Additional Mould: 
        Label Side Mould SID Code: IFPI 10H3
        Label Side Additional Mould: 
    Barcode: 7 10425 21713 5
    Comments: 
    Contents: 

Version and Editions:
    Version: 1.0.228
    Edition/Release: Original

Extras:
    Primary Volume Descriptor (PVD):

0320 : 20 20 20 20 20 20 20 20  20 20 20 20 20 32 30 30                200
0330 : 36 30 32 32 38 31 31 32  33 33 31 30 30 EC 32 30   6022811233100.20
0340 : 30 36 30 32 32 38 31 31  32 33 33 31 30 30 EC 31   06022811233100.1
0350 : 39 38 32 30 32 32 37 31  34 35 32 34 35 30 30 EC   982022714524500.
0360 : 32 30 30 36 30 32 32 37  31 34 35 32 34 35 30 30   2006022714524500
0370 : EC 01 00 00 00 00 00 00  00 00 00 00 00 00 00 00   ................

Copy Protection:
    Copy Protection: None found

Size & Checksum:
    Size: 4491771904
    CRC32: 75fc05f0
    MD5: fbd89f6be44cc26a18508c1d64d700ea
    SHA1: 9d497fa6648fcb27feda9fcbdb75521a76f9f51a

10

(0 replies, posted in Verifications)

http://redump.org/disc/8353/
log: http://interbutt.com/misc/SONIC3K_logs.zip

Common Disc Info:
    Title: Sonic & Knuckles Collection
    Foreign Title (Non-latin): 
    Disc Number / Letter: 
    Disc Title: 
    System: IBM PC Compatible
    Media Type: CD-ROM
    Category: Games
    Matching IDs: 8353
    Region: USA
    Languages: English
    Disc Serial: 6820 01

    Ringcode Information:
        Data Side Mastering Code (laser branded/etched): 682001 R2H    A
        Data Side Mastering SID Code: IFPI L238
        Data Side Toolstamp or Mastering Code (engraved/stamped): 13
        Data Side Mould SID Code: IFPI 4121
        Data Side Additional Mould: 
        Label Side Mould SID Code: 
        Label Side Additional Mould: 
    Barcode: 081656068200
    Error Count: 0
    Comments:

[T:ISBN]: 1-57709-962-1

IFPI L239 has no MCN

IFPI L240 disc: MCN unverified

    Contents:

[+]Sonic the Hedgehog 3

Sonic & Knuckles

Sonic 3 & Knuckles

Version and Editions:
    Version: 
    Edition/Release: Expert Software

Extras:
    Primary Volume Descriptor (PVD):

0320 : 20 20 20 20 20 20 20 20  20 20 20 20 20 31 39 39                199
0330 : 39 30 32 31 31 31 36 34  39 35 38 30 30 00 31 39   9021116495800.19
0340 : 39 39 30 32 31 31 31 36  34 39 35 38 30 30 00 30   99021116495800.0
0350 : 30 30 30 30 30 30 30 30  30 30 30 30 30 30 30 00   000000000000000.
0360 : 30 30 30 30 30 30 30 30  30 30 30 30 30 30 30 30   0000000000000000
0370 : 00 01 00 00 00 00 00 00  00 00 00 00 00 00 00 00   ................

Copy Protection:
    Copy Protection: None found

Tracks and Write Offsets:
    DAT:

<rom name="SONIC3K.bin" size="452437776" crc="e1ba2a44" md5="0faf1d41c7636f650d7bf83b56f77de5" sha1="126a58c328800c010e4fc2515790a6d43742f5f5" />

    Cuesheet:

CATALOG 0000000000000
FILE "SONIC3K.bin" BINARY
  TRACK 01 MODE2/2352
    INDEX 01 00:00:00

    Write Offset: 0

11

(0 replies, posted in Verifications)

http://redump.org/disc/5356
log: http://interbutt.com/misc/STARCRAFT_logs.zip

Common Disc Info:
    Title: StarCraft
    Foreign Title (Non-latin): 
    Disc Number / Letter: 
    Disc Title: 
    System: IBM PC Compatible
    Media Type: CD-ROM
    Category: Games
    Matching IDs: 5356
    Region: USA, Europe
    Languages: English
    Disc Serial: S7154910

    Ringcode Information:
        Data Side Mastering Code (laser branded/etched): (185861) S7154910  03    TECHNICOLOR
        Data Side Mastering SID Code: IFPI L892
        Data Side Toolstamp or Mastering Code (engraved/stamped): 
        Data Side Mould SID Code: IFPI 2T03
        Data Side Additional Mould: NIMBUS/CA
        Label Side Mould SID Code: 
        Label Side Additional Mould: 
    Barcode: 
    Error Count: 0
    Comments: PC/Mac Hybrid
    Contents: 

Version and Editions:
    Version: 1.05
    Edition/Release: Original

Extras:
    Primary Volume Descriptor (PVD):

0320 : 20 20 20 20 20 20 20 20  20 20 20 20 20 32 30 30                200
0330 : 32 30 31 32 39 31 36 30  38 30 38 30 30 00 32 30   2012916080800.20
0340 : 30 32 30 31 32 39 31 36  30 38 31 31 30 30 00 00   02012916081100..
0350 : 00 00 00 00 00 00 00 00  00 00 00 00 00 00 00 00   ................
0360 : 00 00 00 00 00 00 00 00  00 00 00 00 00 00 00 00   ................
0370 : 00 01 00 00 00 00 00 00  00 00 00 00 00 00 00 00   ................

Copy Protection:
    Copy Protection: None found

Tracks and Write Offsets:
    DAT:

<rom name="STARCRAFT.bin" size="732022368" crc="0a0acf26" md5="21cad942ab17a5eb6522336dcaf499d4" sha1="70c33f1aabb6d092004c49641c41bb4a5ae915b8" />

    Cuesheet:

FILE "STARCRAFT.bin" BINARY
  TRACK 01 MODE1/2352
    INDEX 01 00:00:00

    Write Offset: -12

12

(0 replies, posted in Verifications)

http://redump.org/disc/54473
log: http://interbutt.com/misc/SFC2_1_logs.zip

Common Disc Info:
    Title: Star Trek: Starfleet Command II: Empires at War
    Foreign Title (Non-latin): 
    Disc Number / Letter: 1
    Disc Title: 
    System: IBM PC Compatible
    Media Type: CD-ROM
    Category: Games
    Matching IDs: 54473
    Region: USA
    Languages: English
    Disc Serial: CD-C95-1185-0

    Ringcode Information:
        Data Side Mastering Code (laser branded/etched): FUTURE MEDIA \ CA    FM 19761 (CD-C95-1185-0/IN0002)
        Data Side Mastering SID Code: IFPI LG32
        Data Side Toolstamp or Mastering Code (engraved/stamped): C01 M02 S01
        Data Side Mould SID Code: IFPI 3V45
        Data Side Additional Mould: 
        Label Side Mould SID Code: 
        Label Side Additional Mould: 
    Barcode: 
    Error Count: 0
    Comments: 
    Contents: 

Version and Editions:
    Version: 1.0.0.2
    Edition/Release: Original

Extras:
    Primary Volume Descriptor (PVD):

0320 : 20 20 20 20 20 20 20 20  20 20 20 20 20 32 30 30                200
0330 : 30 31 31 32 37 31 31 31  39 30 36 30 30 00 32 30   0112711190600.20
0340 : 30 30 31 31 32 37 31 31  31 39 30 36 30 30 00 30   00112711190600.0
0350 : 30 30 30 30 30 30 30 30  30 30 30 30 30 30 30 00   000000000000000.
0360 : 30 30 30 30 30 30 30 30  30 30 30 30 30 30 30 30   0000000000000000
0370 : 00 01 00 00 00 00 00 00  00 00 00 00 00 00 00 00   ................

Copy Protection:
    Copy Protection: Executable-Based Online Registration 2.03.44, Executable-Based Online Registration 2.02.01C02

Tracks and Write Offsets:
    DAT:

<rom name="SFC2_1.bin" size="783982752" crc="dbede300" md5="8b0d6f20f9a1179ac0685ec53a98d0b3" sha1="858a6d71d1ae09f85764b48a55295bc87fcf5d88" />

    Cuesheet:

FILE "SFC2_1.bin" BINARY
  TRACK 01 MODE2/2352
    INDEX 01 00:00:00

    Write Offset: -22

http://redump.org/disc/54474
log: http://interbutt.com/misc/SFC2_2_logs.zip

Common Disc Info:
    Title: Star Trek: Starfleet Command II: Empires at War
    Foreign Title (Non-latin): 
    Disc Number / Letter: 2
    Disc Title: 
    System: IBM PC Compatible
    Media Type: CD-ROM
    Category: Games
    Matching IDs: 54474
    Region: USA
    Languages: English
    Disc Serial: CD-C95-1185-1

    Ringcode Information:
        Data Side Mastering Code (laser branded/etched): FUTURE MEDIA \ CA    FM 19762 (CD-C95-1185-1/IN0002)
        Data Side Mastering SID Code: IFPI LG33
        Data Side Toolstamp or Mastering Code (engraved/stamped): C01 M01 S05
        Data Side Mould SID Code: IFPI 3V31
        Data Side Additional Mould: 
        Label Side Mould SID Code: 
        Label Side Additional Mould: 
    Barcode: 
    Error Count: 0
    Comments: 
    Contents: 

Version and Editions:
    Version: 1.0.0.2
    Edition/Release: Original

Extras:
    Primary Volume Descriptor (PVD):

0320 : 20 20 20 20 20 20 20 20  20 20 20 20 20 32 30 30                200
0330 : 30 31 31 32 37 31 31 33  31 30 36 30 30 00 32 30   0112711310600.20
0340 : 30 30 31 31 32 37 31 31  33 31 30 36 30 30 00 30   00112711310600.0
0350 : 30 30 30 30 30 30 30 30  30 30 30 30 30 30 30 00   000000000000000.
0360 : 30 30 30 30 30 30 30 30  30 30 30 30 30 30 30 30   0000000000000000
0370 : 00 01 00 00 00 00 00 00  00 00 00 00 00 00 00 00   ................

Copy Protection:
    Copy Protection: None found

Tracks and Write Offsets:
    DAT:

<rom name="SFC2_2.bin" size="217614096" crc="db02ba9d" md5="e80f6bccf84a1d7bb205f39d6f816445" sha1="5cd694a9ab224ca7c573cb366b62f2a6078c2a90" />

    Cuesheet:

FILE "SFC2_2.bin" BINARY
  TRACK 01 MODE2/2352
    INDEX 01 00:00:00

    Write Offset: -12

13

(0 replies, posted in Verifications)

http://redump.org/disc/7954/
log: http://interbutt.com/misc/MONKEY3_1_logs.zip

Common Disc Info:
    Title: The Curse of Monkey Island
    Foreign Title (Non-latin): 
    Disc Number / Letter: 1
    Disc Title: 
    System: IBM PC Compatible
    Media Type: CD-ROM
    Category: Games
    Matching IDs: 7954
    Region: USA, Europe
    Languages: English
    Disc Serial: 1081830

    Ringcode Information:
        Data Side Mastering Code (laser branded/etched): (151533) 1081830  02    TECHNICOLOR
        Data Side Mastering SID Code: IFPI L891
        Data Side Toolstamp or Mastering Code (engraved/stamped): 
        Data Side Mould SID Code: IFPI 2T90
        Data Side Additional Mould: TECHNICOLOR/CA
        Label Side Mould SID Code: 
        Label Side Additional Mould: 
    Barcode: 023272108816
    Error Count: 0
    Comments: 
    Contents: 

Version and Editions:
    Version: 1.0
    Edition/Release: Original

Extras:
    Primary Volume Descriptor (PVD):

0320 : 20 20 20 20 20 20 20 20  20 20 20 20 20 31 39 39                199
0330 : 37 31 30 31 36 30 37 35  34 30 36 30 30 00 31 39   7101607540600.19
0340 : 39 37 31 30 31 36 30 37  35 34 30 36 30 30 00 30   97101607540600.0
0350 : 30 30 30 30 30 30 30 30  30 30 30 30 30 30 30 00   000000000000000.
0360 : 30 30 30 30 30 30 30 30  30 30 30 30 30 30 30 30   0000000000000000
0370 : 00 01 00 00 00 00 00 00  00 00 00 00 00 00 00 00   ................

Copy Protection:
    Copy Protection: None found

Tracks and Write Offsets:
    DAT:

<rom name="MONKEY3_1.bin" size="656629008" crc="19afcd3b" md5="4ff1c40f48447e8c6691eb74befa8ed4" sha1="27b8a38c3d7c6aa0e24f9053ea14e984f137c738" />

    Cuesheet:

FILE "MONKEY3_1.bin" BINARY
  TRACK 01 MODE1/2352
    INDEX 01 00:00:00

    Write Offset: -22

http://redump.org/disc/7955/
log: http://interbutt.com/misc/MONKEY3_2_logs.zip

Common Disc Info:
    Title: The Curse of Monkey Island
    Foreign Title (Non-latin): 
    Disc Number / Letter: 2
    Disc Title: 
    System: IBM PC Compatible
    Media Type: CD-ROM
    Category: Games
    Matching IDs: 7955
    Region: USA, Europe
    Languages: English
    Disc Serial: 1081831

    Ringcode Information:
        Data Side Mastering Code (laser branded/etched): (151534) 1081831  03    TECHNICOLOR
        Data Side Mastering SID Code: IFPI L894
        Data Side Toolstamp or Mastering Code (engraved/stamped): 
        Data Side Mould SID Code: IFPI 2T90
        Data Side Additional Mould: TECHNICOLOR/CA
        Label Side Mould SID Code: 
        Label Side Additional Mould: 
    Barcode: 023272108816
    Error Count: 0
    Comments: 
    Contents: 

Version and Editions:
    Version: 1.0
    Edition/Release: Original (VERIFY THIS)

Extras:
    Primary Volume Descriptor (PVD):

0320 : 20 20 20 20 20 20 20 20  20 20 20 20 20 31 39 39                199
0330 : 37 31 30 31 35 31 39 31  35 30 30 30 30 00 31 39   7101519150000.19
0340 : 39 37 31 30 31 35 31 39  31 35 30 30 30 30 00 30   97101519150000.0
0350 : 30 30 30 30 30 30 30 30  30 30 30 30 30 30 30 00   000000000000000.
0360 : 30 30 30 30 30 30 30 30  30 30 30 30 30 30 30 30   0000000000000000
0370 : 00 01 00 00 00 00 00 00  00 00 00 00 00 00 00 00   ................

Copy Protection:
    Copy Protection: None found

Tracks and Write Offsets:
    DAT:

<rom name="MONKEY3_2.bin" size="602420112" crc="bb9894cf" md5="7c3be0c753643f5dd4d37981992b33ca" sha1="99670f02b0d3bce8606d00758773bad0be3318b8" />

    Cuesheet:

FILE "MONKEY3_2.bin" BINARY
  TRACK 01 MODE1/2352
    INDEX 01 00:00:00

    Write Offset: -22

14

(0 replies, posted in Verifications)

http://redump.org/disc/30141/
log: http://interbutt.com/misc/PCG_7_17_logs.zip

Common Disc Info:
    Title: PC Gamer July 2002
    Foreign Title (Non-latin): 
    Disc Number / Letter: 
    Disc Title: Disc 7.17
    System: IBM PC Compatible
    Media Type: CD-ROM
    Category: Coverdiscs
    Matching IDs: 30141
    Region: USA
    Languages: English
    Disc Serial: 

    Ringcode Information:
        Data Side Mastering Code (laser branded/etched): PCGAMER 0702 2    DISCTRONICS    4/27/02
        Data Side Mastering SID Code: IFPI L794
        Data Side Toolstamp or Mastering Code (engraved/stamped): 
        Data Side Mould SID Code: IFPI 2D41
        Data Side Additional Mould: 
        Label Side Mould SID Code: 
        Label Side Additional Mould: 
    Barcode: 
    Error Count: 0
    Comments:

Bundled with PC Gamer Magazine, Disc 7.17
Dungeon Siege cover

    Contents:

[T:PD]
Dragon Throne: Battle of Red Cliffs
Dungeon Siege
Project Earth

Mods:
Acid Arena (Quake III)
Half-Quake (Half-Life)
Peaces Like Us (Half-Life)
True Matrix 1.5 (Max Payne)

Applications:
DirectX 8.1
EarthLink 5.0
GameSpy
WinZip 8.1

[T:P]
Civilization III 1.21f
Command and Conquer Renegade 1.030
Global Operations 1.1
Kohan 1.34
Might and Magic IX 1.2
Star Trek Bridge Commander 1.1
Warlords Battlecry II 1.03
Warrior Kings 1.3

[T:X]
Desktop Wallpapers
Ghost Recon - Desert Siege walkthrough
Sims Vacation guide
Winamp skin

Version and Editions:
    Version: 
    Edition/Release: Original

Extras:
    Primary Volume Descriptor (PVD):

0320 : 20 20 20 20 20 20 20 20  20 20 20 20 20 32 30 30                200
0330 : 32 30 34 32 36 31 35 34  31 31 36 30 30 00 32 30   2042615411600.20
0340 : 30 32 30 34 32 36 31 35  34 31 31 36 30 30 00 30   02042615411600.0
0350 : 30 30 30 30 30 30 30 30  30 30 30 30 30 30 30 E4   000000000000000.
0360 : 30 30 30 30 30 30 30 30  30 30 30 30 30 30 30 30   0000000000000000
0370 : E4 01 00 00 00 00 00 00  00 00 00 00 00 00 00 00   ................

Copy Protection:
    Copy Protection: None found

Tracks and Write Offsets:
    DAT:

<rom name="PCG_7_17.bin" size="745181808" crc="18058903" md5="005eb07f5e9fef9a46791acccae097c9" sha1="d5b306ee49732fc27b1fb99f38d7256f721a6f97" />

    Cuesheet:

FILE "PCG_7_17.bin" BINARY
  TRACK 01 MODE2/2352
    INDEX 01 00:00:00

    Write Offset: -12

15

(0 replies, posted in Verifications)

http://redump.org/disc/64897/
log: http://interbutt.com/misc/ROTK%20Install%201_logs.zip

Common Disc Info:
    Title: The Lord of the Rings: The Return of the King
    Foreign Title (Non-latin): 
    Disc Number / Letter: 1
    Disc Title: Install Disc One
    System: IBM PC Compatible
    Media Type: CD-ROM
    Category: Games
    Matching IDs: 64897
    Region: USA
    Languages: English
    Disc Serial: 

    Ringcode Information:
        Data Side Mastering Code (laser branded/etched): 1468707 SONOPRESS
        Data Side Mastering SID Code: IFPI L044
        Data Side Toolstamp or Mastering Code (engraved/stamped): 1-1-4
        Data Side Mould SID Code: IFPI 1656
        Data Side Additional Mould: 
        Label Side Mould SID Code: 
        Label Side Additional Mould: 
    Barcode: 
    Error Count: 0
    Comments: 
    Contents: 

Version and Editions:
    Version: 1.0
    Edition/Release: Original

Extras:
    Primary Volume Descriptor (PVD):

0320 : 20 20 20 20 20 20 20 20  20 20 20 20 20 32 30 30                200
0330 : 33 31 30 30 35 31 32 34  31 32 32 30 30 E4 32 30   3100512412200.20
0340 : 30 33 31 30 30 35 31 32  34 31 32 32 30 30 E4 30   03100512412200.0
0350 : 30 30 30 30 30 30 30 30  30 30 30 30 30 30 30 00   000000000000000.
0360 : 32 30 30 33 31 30 30 35  31 32 34 31 32 32 30 30   2003100512412200
0370 : E4 01 00 20 20 20 20 20  20 20 20 20 20 20 20 20   ...

Copy Protection:
    Copy Protection: SafeDisc 3.10.020

Tracks and Write Offsets:
    DAT:

<rom name="ROTK Install 1.bin" size="752510640" crc="824a5e30" md5="5d3b038c225e5c57cfb2dad879268cb5" sha1="5f43677fe9df06b0e07368692c07c39395d0695e" />

    Cuesheet:

FILE "ROTK Install 1.bin" BINARY
  TRACK 01 MODE1/2352
    INDEX 01 00:00:00

    Write Offset: -12

http://redump.org/disc/64898/
log: http://interbutt.com/misc/ROTK%20Install%202_logs.zip

Common Disc Info:
    Title: The Lord of the Rings: The Return of the King
    Foreign Title (Non-latin): 
    Disc Number / Letter: 2
    Disc Title: Install Disc Two
    System: IBM PC Compatible
    Media Type: CD-ROM
    Category: Games
    Matching IDs: 64898
    Region: USA
    Languages: English
    Disc Serial: 1468717

    Ringcode Information:
        Data Side Mastering Code (laser branded/etched): 1468717 SONOPRESS
        Data Side Mastering SID Code: IFPI L044
        Data Side Toolstamp or Mastering Code (engraved/stamped): 1-1-9
        Data Side Mould SID Code: ifpi 1632
        Data Side Additional Mould: 
        Label Side Mould SID Code: 
        Label Side Additional Mould: 
    Barcode: 
    Error Count: 0
    Comments: 
    Contents: 

Version and Editions:
    Version: 1.0
    Edition/Release: Original

Extras:
    Primary Volume Descriptor (PVD):

0320 : 20 20 20 20 20 20 20 20  20 20 20 20 20 32 30 30                200
0330 : 33 31 30 30 35 31 32 34  37 31 31 30 30 E4 32 30   3100512471100.20
0340 : 30 33 31 30 30 35 31 32  34 37 31 31 30 30 E4 30   03100512471100.0
0350 : 30 30 30 30 30 30 30 30  30 30 30 30 30 30 30 00   000000000000000.
0360 : 32 30 30 33 31 30 30 35  31 32 34 37 31 31 30 30   2003100512471100
0370 : E4 01 00 20 20 20 20 20  20 20 20 20 20 20 20 20   ...

Copy Protection:
    Copy Protection: None found

Tracks and Write Offsets:
    DAT:

<rom name="ROTK Install 2.bin" size="761229504" crc="92a49fe5" md5="f8700f943e2be849e2f6074ec51b7f6b" sha1="fde485f67a70aee59b51415f609e96c0353fdb21" />

    Cuesheet:

FILE "ROTK Install 2.bin" BINARY
  TRACK 01 MODE1/2352
    INDEX 01 00:00:00

    Write Offset: -12

http://redump.org/disc/64899/
log: http://interbutt.com/misc/ROTK%20Play%20Disc_logs.zip

Common Disc Info:
    Title: The Lord of the Rings: The Return of the King
    Foreign Title (Non-latin): 
    Disc Number / Letter: 3
    Disc Title: Play Disc
    System: IBM PC Compatible
    Media Type: CD-ROM
    Category: Games
    Matching IDs: 64899
    Region: USA
    Languages: English
    Disc Serial: 1468727

    Ringcode Information:
        Data Side Mastering Code (laser branded/etched): 1468727 SONOPRESS
        Data Side Mastering SID Code: IFPI L044
        Data Side Toolstamp or Mastering Code (engraved/stamped): 1-1-7
        Data Side Mould SID Code: IFPI 1692
        Data Side Additional Mould: 
        Label Side Mould SID Code: 
        Label Side Additional Mould: 
    Barcode: 
    Error Count: 591
    Comments: 
    Contents: 

Version and Editions:
    Version: 1.0
    Edition/Release: Original

Extras:
    Primary Volume Descriptor (PVD):

0320 : 20 20 20 20 20 20 20 20  20 20 20 20 20 32 30 30                200
0330 : 33 31 30 30 35 32 31 30  32 35 30 30 30 00 32 30   3100521025000.20
0340 : 30 33 31 30 30 35 32 31  30 32 35 30 30 30 00 30   03100521025000.0
0350 : 30 30 30 30 30 30 30 30  30 30 30 30 30 30 30 00   000000000000000.
0360 : 30 30 30 30 30 30 30 30  30 30 30 30 30 30 30 30   0000000000000000
0370 : 00 01 00 00 00 00 00 00  00 00 00 00 00 00 00 00   ................

Copy Protection:
    Copy Protection: SafeDisc 1-3, SafeDisc 2, SafeDisc (drvmgt.dll) 2.90-3.10, SafeDisc (secdrv.sys) 3.10

Tracks and Write Offsets:
    DAT:

<rom name="ROTK Play Disc.bin" size="720610464" crc="f9ef37fb" md5="85edd1714d651c3f3c99660e6d28d128" sha1="d46f24572152f1568c6777b96f8abb4cc63c3922" />

    Cuesheet:

FILE "ROTK Play Disc.bin" BINARY
  TRACK 01 MODE1/2352
    INDEX 01 00:00:00

    Write Offset: -12

16

(2 replies, posted in Guests & account requests)

Done, thanks!

17

(2 replies, posted in Guests & account requests)

I'd like to update http://wiki.redump.org/index.php?title= … _audio_CDs to remove some discs I dumped and make some romanization corrections to http://wiki.redump.org/index.php?title= … sing_Dumps

18

(3,291 replies, posted in General discussion)

I'm getting an issue with several doujin PC games on CD-R media where there are C2 errors on the final two sectors and DIC will not complete the dump. From discussion on Discord it sounds like this is a common occurrence with CD-R discs and is most likely a mastering issue and not due to disc damage. But I can't see any way to make DIC ignore the errors and complete the dump.

Logs for two discs with the issue: http://interbutt.com/misc/CD-R%20problem%20logs.zip

19

(3,291 replies, posted in General discussion)

Jackal wrote:

DopefishJustin submitted a verification for this disc: http://redump.org/disc/65563/

The audio tracks all seem to the data starting 4 bytes later than Nexy's Plextor dump. So the offset difference is 1 sample.

It was dumped with ASUS BW-16D1HT . Logs: http://interbutt.com/misc/WARCRAFT2_X_logs.zip

We need to know if this is a problem with the ASUS drives. I've warned before that we can't really trust them because it's all just experimental and never fully tested, yet DIC keeps supporting them and now perhaps the DB is being filled with bad dumps that are done with these drives.

For the record I am using an LG WH16NS40 cross-flashed to ASUS firmware as described at http://wiki.redump.org/index.php?title= … 2_firmware

I dumped the disc twice before submitting and have now dumped it a third time, with matching results each time. The other two discs in the set also have audio tracks and matched existing dumps when read with the same drive: http://forum.redump.org/topic/36304/pc- … t-2-discs/

I have ordered a PX-W5224TA and will compare when that arrives.