1

(0 replies, posted in Verifications)

http://redump.org/disc/8144/
log: http://interbutt.com/misc/MONKEY4_CD1_logs.zip

Common Disc Info:
    Title: Escape from Monkey Island
    Foreign Title (Non-latin): 
    Disc Number / Letter: 1
    Disc Title: 
    System: IBM PC Compatible
    Media Type: CD-ROM
    Category: Games
    Matching IDs: 8144
    Region: USA, Europe
    Languages: English
    Disc Serial: 1101830

    Ringcode Information:
        Data Side Mastering Code (laser branded/etched): Technicolor    C2    167625-02    1101830
        Data Side Mastering SID Code: IFPI L892
        Data Side Toolstamp or Mastering Code (engraved/stamped): 
        Data Side Mould SID Code: IFPI 8024
        Data Side Additional Mould: TECHNICOLOR/CA
        Label Side Mould SID Code: 
        Label Side Additional Mould: 
    Barcode: 0 23272 11081 9
    Error Count: 0
    Comments: 
    Contents: 

Version and Editions:
    Version: 1.0
    Edition/Release: Original

Extras:
    Primary Volume Descriptor (PVD):

0320 : 20 20 20 20 20 20 20 20  20 20 20 20 20 32 30 30                200
0330 : 30 31 30 32 33 31 32 33  38 34 34 30 30 00 32 30   0102312384400.20
0340 : 30 30 31 30 32 33 31 32  33 38 34 34 30 30 00 30   00102312384400.0
0350 : 30 30 30 30 30 30 30 30  30 30 30 30 30 30 30 00   000000000000000.
0360 : 30 30 30 30 30 30 30 30  30 30 30 30 30 30 30 30   0000000000000000
0370 : 00 01 00 00 00 00 00 00  00 00 00 00 00 00 00 00   ................

Copy Protection:
    Copy Protection: None found

Tracks and Write Offsets:
    DAT:

<rom name="MONKEY4_CD1.bin" size="715278480" crc="57070e42" md5="6e6180db7f5bb489f82c50da540f4319" sha1="066c15cb7eed11120e663d9512dd5e2525b7bb9f" />

    Cuesheet:

FILE "MONKEY4_CD1.bin" BINARY
  TRACK 01 MODE1/2352
    INDEX 01 00:00:00

    Write Offset: -22

http://redump.org/disc/8145/
log: http://interbutt.com/misc/MONKEY4_CD2_logs.zip

Common Disc Info:
    Title: Escape from Monkey Island
    Foreign Title (Non-latin): 
    Disc Number / Letter: 2
    Disc Title: 
    System: IBM PC Compatible
    Media Type: CD-ROM
    Category: Games
    Matching IDs: 8145
    Region: USA
    Languages: English
    Disc Serial: 1101831

    Ringcode Information:
        Data Side Mastering Code (laser branded/etched): Technicolor    C4  167626-01    1101831
        Data Side Mastering SID Code: IFPI L894
        Data Side Toolstamp or Mastering Code (engraved/stamped): 
        Data Side Mould SID Code: IFPI 4M05
        Data Side Additional Mould: NIMBUS/CA
        Label Side Mould SID Code: 
        Label Side Additional Mould: 
    Barcode: 0 23272 11081 9
    Error Count: 0
    Comments: 
    Contents: 

Version and Editions:
    Version: 1.0
    Edition/Release: Original

Extras:
    Primary Volume Descriptor (PVD):

0320 : 20 20 20 20 20 20 20 20  20 20 20 20 20 32 30 30                200
0330 : 30 31 30 32 32 32 30 34  30 31 32 30 30 00 32 30   0102220401200.20
0340 : 30 30 31 30 32 32 32 30  34 30 31 32 30 30 00 30   00102220401200.0
0350 : 30 30 30 30 30 30 30 30  30 30 30 30 30 30 30 00   000000000000000.
0360 : 30 30 30 30 30 30 30 30  30 30 30 30 30 30 30 30   0000000000000000
0370 : 00 01 00 00 00 00 00 00  00 00 00 00 00 00 00 00   ................

Copy Protection:
    Copy Protection: None found

Tracks and Write Offsets:
    DAT:

<rom name="MONKEY4_CD2.bin" size="765677136" crc="46393d42" md5="50b863f12848b2901b17c2f20e321a7e" sha1="93265c8a0fab22aa5473ae84bdb979abc3a3f0d3" />

    Cuesheet:

FILE "MONKEY4_CD2.bin" BINARY
  TRACK 01 MODE1/2352
    FLAGS DCP
    INDEX 01 00:00:00

    Write Offset: -22

2

(0 replies, posted in Verifications)

http://redump.org/disc/28945/
log: http://interbutt.com/misc/TH11_logs.zip

Common Disc Info:
    Title: Touhou Chireiden: Subterranean Animism
    Foreign Title (Non-latin): 東方地霊殿 ~ Subterranean Animism
    Disc Number / Letter: 
    Disc Title: 
    System: IBM PC Compatible
    Media Type: CD-ROM
    Category: Games
    Matching IDs: 28945
    Region: Japan
    Languages: Japanese
    Disc Serial: ZSTH-0011

    Ringcode Information:
        Data Side Mastering Code (laser branded/etched): ZSTH-0011 MT 363
        Data Side Mastering SID Code: IFPI L153
        Data Side Toolstamp or Mastering Code (engraved/stamped): 
        Data Side Mould SID Code: IFPI 448G
        Data Side Additional Mould: 
        Label Side Mould SID Code: 
        Label Side Additional Mould: 
    Barcode: 
    Error Count: 0
    Comments: Doujin
    Contents: 

Version and Editions:
    Version: 1.00a
    Edition/Release: Original

Extras:
    Primary Volume Descriptor (PVD):

0320 : 20 20 20 20 20 20 20 20  20 20 20 20 20 32 30 30                200
0330 : 38 30 38 30 33 31 32 33  39 34 34 35 39 24 30 30   8080312394459$00
0340 : 30 30 30 30 30 30 30 30  30 30 30 30 30 30 24 30   00000000000000$0
0350 : 30 30 30 30 30 30 30 30  30 30 30 30 30 30 30 24   000000000000000$
0360 : 30 30 30 30 30 30 30 30  30 30 30 30 30 30 30 30   0000000000000000
0370 : 24 01 00 00 00 00 00 00  00 00 00 00 00 00 00 00   $...............

Copy Protection:
    Copy Protection: None found

Tracks and Write Offsets:
    DAT:

<rom name="TH11.bin" size="543521328" crc="0867206f" md5="772e06892e5060e1ffc5999284131d2e" sha1="e3208875fa480cde2db98e0d9e3fca128437456f" />

    Cuesheet:

FILE "TH11.bin" BINARY
  TRACK 01 MODE1/2352
    INDEX 01 00:00:00

    Write Offset: -12

3

(0 replies, posted in Verifications)

http://redump.org/disc/8682/
log: http://interbutt.com/misc/KOUMA_102F_logs.zip

Common Disc Info:
    Title: Touhou Koumakyou: The Embodiment of Scarlet Devil
    Foreign Title (Non-latin): 東方紅魔郷 ~ the Embodiment of Scarlet Devil
    Disc Number / Letter: 
    Disc Title: 
    System: IBM PC Compatible
    Media Type: CD-ROM
    Category: Games
    Matching IDs: 8682
    Region: Japan
    Languages: Japanese
    Disc Serial: ZSTH-0001

    Ringcode Information:
        Data Side Mastering Code (laser branded/etched): ZSTH-0001 MT 463
        Data Side Mastering SID Code: IFPI L154
        Data Side Toolstamp or Mastering Code (engraved/stamped): 
        Data Side Mould SID Code: IFPI 28B6
        Data Side Additional Mould: 
        Label Side Mould SID Code: 
        Label Side Additional Mould: 
    Barcode: 
    Error Count: 0
    Comments: Doujin
    Contents: 

Version and Editions:
    Version: 1.02f
    Edition/Release: Original

Extras:
    Primary Volume Descriptor (PVD):

0320 : 20 20 20 20 20 20 20 20  20 20 20 20 20 32 30 30                200
0330 : 32 30 38 33 31 30 34 35  37 33 30 39 36 24 30 30   2083104573096$00
0340 : 30 30 30 30 30 30 30 30  30 30 30 30 30 30 24 30   00000000000000$0
0350 : 30 30 30 30 30 30 30 30  30 30 30 30 30 30 30 24   000000000000000$
0360 : 30 30 30 30 30 30 30 30  30 30 30 30 30 30 30 30   0000000000000000
0370 : 24 01 00 00 00 00 00 00  00 00 00 00 00 00 00 00   $...............

Copy Protection:
    Copy Protection: None found

Tracks and Write Offsets:
    DAT:

<rom name="KOUMA_102F.bin" size="384196848" crc="52df7ece" md5="cb2083f490d1544e8a86f3c979680cc5" sha1="a2a6f383fbb6694207d928143e1b660ef768b608" />

    Cuesheet:

FILE "KOUMA_102F.bin" BINARY
  TRACK 01 MODE1/2352
    INDEX 01 00:00:00

    Write Offset: 13

4

(0 replies, posted in Verifications)

http://redump.org/disc/51592/
log: http://interbutt.com/misc/MADNESS_logs.zip

Common Disc Info:
    Title: Monkey Island Madness
    Foreign Title (Non-latin): 
    Disc Number / Letter: 
    Disc Title: 
    System: IBM PC Compatible
    Media Type: CD-ROM
    Category: Games
    Matching IDs: 51592
    Region: USA
    Languages: English
    Disc Serial: 8041835

    Ringcode Information:
        Mastering Code (laser branded/etched): KAO OPTICAL PRODUCTS    8041835    ***RF107730-600***
        Mastering SID Code: IFPI L957
        Data-Side Mould SID Code: IFPI 3H20
        Label-Side Mould SID Code: 
        Additional Mould: 
        Toolstamp or Mastering Code (engraved/stamped): 
    Barcode: 
    Error Count: 0
    Comments: 
Contents:

[+]Secret of Monkey Island, The

Monkey Island 2: LeChuck's Revenge

Curse of Monkey Island, The (Playable Demo)

Version and Editions:
    Version: 1.0
    Edition/Release: 

Extras:
    Primary Volume Descriptor (PVD):

0320 : 20 20 20 20 20 20 20 20  20 20 20 20 20 31 39 39                199
0330 : 37 30 38 32 32 31 34 35  36 32 39 30 30 00 31 39   7082214562900.19
0340 : 39 37 30 38 32 32 31 34  35 36 32 39 30 30 00 30   97082214562900.0
0350 : 30 30 30 30 30 30 30 30  30 30 30 30 30 30 30 00   000000000000000.
0360 : 30 30 30 30 30 30 30 30  30 30 30 30 30 30 30 30   0000000000000000
0370 : 00 01 00 00 00 00 00 00  00 00 00 00 00 00 00 00   ................

Copy Protection:
    Copy Protection: None found

Tracks and Write Offsets:
    DAT:

<rom name="MADNESS (Track 01).bin" size="145261872" crc="91cbf5b6" md5="7408443ab26e207e2347fbb08664eed8" sha1="e5a90874005999494028ad10276f9fbc074e7848" />
<rom name="MADNESS (Track 02).bin" size="21624288" crc="305deed1" md5="ad94f234a8587792444a0cdd52928837" sha1="2d0ff9768405027c805b46b841d141507402d931" />
<rom name="MADNESS (Track 03).bin" size="21904176" crc="c3b54c72" md5="e89dac68d98db74a31d285bc6a65e8c6" sha1="4bee18fe7376d730ecf21d8341bfc592ccc7adf0" />
<rom name="MADNESS (Track 04).bin" size="21838320" crc="9bc227c0" md5="3010cd1ee043d0e079b7db27a512dd2d" sha1="9efa93c4cea82000660705a6220b905559460445" />
<rom name="MADNESS (Track 05).bin" size="20394192" crc="e5c47295" md5="dd2dd2510df11d35970239f0d601725f" sha1="3fc6a8daa1d5286a9e0b09df9c5d734b7afd0553" />
<rom name="MADNESS (Track 06).bin" size="22482768" crc="064fae4a" md5="68653b1bcf07959f9b5c6b6b3e36fdfd" sha1="c990a62393356ce48d587a21687a06db8c9dc75b" />
<rom name="MADNESS (Track 07).bin" size="2196768" crc="db1e9758" md5="04963828ba67f0a8c3b8392237fa5bb4" sha1="cb7e8dfb7eaa71848816b5a13e940b54ebf0a809" />
<rom name="MADNESS (Track 08).bin" size="12336240" crc="85b0d45d" md5="6a00f3b712f495d2aa692705728e8004" sha1="4fde5b83b3f1c08b17608533cfa2b7f36c4ffd90" />
<rom name="MADNESS (Track 09).bin" size="24531360" crc="7010d1d2" md5="9fc1a009fd51d4d6536588afed95c453" sha1="8a2f91572b0759246aeec2b2ac05cca7fb6bd64f" />
<rom name="MADNESS (Track 10).bin" size="21880656" crc="bf260f6a" md5="9c441cea93aff357fd0549a083713584" sha1="a2aae08820b86a1d645b951a46af6b16b4ad2301" />
<rom name="MADNESS (Track 11).bin" size="16520448" crc="8bf1983d" md5="25d4c3978e02baa02d3457bff43a8137" sha1="5cc2c07371e83f2f8e1e02c1d874df099acc63c3" />
<rom name="MADNESS (Track 12).bin" size="24489024" crc="37f92bd8" md5="7cce721b5ce23205f47432c78d1a499c" sha1="90be958f98f409e6de21e324a19b00bd3e7e9e29" />
<rom name="MADNESS (Track 13).bin" size="21694848" crc="ca034a1c" md5="12239070ddc49e0b283e4180de323e5e" sha1="081f1c1332c50e1f598582600556d9b032c12903" />
<rom name="MADNESS (Track 14).bin" size="3248112" crc="2c3e4994" md5="f723fb780db60876afb3c6233476ba49" sha1="b9b2fb9a61429b7f1985adb268a78965117d9bc5" />
<rom name="MADNESS (Track 15).bin" size="27944112" crc="e429b674" md5="6751a535e8fbde021c03adc1a46e690e" sha1="2560fd359da940610a116b4c44468a7816a07ee6" />
<rom name="MADNESS (Track 16).bin" size="26262432" crc="ba940324" md5="c296c95b15df542c00d8de7b17bbf3de" sha1="964d554229ea66fbdffb0210c6cf2a649b436ae6" />
<rom name="MADNESS (Track 17).bin" size="39158448" crc="56f67d9d" md5="f1942dfb67cccd03d85a922b5b21f08c" sha1="100207f63525fd41b39fccd8cdeeac22dff326ba" />
<rom name="MADNESS (Track 18).bin" size="28593264" crc="40ef6890" md5="045db4f587f06454a1e33c3c72735f37" sha1="4aa6615d59b748a8ded2bb34253d5033eb96cb3f" />
<rom name="MADNESS (Track 19).bin" size="27864144" crc="61787dce" md5="4ab47859600507755a753530d9a97f8f" sha1="58f702f600ca5675b3c5507ce6aaed40be0b2461" />
<rom name="MADNESS (Track 20).bin" size="3243408" crc="a5b4a426" md5="c1cc7582c5a5d9b99bd7a54157775623" sha1="92ee61fc1d26f111a08834f294393e5ce61bd06b" />
<rom name="MADNESS (Track 21).bin" size="2972928" crc="3edb5d6b" md5="b93740f27a8c11d2dcb0fe6e949e54eb" sha1="7671914688a2d1cb9a9fdcbb758dc567e7f5ccdf" />
<rom name="MADNESS (Track 22).bin" size="23741088" crc="6f4b89f0" md5="834a5f0a3c1c7a72bc7647c4cdfc3ff2" sha1="98835b245bffb619c0015d6fa71151cd59c07e8a" />
<rom name="MADNESS (Track 23).bin" size="25133472" crc="21e0fe3e" md5="69511e0b8f6fb26214e90b3ef12d3891" sha1="e102bac1fecfeb177ecbdf82829b0755591298e6" />
<rom name="MADNESS (Track 24).bin" size="21574896" crc="864baa6c" md5="208d615d48e295996e7f5d7abc7e724f" sha1="cea4b2911e2dbf8abb8499fd38ebf8f0e9dfcf0a" />
<rom name="MADNESS (Track 25).bin" size="26168352" crc="4a3c2bc0" md5="f0d0adfe63ef83aba83d217a518efb87" sha1="0039ab35cc2c93d5c74643ef87eb69859ad8492a" />

    Cuesheet:

FILE "MADNESS (Track 01).bin" BINARY
  TRACK 01 MODE1/2352
    INDEX 01 00:00:00
FILE "MADNESS (Track 02).bin" BINARY
  TRACK 02 AUDIO
    INDEX 00 00:00:00
    INDEX 01 00:02:02
FILE "MADNESS (Track 03).bin" BINARY
  TRACK 03 AUDIO
    INDEX 01 00:00:00
FILE "MADNESS (Track 04).bin" BINARY
  TRACK 04 AUDIO
    INDEX 01 00:00:00
FILE "MADNESS (Track 05).bin" BINARY
  TRACK 05 AUDIO
    INDEX 01 00:00:00
FILE "MADNESS (Track 06).bin" BINARY
  TRACK 06 AUDIO
    INDEX 01 00:00:00
FILE "MADNESS (Track 07).bin" BINARY
  TRACK 07 AUDIO
    INDEX 01 00:00:00
FILE "MADNESS (Track 08).bin" BINARY
  TRACK 08 AUDIO
    INDEX 01 00:00:00
FILE "MADNESS (Track 09).bin" BINARY
  TRACK 09 AUDIO
    INDEX 01 00:00:00
FILE "MADNESS (Track 10).bin" BINARY
  TRACK 10 AUDIO
    INDEX 01 00:00:00
FILE "MADNESS (Track 11).bin" BINARY
  TRACK 11 AUDIO
    INDEX 01 00:00:00
FILE "MADNESS (Track 12).bin" BINARY
  TRACK 12 AUDIO
    INDEX 01 00:00:00
FILE "MADNESS (Track 13).bin" BINARY
  TRACK 13 AUDIO
    INDEX 01 00:00:00
FILE "MADNESS (Track 14).bin" BINARY
  TRACK 14 AUDIO
    INDEX 01 00:00:00
FILE "MADNESS (Track 15).bin" BINARY
  TRACK 15 AUDIO
    INDEX 01 00:00:00
FILE "MADNESS (Track 16).bin" BINARY
  TRACK 16 AUDIO
    INDEX 01 00:00:00
FILE "MADNESS (Track 17).bin" BINARY
  TRACK 17 AUDIO
    INDEX 01 00:00:00
FILE "MADNESS (Track 18).bin" BINARY
  TRACK 18 AUDIO
    INDEX 01 00:00:00
FILE "MADNESS (Track 19).bin" BINARY
  TRACK 19 AUDIO
    INDEX 01 00:00:00
FILE "MADNESS (Track 20).bin" BINARY
  TRACK 20 AUDIO
    INDEX 01 00:00:00
FILE "MADNESS (Track 21).bin" BINARY
  TRACK 21 AUDIO
    INDEX 01 00:00:00
FILE "MADNESS (Track 22).bin" BINARY
  TRACK 22 AUDIO
    INDEX 01 00:00:00
FILE "MADNESS (Track 23).bin" BINARY
  TRACK 23 AUDIO
    INDEX 01 00:00:00
FILE "MADNESS (Track 24).bin" BINARY
  TRACK 24 AUDIO
    INDEX 01 00:00:00
FILE "MADNESS (Track 25).bin" BINARY
  TRACK 25 AUDIO
    INDEX 01 00:00:00

    Write Offset: 588

5

(0 replies, posted in Verifications)

http://redump.org/disc/64601/
log: http://interbutt.com/misc/MoO3%20Install%20CD_logs.zip

Common Disc Info:
    Title: Master of Orion 3
    Foreign Title (Non-latin): 
    Disc Number / Letter: 1
    Disc Title: 
    System: IBM PC Compatible
    Media Type: CD-ROM
    Category: Games
    Matching IDs: 64601
    Region: USA
    Languages: English
    Disc Serial: 23338CD1

    Ringcode Information:
        Data Side Mastering Code (laser branded/etched): SONOPRESS USA    23338CCD1    + +    C0796-03
        Data Side Mastering SID Code: IFPI L028
        Data Side Toolstamp or Mastering Code (engraved/stamped): A06
        Data Side Mould SID Code: IFPI 1006
        Data Side Additional Mould: 
        Label Side Mould SID Code: 
        Label Side Additional Mould: 
    Barcode: 7 42725 23771 1
    Error Count: 0
    Comments: 
    Contents: 

Version and Editions:
    Version: 1.0
    Edition/Release: Original

Extras:
    Primary Volume Descriptor (PVD):

0320 : 20 20 20 20 20 20 20 20  20 20 20 20 20 32 30 30                200
0330 : 33 30 31 32 34 31 34 32  35 30 36 30 30 2D 32 30   3012414250600-20
0340 : 30 33 30 31 32 34 31 34  32 35 30 36 30 30 2D 31   03012414250600-1
0350 : 36 30 31 30 31 30 31 30  30 30 30 30 30 30 30 30   6010101000000000
0360 : 31 36 30 31 30 31 30 31  30 30 30 30 30 30 30 30   1601010100000000
0370 : 30 01 00 00 00 00 00 00  00 00 00 00 00 00 00 00   0...............

Copy Protection:
    Copy Protection: SecuROM 1-3

Tracks and Write Offsets:
    DAT:

<rom name="Install CD.bin" size="775393248" crc="d30bf261" md5="1a29f56b5f06acde03106fd973480bf6" sha1="1dad611c9fbda331a01b2e1ab1a40393b8756357" />

    Cuesheet:

FILE "Install CD.bin" BINARY
  TRACK 01 MODE2/2352
    INDEX 01 00:00:00

    Write Offset: -12

http://redump.org/disc/64602/
log: http://interbutt.com/misc/MoO3%20Play%20CD_logs.zip

Common Disc Info:
    Title: Master of Orion 3
    Foreign Title (Non-latin): 
    Disc Number / Letter: 2
    Disc Title: 
    System: IBM PC Compatible
    Media Type: CD-ROM
    Category: Games
    Matching IDs: 64602
    Region: USA
    Languages: English
    Disc Serial: 23338CD2

    Ringcode Information:
        Data Side Mastering Code (laser branded/etched): sono press    + +    BJ122-01    23338CD2
        Data Side Mastering SID Code: IFPI LB48
        Data Side Toolstamp or Mastering Code (engraved/stamped): A05
        Data Side Mould SID Code: IFPI 1009
        Data Side Additional Mould: 
        Label Side Mould SID Code: 
        Label Side Additional Mould: 
    Barcode: 742725237711
    Error Count: 1
    Comments: 
    Contents: 

Version and Editions:
    Version: 1.0
    Edition/Release: Original

Extras:
    Primary Volume Descriptor (PVD):

0320 : 20 20 20 20 20 20 20 20  20 20 20 20 20 32 30 30                200
0330 : 32 31 31 30 35 31 35 31  38 33 35 30 30 00 32 30   2110515183500.20
0340 : 30 32 31 31 30 35 31 35  31 38 33 35 30 30 00 30   02110515183500.0
0350 : 30 30 30 30 30 30 30 30  30 30 30 30 30 30 30 00   000000000000000.
0360 : 30 30 30 30 30 30 30 30  30 30 30 30 30 30 30 30   0000000000000000
0370 : 00 01 00 00 00 00 00 00  00 00 00 00 00 00 00 00   ................

Copy Protection:
    Copy Protection: None found
    SubIntention Data (SecuROM/LibCrypt):

MSF: 00:01:74 Q-Data: 410100 00:40:01 00 00:03:74 2ef1
MSF: 01:08:50 Q-Data: 410101 21:06:50 00 05:08:50 0a8f
MSF: 01:23:29 Q-Data: 410101 01:21:2b 00 01:23:69 779e
MSF: 01:24:03 Q-Data: 410101 01:02:03 00 01:20:03 ebdb
MSF: 01:28:60 Q-Data: 410101 21:26:60 00 05:28:60 03dc
MSF: 01:32:01 Q-Data: 410101 01:30:05 00 01:32:21 b70b
MSF: 01:43:23 Q-Data: 410101 01:41:22 00 01:43:a3 c448
MSF: 02:58:28 Q-Data: 410101 02:16:28 00 02:5a:28 1542
MSF: 03:27:55 Q-Data: 410101 02:25:55 00 83:27:55 9ace
MSF: 03:44:45 Q-Data: 410101 03:42:65 00 03:44:41 4585
MSF: 03:55:67 Q-Data: 410101 03:53:6f 00 03:55:77 62f4

Tracks and Write Offsets:
    DAT:

<rom name="Play CD.bin" size="462367920" crc="e6f46518" md5="d9abda2a86f223abbbd794e41272a100" sha1="022979cb926c9238f2ae543a3649bb257deceeb3" />

    Cuesheet:

FILE "Play CD.bin" BINARY
  TRACK 01 MODE1/2352
    INDEX 01 00:00:00

    Write Offset: -12

6

(0 replies, posted in Verifications)

http://redump.org/disc/43103/
log: http://interbutt.com/misc/HEROES_logs.zip

Common Disc Info:
    Title: Heroes of Might and Magic
    Foreign Title (Non-latin): 
    Disc Number / Letter: 1
    Disc Title: 
    System: IBM PC Compatible
    Media Type: CD-ROM
    Category: Games
    Matching IDs: 43103
    Region: USA
    Languages: English
    Disc Serial: PCD-5138-001

    Ringcode Information:
        Data Side Mastering Code (laser branded/etched): PCD5138001 R1H
        Data Side Mastering SID Code: IFPI L238
        Data Side Toolstamp or Mastering Code (engraved/stamped): 11
        Data Side Mould SID Code: IFPI 4121
        Data Side Additional Mould: 
        Label Side Mould SID Code: 
        Label Side Additional Mould: 
    Barcode: 7 90561 51381 0
    Error Count: 0
    Comments: 
    Contents: 

Version and Editions:
    Version: 
    Edition/Release: 3DO Greatest Hits

Extras:
    Primary Volume Descriptor (PVD):

0320 : 20 20 20 20 20 20 20 20  20 20 20 20 20 32 30 30                200
0330 : 30 30 36 32 38 31 33 35  34 30 32 30 30 E0 32 30   0062813540200.20
0340 : 30 30 30 36 32 38 31 33  35 34 30 32 30 30 E0 32   00062813540200.2
0350 : 30 31 30 30 36 32 38 31  33 35 34 30 32 30 30 E0   010062813540200.
0360 : 32 30 30 30 30 36 32 38  31 33 35 34 30 32 30 30   2000062813540200
0370 : E0 01 00 43 44 20 52 65  70 20 32 2E 30 2E 31 35   ...CD Rep 2.0.15

Copy Protection:
    Copy Protection: None found

Tracks and Write Offsets:
    DAT:

<rom name="HEROES (Track 01).bin" size="202083840" crc="c75f3fa6" md5="911ff14f18e437d7146c217f31820429" sha1="1ed4b77f60666769aeab727ed01e204256664b7a" />
<rom name="HEROES (Track 02).bin" size="28118160" crc="94d2a71a" md5="aa5fd164a22010f4621c7ac139af29f7" sha1="caf6677d2c3bb2de46c799ad564c37ed8095c775" />
<rom name="HEROES (Track 03).bin" size="21024528" crc="3afcfe49" md5="252a1d79d34dc85f3ffbc5a88b6b6e63" sha1="5899e447a6e57bec0a48b2acb4f241033ac818a6" />
<rom name="HEROES (Track 04).bin" size="28955472" crc="8314bb68" md5="e8d07b6de415aa811f47fd09f4ac5288" sha1="064ce83b4f7051814bb1502795e89ba7d56dd9c9" />
<rom name="HEROES (Track 05).bin" size="27873552" crc="1f36121a" md5="56942bd1d42664349edd50cd64704057" sha1="cd3363d1c03e1929cbd7eafe2a219f05fff0498e" />
<rom name="HEROES (Track 06).bin" size="22304016" crc="c218baa8" md5="af6e93672b8689f5bd2c6d61f0453560" sha1="0b642f340bebbd59b5453bf41aa0bf1ee01c2245" />
<rom name="HEROES (Track 07).bin" size="21977088" crc="8ff3c874" md5="d684964aae660c7014d2220378c143a8" sha1="d4071771db65e876edc92fd607fa0426be24afa9" />
<rom name="HEROES (Track 08).bin" size="21062160" crc="58dd095e" md5="fb757e4ef85af776d4a3310b9e756e36" sha1="a1c1df203eb9c7955cb7791b8c10c1795508a272" />
<rom name="HEROES (Track 09).bin" size="1131312" crc="95697504" md5="c4e5255fbf2599f48b8ce65f0ec3204b" sha1="ad462fdb778cdc2e0e7d116c3267eced8eb691ce" />
<rom name="HEROES (Track 10).bin" size="1176000" crc="b1f6f8ce" md5="c9c34f6b00d503fcc1bfe45cc26af57c" sha1="1f65c8ec919bf89bc380961ad85298151b22cbb7" />
<rom name="HEROES (Track 11).bin" size="1065456" crc="8a75f98d" md5="4003e5e885af05b47545e19772b1c5aa" sha1="456f8096dabc4056af7d7546adb7cbb1953c1f1c" />
<rom name="HEROES (Track 12).bin" size="1328880" crc="bf85adcc" md5="a49fd28ce6e1836441cb0ae60579d264" sha1="721abab5cd1d24de794e2ed5d9358f6e6bf952ad" />
<rom name="HEROES (Track 13).bin" size="1164240" crc="6d2c277a" md5="60340b7c62792d2ade65a67cbec18f12" sha1="92378b53015c82131d48c541c100669e98e424a0" />
<rom name="HEROES (Track 14).bin" size="1667568" crc="0a48d188" md5="c3feba231adbf9cc38e128824b21f2aa" sha1="def8a004dc27aedd6cc7deaa56f23a1ac66cdcc3" />
<rom name="HEROES (Track 15).bin" size="1860432" crc="8dac7dd6" md5="dbc627ac756b64b62af55321b538276c" sha1="8c887463c14bbd9072563c24a3ddece8b9757c32" />
<rom name="HEROES (Track 16).bin" size="1303008" crc="a841eeef" md5="941fa5ee5e8157f2ac66ae32f77ef475" sha1="3ba69489be8a0413397dae9cc8d1a19749dbeb83" />
<rom name="HEROES (Track 17).bin" size="1260672" crc="c2241736" md5="e2b418b42ac9187afd49bfd7bb19fd9e" sha1="29b35b59b14cdaed440fe1a2f4ffece5ea29825e" />
<rom name="HEROES (Track 18).bin" size="1053696" crc="46919df3" md5="2d939d68f73e5a0b3d0c62733c1572f6" sha1="30a4b74b809627a1d056280da3f78c03e5adc146" />
<rom name="HEROES (Track 19).bin" size="1397088" crc="b20a77ea" md5="e88ace43d621f3f8767c72b92b543597" sha1="0b7b550789461fed56f9043aac2b572f5d3db0f7" />
<rom name="HEROES (Track 20).bin" size="1053696" crc="b4a2e053" md5="3d1fd3fad9f773a4c7347d549a0bc515" sha1="d4dfac22730ef9fb1f3793786f4c17a6ed87f7e2" />
<rom name="HEROES (Track 21).bin" size="1223040" crc="bef6291c" md5="fbfcdb579d274a2ab01f4fc1c91f90db" sha1="ed03cb444ccd1406d3f07284a6bfaeaefae0c41e" />
<rom name="HEROES (Track 22).bin" size="1098384" crc="553e61aa" md5="42963d736830618bb0ba730d53ec05a7" sha1="73385055a37ba0f48e285a7a6366eaf230869c08" />
<rom name="HEROES (Track 23).bin" size="1053696" crc="1bdd46d0" md5="e5c2cc10723d78177f419cd155e1bc2d" sha1="1fca5fbba099dc55122524a46e168784cda47624" />
<rom name="HEROES (Track 24).bin" size="1053696" crc="f3742bb3" md5="0490af4d0d09f5e94768e862eaa49663" sha1="9c9f7278dc0418b40c8def940ef69b372ea1237d" />
<rom name="HEROES (Track 25).bin" size="1053696" crc="eca27e37" md5="343acd11e5421dbb530d819b11e4db10" sha1="a1019b303c67fe5fa7e9d094961412945c11dbce" />
<rom name="HEROES (Track 26).bin" size="1053696" crc="352d1ad0" md5="d0c387fe8f46026259b6048677c8c017" sha1="28af511f68a4a5ebfc150c7d5232e32dab4de1b0" />
<rom name="HEROES (Track 27).bin" size="1053696" crc="0284532c" md5="854b3e1d87e946a4214f260b643923a9" sha1="995344d5e27b4b735fdd27ed62f72a7741fa1e89" />
<rom name="HEROES (Track 28).bin" size="1053696" crc="5aea475f" md5="cb4fa12133ea71695c82013885445ba7" sha1="79f09dc17258d59d9c520965c7dc847a4843e654" />
<rom name="HEROES (Track 29).bin" size="1072512" crc="e672a402" md5="7d12bc2eca3b359490ac521448c2f88f" sha1="7d58e0353a5629d5bfbbc8a0522a91fa90d0a8b4" />
<rom name="HEROES (Track 30).bin" size="1646400" crc="adaff0dc" md5="21cbfb72c3a3cf8c9111a593af2b8445" sha1="8804f3b03979a7d3208152fd4cb02bf162da3269" />
<rom name="HEROES (Track 31).bin" size="34595568" crc="0301d752" md5="cfa2c20764d8b8b0f76265fb5abab686" sha1="a3466c2f7efaec1764c52b419fa9265b960403c7" />
<rom name="HEROES (Track 32).bin" size="47667984" crc="22830a64" md5="6d50e3470fac1ab16aecf3a3fab6fe5a" sha1="a0b759815b2790b333dd6d45726d3f5f99b649a0" />
<rom name="HEROES (Track 33).bin" size="39986352" crc="4c2ffa0b" md5="e1686228c95122b340c55532f7040f86" sha1="1dac00efd008eb2458000c2ba9772da4025d40c6" />
<rom name="HEROES (Track 34).bin" size="47305776" crc="11f3c6b7" md5="728482878f4863f6afe3d88d813b1eef" sha1="e79c23c87a8f0f3d8045f1d7e5240f9ea7837657" />
<rom name="HEROES (Track 35).bin" size="29571696" crc="92a874d9" md5="4fb06cd8d19fbdea61d74a03a4e3719e" sha1="06f484f7662da37f359436155881047fa01fd50d" />
<rom name="HEROES (Track 36).bin" size="19084128" crc="df3c01b1" md5="407a4d30534f80a5a3cb8244a481769f" sha1="e08246cb02daf32c732e947c051d3552fc1f8e48" />
<rom name="HEROES (Track 37).bin" size="21581952" crc="c0e57e8a" md5="c90245cba80ccf898962a3164817848f" sha1="f464cfa19139456452d0ee63cb477f0af5130b1a" />
<rom name="HEROES (Track 38).bin" size="2495472" crc="0c1eda8c" md5="62f6c40f7ce3864d2fc718765797a31a" sha1="7f279275a653847a8939215d67b5938e09ac74ec" />
<rom name="HEROES (Track 39).bin" size="3647952" crc="5d533e0a" md5="1836f45196a42ff44d7b9229fbb1bb48" sha1="c953cf0af916b8bfcd19766cc3abb09b0d4753d6" />
<rom name="HEROES (Track 40).bin" size="3647952" crc="2828770e" md5="bebbd34d1a069f8b98616dbb8dd81bac" sha1="a85c02c2f2aaef6ea8e0e0be1f78c42d3d5bec54" />
<rom name="HEROES (Track 41).bin" size="2217936" crc="549c5ffc" md5="c9a8ece6f33dce1a489d9d08aa80e11a" sha1="e552c6ed703ae74f6711bfa3c1a27a09bd7f274b" />
<rom name="HEROES (Track 42).bin" size="7025424" crc="dc63856a" md5="3f468c023432006d1ea11eaede649fcd" sha1="176d789060454d24531d0be990750a275f348db0" />
<rom name="HEROES (Track 43).bin" size="15412656" crc="5774d2d1" md5="c9b435fcb3ec500648c17c1ff43dec65" sha1="b4bac35e67bfb0a93c359731533e62d8be597957" />
<rom name="HEROES (Track 44).bin" size="11708256" crc="237d7d7c" md5="98685e518383da51224c416686ce9be6" sha1="685e9822a48d904f22cd94b916e692b4109e23d2" />
<rom name="HEROES (Track 45).bin" size="1053696" crc="9035ec65" md5="8365c8b0512ee189b8a18fabfdf75b57" sha1="632a035e7241f98c9dc93ae0c899b8c7e0206334" />
<rom name="HEROES (Track 46).bin" size="1053696" crc="301450c4" md5="c6949f43bb0bc33692a3bd93978d8d0a" sha1="c9314890561b0e6a6af727c5770a3a7f64b9adb6" />
<rom name="HEROES (Track 47).bin" size="1053696" crc="53d470e0" md5="2c212a17176980991403a892d7c84cde" sha1="629518ae5efdb3472d17d57116c09c8368227325" />
<rom name="HEROES (Track 48).bin" size="25610928" crc="92f04817" md5="48d366b4854657412d38fb36cde8b800" sha1="c4a6209fcad9336b32ec4d3ab8c7055de4f51d1a" />
<rom name="HEROES (Track 49).bin" size="11482464" crc="de0d5307" md5="31ec5cc1305a047022de1994d5627848" sha1="df729e7cbb3b3316036f99835d0b9f387064f10a" />
<rom name="HEROES (Track 50).bin" size="12239808" crc="925a7489" md5="f4049a7097658a5a03828d34321f66c3" sha1="3bcce3d7618a5b63fa89deb6838fbda764e51f58" />

    Cuesheet:

FILE "HEROES (Track 01).bin" BINARY
  TRACK 01 MODE1/2352
    INDEX 01 00:00:00
FILE "HEROES (Track 02).bin" BINARY
  TRACK 02 AUDIO
    INDEX 00 00:00:00
    INDEX 01 00:02:00
FILE "HEROES (Track 03).bin" BINARY
  TRACK 03 AUDIO
    INDEX 01 00:00:00
FILE "HEROES (Track 04).bin" BINARY
  TRACK 04 AUDIO
    INDEX 01 00:00:00
FILE "HEROES (Track 05).bin" BINARY
  TRACK 05 AUDIO
    INDEX 01 00:00:00
FILE "HEROES (Track 06).bin" BINARY
  TRACK 06 AUDIO
    INDEX 01 00:00:00
FILE "HEROES (Track 07).bin" BINARY
  TRACK 07 AUDIO
    INDEX 01 00:00:00
FILE "HEROES (Track 08).bin" BINARY
  TRACK 08 AUDIO
    INDEX 01 00:00:00
FILE "HEROES (Track 09).bin" BINARY
  TRACK 09 AUDIO
    INDEX 01 00:00:00
FILE "HEROES (Track 10).bin" BINARY
  TRACK 10 AUDIO
    INDEX 01 00:00:00
FILE "HEROES (Track 11).bin" BINARY
  TRACK 11 AUDIO
    INDEX 01 00:00:00
FILE "HEROES (Track 12).bin" BINARY
  TRACK 12 AUDIO
    INDEX 01 00:00:00
FILE "HEROES (Track 13).bin" BINARY
  TRACK 13 AUDIO
    INDEX 01 00:00:00
FILE "HEROES (Track 14).bin" BINARY
  TRACK 14 AUDIO
    INDEX 01 00:00:00
FILE "HEROES (Track 15).bin" BINARY
  TRACK 15 AUDIO
    INDEX 01 00:00:00
FILE "HEROES (Track 16).bin" BINARY
  TRACK 16 AUDIO
    INDEX 01 00:00:00
FILE "HEROES (Track 17).bin" BINARY
  TRACK 17 AUDIO
    INDEX 01 00:00:00
FILE "HEROES (Track 18).bin" BINARY
  TRACK 18 AUDIO
    INDEX 01 00:00:00
FILE "HEROES (Track 19).bin" BINARY
  TRACK 19 AUDIO
    INDEX 01 00:00:00
FILE "HEROES (Track 20).bin" BINARY
  TRACK 20 AUDIO
    INDEX 01 00:00:00
FILE "HEROES (Track 21).bin" BINARY
  TRACK 21 AUDIO
    INDEX 01 00:00:00
FILE "HEROES (Track 22).bin" BINARY
  TRACK 22 AUDIO
    INDEX 01 00:00:00
FILE "HEROES (Track 23).bin" BINARY
  TRACK 23 AUDIO
    INDEX 01 00:00:00
FILE "HEROES (Track 24).bin" BINARY
  TRACK 24 AUDIO
    INDEX 01 00:00:00
FILE "HEROES (Track 25).bin" BINARY
  TRACK 25 AUDIO
    INDEX 01 00:00:00
FILE "HEROES (Track 26).bin" BINARY
  TRACK 26 AUDIO
    INDEX 01 00:00:00
FILE "HEROES (Track 27).bin" BINARY
  TRACK 27 AUDIO
    INDEX 01 00:00:00
FILE "HEROES (Track 28).bin" BINARY
  TRACK 28 AUDIO
    INDEX 01 00:00:00
FILE "HEROES (Track 29).bin" BINARY
  TRACK 29 AUDIO
    INDEX 01 00:00:00
FILE "HEROES (Track 30).bin" BINARY
  TRACK 30 AUDIO
    INDEX 01 00:00:00
FILE "HEROES (Track 31).bin" BINARY
  TRACK 31 AUDIO
    INDEX 01 00:00:00
FILE "HEROES (Track 32).bin" BINARY
  TRACK 32 AUDIO
    INDEX 01 00:00:00
FILE "HEROES (Track 33).bin" BINARY
  TRACK 33 AUDIO
    INDEX 01 00:00:00
FILE "HEROES (Track 34).bin" BINARY
  TRACK 34 AUDIO
    INDEX 01 00:00:00
FILE "HEROES (Track 35).bin" BINARY
  TRACK 35 AUDIO
    INDEX 01 00:00:00
FILE "HEROES (Track 36).bin" BINARY
  TRACK 36 AUDIO
    INDEX 01 00:00:00
FILE "HEROES (Track 37).bin" BINARY
  TRACK 37 AUDIO
    INDEX 01 00:00:00
FILE "HEROES (Track 38).bin" BINARY
  TRACK 38 AUDIO
    INDEX 01 00:00:00
FILE "HEROES (Track 39).bin" BINARY
  TRACK 39 AUDIO
    INDEX 01 00:00:00
FILE "HEROES (Track 40).bin" BINARY
  TRACK 40 AUDIO
    INDEX 01 00:00:00
FILE "HEROES (Track 41).bin" BINARY
  TRACK 41 AUDIO
    INDEX 01 00:00:00
FILE "HEROES (Track 42).bin" BINARY
  TRACK 42 AUDIO
    INDEX 01 00:00:00
FILE "HEROES (Track 43).bin" BINARY
  TRACK 43 AUDIO
    INDEX 01 00:00:00
FILE "HEROES (Track 44).bin" BINARY
  TRACK 44 AUDIO
    INDEX 01 00:00:00
FILE "HEROES (Track 45).bin" BINARY
  TRACK 45 AUDIO
    INDEX 01 00:00:00
FILE "HEROES (Track 46).bin" BINARY
  TRACK 46 AUDIO
    INDEX 01 00:00:00
FILE "HEROES (Track 47).bin" BINARY
  TRACK 47 AUDIO
    INDEX 01 00:00:00
FILE "HEROES (Track 48).bin" BINARY
  TRACK 48 AUDIO
    INDEX 01 00:00:00
FILE "HEROES (Track 49).bin" BINARY
  TRACK 49 AUDIO
    INDEX 01 00:00:00
FILE "HEROES (Track 50).bin" BINARY
  TRACK 50 AUDIO
    INDEX 01 00:00:00

    Write Offset: 0

http://redump.org/disc/14490
log: http://interbutt.com/misc/SPIDER_logs.zip

Common Disc Info:
    Title: My First Encyclopedia & Spider-Man Cartoon Maker
    Foreign Title (Non-latin): 
    Disc Number / Letter: 
    Disc Title: 
    System: IBM PC Compatible
    Media Type: CD-ROM
    Category: Educational
    Matching IDs: 14490
    Region: USA
    Languages: English
    Disc Serial: 170545

    Ringcode Information:
        Data Side Mastering Code (laser branded/etched): MFG. BY 3888    FM10739    (170545/P.B.)    C2    108830-02
        Data Side Mastering SID Code: IFPI L892
        Data Side Toolstamp or Mastering Code (engraved/stamped): 
        Data Side Mould SID Code: 
        Data Side Additional Mould: 
        Label Side Mould SID Code: 
        Label Side Additional Mould: 
    Barcode: 
    Error Count: 0
    Comments: 
    Contents: 

Version and Editions:
    Version: 
    Edition/Release: Packard Bell OEM

Extras:
    Primary Volume Descriptor (PVD):

0320 : 20 20 20 20 20 20 20 20  20 20 20 20 20 31 39 39                199
0330 : 35 31 32 30 38 31 33 32  35 35 35 00 00 04 31 39   51208132555...19
0340 : 39 35 31 32 30 38 31 33  32 35 35 35 00 00 04 32   951208132555...2
0350 : 39 39 35 31 32 30 38 31  33 32 35 35 34 00 00 04   9951208132554...
0360 : 31 39 39 35 31 32 30 38  31 33 32 35 35 34 00 00   19951208132554..
0370 : 04 01 00 00 00 00 00 00  00 00 00 00 00 00 00 00   ................

Copy Protection:
    Copy Protection: None found

Tracks and Write Offsets:
    DAT:

<rom name="SPIDER.bin" size="748175904" crc="522d6ed3" md5="17922b20532e800756c87aa4edb036fe" sha1="738ec5004c80f50ff4b4305dd725441b1d268602" />

    Cuesheet:

FILE "SPIDER.bin" BINARY
  TRACK 01 MODE1/2352
    INDEX 01 00:00:00

    Write Offset: -22

8

(0 replies, posted in Verifications)

http://redump.org/disc/25630

Common Disc Info:
    Title: Nuke It 1000
    Foreign Title (Non-latin): "NUKE IT 1000"
    Disc Number / Letter: 
    Disc Title: 
    System: IBM PC Compatible
    Media Type: CD-ROM
    Category: Add-Ons
    Matching IDs: 25630
    Region: USA
    Languages: English
    Disc Serial: 

    Ringcode Information:
        Data Side Mastering Code (laser branded/etched): SOFTWORLD    C1.1    116491-01    96101127
        Data Side Mastering SID Code: IFPI L891
        Data Side Toolstamp or Mastering Code (engraved/stamped): 
        Data Side Mould SID Code: 
        Data Side Additional Mould: 
        Label Side Mould SID Code: 
        Label Side Additional Mould: 
    Barcode: 
    Error Count: 0
    Comments: Over 1000 new levels for Duke Nukem 3D
    Contents: 

Version and Editions:
    Version: 2.0
    Edition/Release: Original

Extras:
    Primary Volume Descriptor (PVD):

0320 : 20 20 20 20 20 20 20 20  20 20 20 20 20 00 00 00                ...
0330 : 00 00 00 00 00 00 00 00  00 00 00 00 00 00 00 00   ................
0340 : 00 00 00 00 00 00 00 00  00 00 00 00 00 00 00 00   ................
0350 : 00 00 00 00 00 00 00 00  00 00 00 00 00 00 00 00   ................
0360 : 00 00 00 00 00 00 00 00  00 00 00 00 00 00 00 00   ................
0370 : 00 01 00 00 00 00 00 00  00 00 00 00 00 00 00 00   ................

Copy Protection:
    Copy Protection: None found

Tracks and Write Offsets:
    DAT:

<rom name="NUKEIT1000.bin" size="93898896" crc="f6abce9f" md5="d51943fdefb2e432ca2973b7b4943c51" sha1="cb6898d38aa3b104cbf18c1ce18c688a4d8dbf68" />

    Cuesheet:

FILE "NUKEIT1000.bin" BINARY
  TRACK 01 MODE1/2352
    INDEX 01 00:00:00

    Write Offset: -22

9

(0 replies, posted in Verifications)

http://redump.org/disc/4472
http://interbutt.com/misc/Magic%20& … 20logs.zip

Common Disc Info:
    Title: Magic & Mayhem for Heretic
    Foreign Title (Non-latin): 
    Disc Number / Letter: 
    Disc Title: 
    System: IBM PC Compatible
    Media Type: CD-ROM
    Category: Add-Ons
    Matching IDs: 4472
    Region: USA
    Languages: English
    Disc Serial: 

    Ringcode Information:
        Data Side Mastering Code (laser branded/etched): ZOMAX OPTICAL-PLYMOUTH MN-Z11445 0KFG1<1005>
        Data Side Mastering SID Code: 
        Data Side Toolstamp or Mastering Code (engraved/stamped): 
        Data Side Mould SID Code: IFPI 8128
        Data Side Additional Mould: 
        Label Side Mould SID Code: 
        Label Side Additional Mould: 
    Barcode: 7 58469 01140 1
    Error Count: 0
    Comments: 
    Contents: 

Version and Editions:
    Version: 
    Edition/Release: Original

Extras:
    Primary Volume Descriptor (PVD):

0320 : 20 20 20 20 20 20 20 20  20 20 20 20 20 30 30 30                000
0330 : 30 30 30 30 30 30 30 30  30 30 30 30 30 00 30 30   0000000000000.00
0340 : 30 30 30 30 30 30 30 30  30 30 30 30 30 30 00 30   00000000000000.0
0350 : 30 30 30 30 30 30 30 30  30 30 30 30 30 30 30 00   000000000000000.
0360 : 30 30 30 30 30 30 30 30  30 30 30 30 30 30 30 30   0000000000000000
0370 : 00 01 00 00 00 00 00 00  00 00 00 00 00 00 00 00   ................

Copy Protection:
    Copy Protection: None found

Tracks and Write Offsets:
    DAT:

<rom name="track.bin" size="213563952" crc="c32625ba" md5="fa5dc7ab70dd4f165fa977a0d743b2a6" sha1="9634df7183580032e93dbc89f7b40599a11a262e" />

    Cuesheet:

CATALOG 0000000000000
FILE "track.bin" BINARY
  TRACK 01 MODE1/2352
    INDEX 01 00:00:00

    Write Offset: 222

10

(2 replies, posted in Guests & account requests)

Done, thanks!

11

(2 replies, posted in Guests & account requests)

I'd like to update http://wiki.redump.org/index.php?title= … _audio_CDs to remove some discs I dumped and make some romanization corrections to http://wiki.redump.org/index.php?title= … sing_Dumps

12

(0 replies, posted in Verifications)

http://redump.org/disc/2328/

Common Disc Info:
    Title: Descent
    Foreign Title (Non-latin): 
    Disc Number / Letter: 
    Disc Title: 
    System: IBM PC Compatible
    Media Type: CD-ROM
    Category: Games
    Matching IDs: 2328
    Region: USA
    Languages: English
    Disc Serial: CD-ICD-118-0

    Ringcode Information:
        Data Side Mastering Code (laser branded/etched): IPC SOFTWARE SERVICES    C1    102780-01    *CA24280
        Data Side Mastering SID Code: 
        Data Side Toolstamp or Mastering Code (engraved/stamped): 
        Data Side Mould SID Code: 
        Data Side Additional Mould: 
        Label Side Mould SID Code: 
        Label Side Additional Mould: 
    Barcode: 0 40421 13118 1
    Error Count: 0
    Comments: -22 offset disc: No MCN
    Contents: 

Version and Editions:
    Version: 1.0
    Edition/Release: Original

Extras:
    Primary Volume Descriptor (PVD):

0320 : 20 20 20 20 20 20 20 20  20 20 20 20 20 31 39 39                199
0330 : 35 30 32 31 35 31 37 35  35 34 35 30 30 00 31 39   5021517554500.19
0340 : 39 35 30 32 31 35 31 37  35 35 34 35 30 30 00 00   95021517554500..
0350 : 00 00 00 00 00 00 00 00  00 00 00 00 00 00 00 00   ................
0360 : 31 39 39 35 30 32 31 35  31 37 35 35 34 35 30 30   1995021517554500
0370 : 00 01 00 00 00 00 00 00  00 00 00 00 00 00 00 00   ................

Copy Protection:
    Copy Protection: None found

Tracks and Write Offsets:
    DAT:

<rom name="DESCENT.bin" size="19505136" crc="ea09679d" md5="b9c01612bf2cb16d79260706d8f42144" sha1="31c212a45cfdcc48f51dc05c189f8418d68fae80" />

    Cuesheet:

FILE "DESCENT.bin" BINARY
  TRACK 01 MODE1/2352
    INDEX 01 00:00:00

    Write Offset: -22

Bundle with Splinter Cell and Beyond Good & Evil

http://redump.org/disc/30483/
log: http://interbutt.com/misc/POP_INSTALL_logs.zip

Common Disc Info:
    Title: Prince of Persia: The Sands of Time
    Foreign Title (Non-latin): 
    Disc Number / Letter: 1
    Disc Title: 
    System: IBM PC Compatible
    Media Type: CD-ROM
    Category: Games
    Matching IDs: 30483
    Region: USA
    Languages: English, French, Spanish
    Disc Serial: 751595-CD1

    Ringcode Information:
        Data Side Mastering Code (laser branded/etched): 9/17/2005 2:29:07 AM    0364864 01
        Data Side Mastering SID Code: IFPI LN07
        Data Side Toolstamp or Mastering Code (engraved/stamped): 
        Data Side Mould SID Code: IFPI JI03
        Data Side Additional Mould: 
        Label Side Mould SID Code: 
        Label Side Additional Mould: 
    Barcode: 
    Error Count: 0
    Comments: 
    Contents: 

Version and Editions:
    Version: 1.00.181
    Edition/Release: Ubisoft Bundle

Extras:
    Primary Volume Descriptor (PVD):

0320 : 20 20 20 20 20 20 20 20  20 20 20 20 20 32 30 30                200
0330 : 33 31 31 31 31 31 31 31  32 35 30 30 30 EC 32 30   3111111125000.20
0340 : 30 33 31 31 31 31 31 31  31 32 35 30 30 30 EC 30   03111111125000.0
0350 : 30 30 30 30 30 30 30 30  30 30 30 30 30 30 30 00   000000000000000.
0360 : 32 30 30 33 31 31 31 31  31 31 31 32 35 30 30 30   2003111111125000
0370 : EC 01 00 20 20 20 20 20  20 20 20 20 20 20 20 20   ...

Copy Protection:
    Copy Protection: None found

Tracks and Write Offsets:
    DAT:

<rom name="POP_INSTALL.bin" size="839868624" crc="d847b9f2" md5="8f4ec55df813afd96b0b7835b5756c8e" sha1="cb6c311436dfc9aa94ef2e85f2812af1097d60bd" />

    Cuesheet:

FILE "POP_INSTALL.bin" BINARY
  TRACK 01 MODE1/2352
    INDEX 01 00:00:00

    Write Offset: -12

http://redump.org/disc/30484/
log: http://interbutt.com/misc/POP_PLAY_logs.zip

Common Disc Info:
    Title: Prince of Persia: The Sands of Time
    Foreign Title (Non-latin): 
    Disc Number / Letter: 2
    Disc Title: 
    System: IBM PC Compatible
    Media Type: CD-ROM
    Category: Games
    Matching IDs: 30484
    Region: USA
    Languages: English, French, Spanish
    Disc Serial: 751595-CD2

    Ringcode Information:
        Data Side Mastering Code (laser branded/etched): 9/16/2005 4:18:15 PM    0364873 01
        Data Side Mastering SID Code: IFPI LN07
        Data Side Toolstamp or Mastering Code (engraved/stamped): 
        Data Side Mould SID Code: IFPI JI09
        Data Side Additional Mould: 
        Label Side Mould SID Code: 
        Label Side Additional Mould: 
    Barcode: 
    Error Count: 0
    Comments: 
    Contents: 

Version and Editions:
    Version: 1.00.181
    Edition/Release: Ubisoft Bundle

Extras:
    Primary Volume Descriptor (PVD):

0320 : 20 20 20 20 20 20 20 20  20 20 20 20 20 32 30 30                200
0330 : 33 31 31 31 38 31 34 33  36 31 35 30 30 2D 32 30   3111814361500-20
0340 : 30 33 31 31 31 38 31 34  33 36 31 35 30 30 2D 31   03111814361500-1
0350 : 36 30 31 30 31 30 31 30  30 30 30 30 30 30 30 30   6010101000000000
0360 : 31 36 30 31 30 31 30 31  30 30 30 30 30 30 30 30   1601010100000000
0370 : 30 01 00 00 00 00 00 00  00 00 00 00 00 00 00 00   0...............

Copy Protection:
    Copy Protection: None found

Tracks and Write Offsets:
    DAT:

<rom name="POP_PLAY.bin" size="809313792" crc="17378976" md5="bff7202f88658662b04458bd8299ea8b" sha1="3bb0e2a7715d1f4b764092c9dd0baf07f51a8a47" />

    Cuesheet:

FILE "POP_PLAY.bin" BINARY
  TRACK 01 MODE2/2352
    INDEX 01 00:00:00

    Write Offset: -12

14

(0 replies, posted in Verifications)

Bundle with Splinter Cell and Prince of Persia: The Sands of Time

http://redump.org/disc/45677/
log: http://interbutt.com/misc/BGE_cd1_logs.zip

Common Disc Info:
    Title: Beyond Good & Evil
    Foreign Title (Non-latin): 
    Disc Number / Letter: 1
    Disc Title: 
    System: IBM PC Compatible
    Media Type: CD-ROM
    Category: Games
    Matching IDs: 45677
    Region: USA
    Languages: Dutch, English, French, German, Italian, Spanish
    Disc Serial: 782698-CD1

    Ringcode Information:
        Data Side Mastering Code (laser branded/etched): 9/16/2005 1:32:09 PM    0364882 03
        Data Side Mastering SID Code: IFPI LN07
        Data Side Toolstamp or Mastering Code (engraved/stamped): 
        Data Side Mould SID Code: 
        Data Side Additional Mould: 
        Label Side Mould SID Code: 
        Label Side Additional Mould: 
    Barcode: 
    Error Count: 0
    Comments: 
    Contents: 

Version and Editions:
    Version: 1.0
    Edition/Release: Ubisoft Bundle

Extras:
    Primary Volume Descriptor (PVD):

0320 : 20 20 20 20 20 20 20 20  20 20 20 20 20 32 30 30                200
0330 : 35 30 39 30 37 31 34 31  36 30 30 30 30 E4 32 30   5090714160000.20
0340 : 30 35 30 39 30 37 31 34  31 36 30 30 30 30 E4 30   05090714160000.0
0350 : 30 30 30 30 30 30 30 30  30 30 30 30 30 30 30 00   000000000000000.
0360 : 30 30 30 30 30 30 30 30  30 30 30 30 30 30 30 30   0000000000000000
0370 : 00 01 00 00 00 00 00 00  00 00 00 00 00 00 00 00   ................

Copy Protection:
    Copy Protection: None found

Tracks and Write Offsets:
    DAT:

<rom name="BGE_cd1.bin" size="796918752" crc="a8e81bb1" md5="353f78259fc0f98a1837a754823fa162" sha1="cdf86348e4f81e7a85b25c8d735b7c014c0167eb" />

    Cuesheet:

FILE "BGE_cd1.bin" BINARY
  TRACK 01 MODE1/2352
    INDEX 01 00:00:00

    Write Offset: -12

http://redump.org/disc/45678/
log: http://interbutt.com/misc/BGE_cd2_logs.zip

Common Disc Info:
    Title: Beyond Good & Evil
    Foreign Title (Non-latin): 
    Disc Number / Letter: 2
    Disc Title: 
    System: IBM PC Compatible
    Media Type: CD-ROM
    Category: Games
    Matching IDs: 45678
    Region: USA
    Languages: Dutch, English, French, German, Italian, Spanish
    Disc Serial: 782698-CD2

    Ringcode Information:
        Data Side Mastering Code (laser branded/etched): 9/16/2005 1:01:15 PM    0364891 01
        Data Side Mastering SID Code: IFPI LN07
        Data Side Toolstamp or Mastering Code (engraved/stamped): 
        Data Side Mould SID Code: 
        Data Side Additional Mould: 
        Label Side Mould SID Code: 
        Label Side Additional Mould: 
    Barcode: 
    Error Count: 0
    Comments: 
    Contents: 

Version and Editions:
    Version: 1.0
    Edition/Release: Ubisoft Bundle

Extras:
    Primary Volume Descriptor (PVD):

0320 : 20 20 20 20 20 20 20 20  20 20 20 20 20 32 30 30                200
0330 : 35 30 39 30 37 31 34 32  34 30 30 30 30 E4 32 30   5090714240000.20
0340 : 30 35 30 39 30 37 31 34  32 34 30 30 30 30 E4 30   05090714240000.0
0350 : 30 30 30 30 30 30 30 30  30 30 30 30 30 30 30 00   000000000000000.
0360 : 30 30 30 30 30 30 30 30  30 30 30 30 30 30 30 30   0000000000000000
0370 : 00 01 00 00 00 00 00 00  00 00 00 00 00 00 00 00   ................

Copy Protection:
    Copy Protection: None found

Tracks and Write Offsets:
    DAT:

<rom name="BGE_cd2.bin" size="796970496" crc="400c6447" md5="f95b2a0dfd83fe7176406b5352a57e57" sha1="96b50ec8ff16cdc7af6a1d04d092a496ad8c5b58" />

    Cuesheet:

FILE "BGE_cd2.bin" BINARY
  TRACK 01 MODE1/2352
    INDEX 01 00:00:00

    Write Offset: -12

http://redump.org/disc/45679/
log: http://interbutt.com/misc/BGE_cd3_logs.zip

Common Disc Info:
    Title: Beyond Good & Evil
    Foreign Title (Non-latin): 
    Disc Number / Letter: 3
    Disc Title: 
    System: IBM PC Compatible
    Media Type: CD-ROM
    Category: Games
    Matching IDs: 45679
    Region: USA
    Languages: Dutch, English, French, German, Italian, Spanish
    Disc Serial: 782698-CD3

    Ringcode Information:
        Data Side Mastering Code (laser branded/etched): 9/16/2005 2:01:51 PM    0364900 01
        Data Side Mastering SID Code: IFPI LN07
        Data Side Toolstamp or Mastering Code (engraved/stamped): 
        Data Side Mould SID Code: 
        Data Side Additional Mould: 
        Label Side Mould SID Code: 
        Label Side Additional Mould: 
    Barcode: 
    Error Count: 0
    Comments: 
    Contents: 

Version and Editions:
    Version: 1.0
    Edition/Release: Ubisoft Bundle

Extras:
    Primary Volume Descriptor (PVD):

0320 : 20 20 20 20 20 20 20 20  20 20 20 20 20 32 30 30                200
0330 : 35 30 39 30 37 31 34 33  31 30 30 30 30 E4 32 30   5090714310000.20
0340 : 30 35 30 39 30 37 31 34  33 31 30 30 30 30 E4 30   05090714310000.0
0350 : 30 30 30 30 30 30 30 30  30 30 30 30 30 30 30 00   000000000000000.
0360 : 30 30 30 30 30 30 30 30  30 30 30 30 30 30 30 30   0000000000000000
0370 : 00 01 00 00 00 00 00 00  00 00 00 00 00 00 00 00   ................

Copy Protection:
    Copy Protection: None found

Tracks and Write Offsets:
    DAT:

<rom name="BGE_cd3.bin" size="779699760" crc="48ffbfd6" md5="856cfc8a9955e006e8374507907bde96" sha1="96442815bce546ca6c3eb79a36e0fd35b4f6b536" />

    Cuesheet:

FILE "BGE_cd3.bin" BINARY
  TRACK 01 MODE1/2352
    INDEX 01 00:00:00

    Write Offset: -12

15

(0 replies, posted in Verifications)

Bundle with Beyond Good & Evil and Prince of Persia: The Sands of Time

http://redump.org/disc/63761/
log: http://interbutt.com/misc/SplinterCell_CD1_logs.zip

Common Disc Info:
    Title: Tom Clancy's Splinter Cell
    Foreign Title (Non-latin): 
    Disc Number / Letter: 1
    Disc Title: 
    System: IBM PC Compatible
    Media Type: CD-ROM
    Category: Games
    Matching IDs: 63761
    Region: USA
    Languages: English, French
    Disc Serial: 750888-CD1

    Ringcode Information:
        Data Side Mastering Code (laser branded/etched): 9/17/2005 8:30:16 PM    0364837 02
        Data Side Mastering SID Code: IFPI LN07
        Data Side Toolstamp or Mastering Code (engraved/stamped): 
        Data Side Mould SID Code: 
        Data Side Additional Mould: 
        Label Side Mould SID Code: 
        Label Side Additional Mould: 
    Barcode: 
    Error Count: 0
    Comments: 
    Contents: 

Version and Editions:
    Version: 1.00.000
    Edition/Release: Ubisoft Bundle

Extras:
    Primary Volume Descriptor (PVD):

0320 : 20 20 20 20 20 20 20 20  20 20 20 20 20 32 30 30                200
0330 : 35 30 39 30 37 31 32 32  36 30 30 30 30 E4 32 30   5090712260000.20
0340 : 30 35 30 39 30 37 31 32  32 36 30 30 30 30 E4 30   05090712260000.0
0350 : 30 30 30 30 30 30 30 30  30 30 30 30 30 30 30 00   000000000000000.
0360 : 30 30 30 30 30 30 30 30  30 30 30 30 30 30 30 30   0000000000000000
0370 : 00 01 00 00 00 00 00 00  00 00 00 00 00 00 00 00   ................

Copy Protection:
    Copy Protection: None found

Tracks and Write Offsets:
    DAT:

<rom name="SplinterCell_CD1.bin" size="678361488" crc="12dcdf08" md5="0545128970dd9b8e870e13886d232eb9" sha1="8afc10a82a7b63a9a8e3b09202da3b80b9960472" />

    Cuesheet:

FILE "SplinterCell_CD1.bin" BINARY
  TRACK 01 MODE1/2352
    INDEX 01 00:00:00

    Write Offset: -12

http://redump.org/disc/63762/
log: http://interbutt.com/misc/SplinterCell_CD2_logs.zip

Common Disc Info:
    Title: Tom Clancy's Splinter Cell
    Foreign Title (Non-latin): 
    Disc Number / Letter: 2
    Disc Title: 
    System: IBM PC Compatible
    Media Type: CD-ROM
    Category: Games
    Matching IDs: 63762
    Region: USA
    Languages: English, French
    Disc Serial: 750888-CD2

    Ringcode Information:
        Data Side Mastering Code (laser branded/etched): 9/16/2005 5:11:09 AM    0364846 01
        Data Side Mastering SID Code: IFPI LN07
        Data Side Toolstamp or Mastering Code (engraved/stamped): 
        Data Side Mould SID Code: 
        Data Side Additional Mould: 
        Label Side Mould SID Code: 
        Label Side Additional Mould: 
    Barcode: 
    Error Count: 0
    Comments: 
    Contents: 

Version and Editions:
    Version: 1.00.000
    Edition/Release: Ubisoft Bundle

Extras:
    Primary Volume Descriptor (PVD):

0320 : 20 20 20 20 20 20 20 20  20 20 20 20 20 32 30 30                200
0330 : 35 30 39 30 37 31 32 33  32 30 30 30 30 E4 32 30   5090712320000.20
0340 : 30 35 30 39 30 37 31 32  33 32 30 30 30 30 E4 30   05090712320000.0
0350 : 30 30 30 30 30 30 30 30  30 30 30 30 30 30 30 00   000000000000000.
0360 : 30 30 30 30 30 30 30 30  30 30 30 30 30 30 30 30   0000000000000000
0370 : 00 01 00 00 00 00 00 00  00 00 00 00 00 00 00 00   ................

Copy Protection:
    Copy Protection: None found

Tracks and Write Offsets:
    DAT:

<rom name="SplinterCell_CD2.bin" size="706260912" crc="6856854f" md5="af66a66fbfa963b9ed8c07c7c10e2492" sha1="94eeb0c6d0bb5d43093f391e898f4f2c7d470d10" />

    Cuesheet:

FILE "SplinterCell_CD2.bin" BINARY
  TRACK 01 MODE1/2352
    INDEX 01 00:00:00

    Write Offset: -12

http://redump.org/disc/63763/
log: http://interbutt.com/misc/SplinterCell_CD3_logs.zip

Common Disc Info:
    Title: Tom Clancy's Splinter Cell
    Foreign Title (Non-latin): 
    Disc Number / Letter: 3
    Disc Title: 
    System: IBM PC Compatible
    Media Type: CD-ROM
    Category: Games
    Matching IDs: 63763
    Region: USA
    Languages: English, French
    Disc Serial: 750888-CD3

    Ringcode Information:
        Data Side Mastering Code (laser branded/etched): 9/16/2005 4:01:10 AM    0364855 01
        Data Side Mastering SID Code: IFPI LN07
        Data Side Toolstamp or Mastering Code (engraved/stamped): 
        Data Side Mould SID Code: 
        Data Side Additional Mould: 
        Label Side Mould SID Code: 
        Label Side Additional Mould: 
    Barcode: 
    Error Count: 0
    Comments: 
    Contents: 

Version and Editions:
    Version: 1.00.000
    Edition/Release: Ubisoft Bundle

Extras:
    Primary Volume Descriptor (PVD):

0320 : 20 20 20 20 20 20 20 20  20 20 20 20 20 32 30 30                200
0330 : 35 30 39 30 37 31 32 34  30 30 30 30 30 E4 32 30   5090712400000.20
0340 : 30 35 30 39 30 37 31 32  34 30 30 30 30 30 E4 30   05090712400000.0
0350 : 30 30 30 30 30 30 30 30  30 30 30 30 30 30 30 00   000000000000000.
0360 : 30 30 30 30 30 30 30 30  30 30 30 30 30 30 30 30   0000000000000000
0370 : 00 01 00 00 00 00 00 00  00 00 00 00 00 00 00 00   ................

Copy Protection:
    Copy Protection: None found

Tracks and Write Offsets:
    DAT:

<rom name="SplinterCell_CD3.bin" size="711178944" crc="ea3043c2" md5="b7d45b0a114ae35c920d46e5cf620321" sha1="696d81c9760ee66a41eaaab5518721169419dc10" />

    Cuesheet:

FILE "SplinterCell_CD3.bin" BINARY
  TRACK 01 MODE1/2352
    INDEX 01 00:00:00

    Write Offset: -12

16

(2 replies, posted in Verifications)

http://redump.org/disc/11057/
log: http://interbutt.com/misc/Klingon%20disc%203%20logs.zip

Common Disc Info:
    Title: Star Trek: Klingon
    Foreign Title (Non-latin): 
    Disc Number / Letter: 3
    Disc Title: Language Lab / Power Klingon
    System: IBM PC Compatible
    Media Type: CD-ROM
    Category: Games
    Matching IDs: 11057
    Region: USA
    Languages: English
    Disc Serial: 

    Ringcode Information:
        Data Side Mastering Code (laser branded/etched): SS-CD352873-4 STARPAK    + +    66630-01
        Data Side Mastering SID Code: IFPI LO28
        Data Side Toolstamp or Mastering Code (engraved/stamped): 
        Data Side Mould SID Code: IFPI 1010
        Data Side Additional Mould: 
        Label Side Mould SID Code: 
        Label Side Additional Mould: 
    Barcode: 
    Error Count: 0
    Comments: [T:ISBN] 0-671-52873-4
    Contents: 

Version and Editions:
    Version: 
    Edition/Release: Original

Extras:
    Primary Volume Descriptor (PVD):

0320 : 20 20 20 20 20 20 20 20  20 20 20 20 20 30 30 30                000
0330 : 30 30 30 30 30 30 30 30  30 30 30 30 30 00 30 30   0000000000000.00
0340 : 30 30 30 30 30 30 30 30  30 30 30 30 30 30 00 30   00000000000000.0
0350 : 30 30 30 30 30 30 30 30  30 30 30 30 30 30 30 00   000000000000000.
0360 : 30 30 30 30 30 30 30 30  30 30 30 30 30 30 30 30   0000000000000000
0370 : 00 01 00 00 00 00 00 00  00 00 00 00 00 00 00 00   ................

Copy Protection:
    Copy Protection: None found

Tracks and Write Offsets:
    DAT:

<rom name="track (Track 1).bin" size="432561024" crc="6d7bc488" md5="8437bcbc047de132fba53eb4fc825e8f" sha1="698119084c3a9c3d97a51b5dcd98f21a4acdcee2" />
<rom name="track (Track 2).bin" size="272928432" crc="0a79ca77" md5="f615cd50fa29e379f0d3aa75d0244d5d" sha1="2e0c5b088efd6e95870e62b92bfd7de8da8b5b15" />

    Cuesheet:

CATALOG 0000000000000
FILE "track (Track 1).bin" BINARY
  TRACK 01 MODE1/2352
    INDEX 01 00:00:00
FILE "track (Track 2).bin" BINARY
  TRACK 02 AUDIO
    INDEX 00 00:00:00
    INDEX 01 00:02:01

    Write Offset: 222

17

(2 replies, posted in Verifications)

http://redump.org/disc/11056/
log: http://interbutt.com/misc/Klingon%20disc%202%20logs.zip

Common Disc Info:
    Title: Star Trek: Klingon
    Foreign Title (Non-latin): 
    Disc Number / Letter: 2
    Disc Title: Immersion Studies
    System: IBM PC Compatible
    Media Type: CD-ROM
    Category: Games
    Matching IDs: 11056
    Region: USA
    Languages: English
    Disc Serial: 

    Ringcode Information:
        Data Side Mastering Code (laser branded/etched): SS-CD252873-4 STARPAK    + +    66628-01
        Data Side Mastering SID Code: IFPI LO28
        Data Side Toolstamp or Mastering Code (engraved/stamped): 
        Data Side Mould SID Code: IFPI 1014
        Data Side Additional Mould: 
        Label Side Mould SID Code: 
        Label Side Additional Mould: 
    Barcode: 
    Error Count: 0
    Comments:

[T:ISBN] 0-671-52873-4

MCN unverified

    Contents: 

Version and Editions:
    Version: 
    Edition/Release: Original

Extras:
    Primary Volume Descriptor (PVD):

0320 : 20 20 20 20 20 20 20 20  20 20 20 20 20 30 30 30                000
0330 : 30 30 30 30 30 30 30 30  30 30 30 30 30 00 30 30   0000000000000.00
0340 : 30 30 30 30 30 30 30 30  30 30 30 30 30 30 00 30   00000000000000.0
0350 : 30 30 30 30 30 30 30 30  30 30 30 30 30 30 30 00   000000000000000.
0360 : 30 30 30 30 30 30 30 30  30 30 30 30 30 30 30 30   0000000000000000
0370 : 00 01 00 00 00 00 00 00  00 00 00 00 00 00 00 00   ................

Copy Protection:
    Copy Protection: None found

Tracks and Write Offsets:
    DAT:

<rom name="track.bin" size="665319648" crc="37ef2326" md5="219eaa9a256a49cad9f340d66c987fd4" sha1="2afcee37639c12d27f1b6284f5d90f49d6672db0" />

    Cuesheet:

CATALOG 0000000000000
FILE "track.bin" BINARY
  TRACK 01 MODE1/2352
    INDEX 01 00:00:00

    Write Offset: 222

18

(2 replies, posted in Verifications)

http://redump.org/disc/11055/
log: http://interbutt.com/misc/Klingon%20disc%201%20logs.zip

Common Disc Info:
    Title: Star Trek: Klingon
    Foreign Title (Non-latin): 
    Disc Number / Letter: 1
    Disc Title: Installation / Immersion Studies
    System: IBM PC Compatible
    Media Type: CD-ROM
    Category: Games
    Matching IDs: 11055
    Region: USA
    Languages: English
    Disc Serial: 

    Ringcode Information:
        Data Side Mastering Code (laser branded/etched): SS-CD152873-4    STARPAK    + +    66726-01
        Data Side Mastering SID Code: IFPI LO28
        Data Side Toolstamp or Mastering Code (engraved/stamped): 
        Data Side Mould SID Code: IFPI 1023
        Data Side Additional Mould: 
        Label Side Mould SID Code: 
        Label Side Additional Mould: 
    Barcode: 
    Error Count: 0
    Comments: [T:ISBN] 0-671-52873-4
    Contents: 

Version and Editions:
    Version: 
    Edition/Release: Original

Extras:
    Primary Volume Descriptor (PVD):

0320 : 20 20 20 20 20 20 20 20  20 20 20 20 20 30 30 30                000
0330 : 30 30 30 30 30 30 30 30  30 30 30 30 30 00 30 30   0000000000000.00
0340 : 30 30 30 30 30 30 30 30  30 30 30 30 30 30 00 30   00000000000000.0
0350 : 30 30 30 30 30 30 30 30  30 30 30 30 30 30 30 00   000000000000000.
0360 : 30 30 30 30 30 30 30 30  30 30 30 30 30 30 30 30   0000000000000000
0370 : 00 01 00 00 00 00 00 00  00 00 00 00 00 00 00 00   ................

Copy Protection:
    Copy Protection: None found

Tracks and Write Offsets:
    DAT:

<rom name="track.bin" size="651974400" crc="44675475" md5="42245ef26d518445efe05b00d42e3450" sha1="11a3e887126bcdcbc40b8bfc29fb5fbd2ab383e1" />

    Cuesheet:

CATALOG 0000000000000
FILE "track.bin" BINARY
  TRACK 01 MODE1/2352
    INDEX 01 00:00:00

    Write Offset: 222

http://redump.org/disc/27508/
log: http://interbutt.com/misc/KILLATON3_logs.zip

Common Disc Info:
    Title: Duke Nukem 3D: Kill-A-Ton Collection
    Foreign Title (Non-latin): 
    Disc Number / Letter: 3
    Disc Title: 
    System: IBM PC Compatible
    Media Type: CD-ROM
    Category: Games
    Matching IDs: 27508
    Region: USA
    Languages: English
    Disc Serial: 04-13094CD3

    Ringcode Information:
        Data Side Mastering Code (laser branded/etched): *04-13094CD3 Y7B04B
        Data Side Mastering SID Code: IFPI L532
        Data Side Toolstamp or Mastering Code (engraved/stamped): 
        Data Side Mould SID Code: IFPI 9216
        Data Side Additional Mould: 
        Label Side Mould SID Code: 
        Label Side Additional Mould: 
    Barcode: 7 42725 15061 4
    Error Count: 0
    Comments: [T:ISBN]: 1-56893-423-8
    Contents:

[+]Duke Windows 95 Themes and screen savers, etc.

Duke It Out in D.C.

Duke Extreme

Duke!Zone II

Version and Editions:
    Version: 
    Edition/Release: Original

Extras:
    Primary Volume Descriptor (PVD):

0320 : 20 20 20 20 20 20 20 20  20 20 20 20 20 31 39 39                199
0330 : 37 31 30 32 39 31 30 34  31 33 35 30 30 00 31 39   7102910413500.19
0340 : 39 37 31 30 32 39 31 30  34 31 33 35 30 30 00 30   97102910413500.0
0350 : 30 30 30 30 30 30 30 30  30 30 30 30 30 30 30 00   000000000000000.
0360 : 30 30 30 30 30 30 30 30  30 30 30 30 30 30 30 30   0000000000000000
0370 : 00 01 00 00 00 00 00 00  00 00 00 00 00 00 00 00   ................

Copy Protection:
    Copy Protection: None found

Tracks and Write Offsets:
    DAT:

<rom name="KILLATON3.bin" size="181205136" crc="76eea23a" md5="153a5299900e06436c17021a78a60da6" sha1="a9bea4b8d2751a5fa1d58923b27eb3e7f049ae3c" />

    Cuesheet:

CATALOG 0000000000000
FILE "KILLATON3.bin" BINARY
  TRACK 01 MODE2/2352
    INDEX 01 00:00:00

    Write Offset: 0

http://redump.org/disc/27507/
log: http://interbutt.com/misc/Killaton2_logs.zip

Common Disc Info:
    Title: Duke Nukem 3D: Kill-A-Ton Collection
    Foreign Title (Non-latin): 
    Disc Number / Letter: 2
    Disc Title: 
    System: IBM PC Compatible
    Media Type: CD-ROM
    Category: Games
    Matching IDs: 27507
    Region: USA
    Languages: English
    Disc Serial: 04-13094CD2

    Ringcode Information:
        Data Side Mastering Code (laser branded/etched): *04-13094CD2 Z7B07C
        Data Side Mastering SID Code: IFPI L533
        Data Side Toolstamp or Mastering Code (engraved/stamped): 
        Data Side Mould SID Code: IFPI  9221
        Data Side Additional Mould: 
        Label Side Mould SID Code: 
        Label Side Additional Mould: 
    Barcode: 7 42725 15060 7
    Error Count: 0
    Comments: [T:ISBN]: 1-56893-422-X
    Contents: [+]Game Wizards Interactive Game Guide

Version and Editions:
    Version: 
    Edition/Release: Original

Extras:
    Primary Volume Descriptor (PVD):

0320 : 20 20 20 20 20 20 20 20  20 20 20 20 20 31 39 39                199
0330 : 37 31 30 32 31 31 31 34  31 30 39 30 30 00 31 39   7102111410900.19
0340 : 39 37 31 30 32 31 31 31  34 31 30 39 30 30 00 32   97102111410900.2
0350 : 30 30 37 31 30 31 39 31  31 34 31 30 39 30 30 00   007101911410900.
0360 : 31 39 39 37 31 30 32 31  31 31 34 31 30 39 30 30   1997102111410900
0370 : 00 01 00 00 00 00 00 00  00 00 00 00 00 00 00 00   ................

Copy Protection:
    Copy Protection: None found

Tracks and Write Offsets:
    DAT:

<rom name="Killaton2.bin" size="771942864" crc="260935bb" md5="40f62a5fb7e22f3f1d9422f97c85a003" sha1="759afdf661b8be46123e6099f23236e76301928e" />

    Cuesheet:

FILE "Killaton2.bin" BINARY
  TRACK 01 MODE1/2352
    INDEX 01 00:00:00

    Write Offset: 0

21

(0 replies, posted in Verifications)

http://redump.org/disc/37280/

Common Disc Info:
    Title: Yin-Yang! X-Change Alternative
    Foreign Title (Non-latin): 
    Disc Number / Letter: 
    Disc Title: 
    System: IBM PC Compatible
    Media Type: DVD-ROM-5
    Category: Games
    Matching IDs: 37280
    Region: USA
    Languages: English
    Disc Serial: 1313

    Ringcode Information:
        Data Side Mastering Code (laser branded/etched): futuresolutions.com    D07020368
        Data Side Mastering SID Code: IFPI LW44
        Data Side Toolstamp or Mastering Code (engraved/stamped): 
        Data Side Mould SID Code: 
        Data Side Additional Mould: 
        Label Side Mould SID Code: 
        Label Side Additional Mould: 
    Barcode: 6 52823 20704 5
    Comments:

[T:ISBN]: 4-921030-35-9

English Text / Japanese Voice

    Contents: 

Version and Editions:
    Version: 
    Edition/Release: Original

Extras:
    Primary Volume Descriptor (PVD):

0320 : 20 20 20 20 20 20 20 20  20 20 20 20 20 32 30 30                200
0330 : 37 30 32 30 33 31 32 34  37 35 37 30 30 00 32 30   7020312475700.20
0340 : 30 37 30 32 30 33 31 32  34 38 33 35 30 30 00 30   07020312483500.0
0350 : 30 30 30 30 30 30 30 30  30 30 30 30 30 30 30 00   000000000000000.
0360 : 30 30 30 30 30 30 30 30  30 30 30 30 30 30 30 30   0000000000000000
0370 : 00 01 00 00 00 00 00 00  00 00 00 00 00 00 00 00   ................

Copy Protection:
    Copy Protection: None found

Size & Checksum:
    Size: 2036236288
    CRC32: 1abdf099
    MD5: 66bf5fa70ef2605ad82c7580c6173735
    SHA1: 2d6331f2e4a450cba091ac9422106114f7d1625c

22

(1 replies, posted in Verifications)

http://redump.org/disc/37287/
log: http://interbutt.com/misc/XC2DISK2_logs.zip

Note, this disc contains the original Japanese program files as an extra, so the Languages field should be changed.

Common Disc Info:
    Title: X-Change 2
    Foreign Title (Non-latin): 
    Disc Number / Letter: 2
    Disc Title: Music & Extras
    System: IBM PC Compatible
    Media Type: CD-ROM
    Category: Games
    Matching IDs: 37287
    Region: USA
    Languages: English, Japanese
    Disc Serial: 

    Ringcode Information:
        Data Side Mastering Code (laser branded/etched): 7731 - 0352027D2 FUTURESOLUTIONS.COM/XCHANGE 2-DISC 2    090403
        Data Side Mastering SID Code: IFPI LT05
        Data Side Toolstamp or Mastering Code (engraved/stamped): 
        Data Side Mould SID Code: 
        Data Side Additional Mould: 
        Label Side Mould SID Code: 
        Label Side Additional Mould: 
    Barcode: 6 52823 20410 5
    Error Count: 0
    Comments:

[T:ISBN]: 4-921030-25-1

    Contents: 

Staff credits
Windows system voices
Original Japanese program files
Soundtrack (CD audio and MP3)

Version and Editions:
    Version: 
    Edition/Release: Original

Extras:
    Primary Volume Descriptor (PVD):

0320 : 20 20 20 20 20 20 20 20  20 20 20 20 20 32 30 30                200
0330 : 33 30 38 31 37 31 35 35  31 33 34 30 30 00 32 30   3081715513400.20
0340 : 30 33 30 38 31 37 31 37  30 35 31 38 30 30 00 00   03081717051800..
0350 : 00 00 00 00 00 00 00 00  00 00 00 00 00 00 00 00   ................
0360 : 00 00 00 00 00 00 00 00  00 00 00 00 00 00 00 00   ................
0370 : 00 01 00 00 00 00 00 00  00 00 00 00 00 00 00 00   ................

Copy Protection:
    Copy Protection: None found

Tracks and Write Offsets:
    DAT:

<rom name="XC2DISK2 (Track 01).bin" size="101361792" crc="454613d8" md5="9d2ae3c0ea75fc138c3f1693e03036a5" sha1="5ce7246bdc9a71e388f90c7946994ff9757e3ae0" />
<rom name="XC2DISK2 (Track 02).bin" size="3438624" crc="07fe9ee8" md5="4c55c3ed6a4c76dfdd4aa45ad533f694" sha1="4cbf4e9be805dd2de7a06756fc80b90a9d4580b5" />
<rom name="XC2DISK2 (Track 03).bin" size="18625488" crc="5cd99853" md5="341a3ee7e919c83276522b7aaaf3be04" sha1="331599ff02205a7920dd4b1cdf594e1b25debdc6" />
<rom name="XC2DISK2 (Track 04).bin" size="35294112" crc="fe73ecf9" md5="267b9f002af2f49bfca68447e3cff146" sha1="804bf2d21a32654a538b2355816c04e3f52d1b80" />
<rom name="XC2DISK2 (Track 05).bin" size="35350560" crc="87f77408" md5="56929a9a7c926e96ea0b6d023c31aa7a" sha1="a2c1b298d85770bdf50f4d3e0754e18c583046f4" />
<rom name="XC2DISK2 (Track 06).bin" size="35376432" crc="e88c349d" md5="35a4958d9a3cd5a1a1242261136841a8" sha1="5551772375652b3443bcdeef89eab348bf798a68" />
<rom name="XC2DISK2 (Track 07).bin" size="34525008" crc="acb1d86b" md5="d216e951d830b3c867c10bdd51dc728d" sha1="c6283b997bfa7ff91482f7dc23fd6ad6b42fda8a" />
<rom name="XC2DISK2 (Track 08).bin" size="35367024" crc="71391d7e" md5="f474d33e4aaaa6d2b7ffe3337a6a3974" sha1="862c3f0118b12a735035d8535bdfad79fb0fde42" />
<rom name="XC2DISK2 (Track 09).bin" size="35388192" crc="d27a7402" md5="85c7c1295cae91639c79c60cede4ea4a" sha1="d244335be30267285971d0515a12ed95aa7e0dce" />
<rom name="XC2DISK2 (Track 10).bin" size="35305872" crc="eec089db" md5="5f9fe0f695f7d31cd0dcce0622d04f5d" sha1="d47c2a1ec30a219952d91dc81099c531bacfe1db" />
<rom name="XC2DISK2 (Track 11).bin" size="35367024" crc="51f859d1" md5="d3aafcc8e3cbb6bf8139eb03bbc61c0d" sha1="f024aa63cf08cc4273bc0e4e130b8d9875b69b4d" />
<rom name="XC2DISK2 (Track 12).bin" size="35341152" crc="a4f707d0" md5="711fcb3ec5ccf5597b1ada7d633b7d0c" sha1="f976b2f682c1730d62e57255cbc0e456fa129899" />
<rom name="XC2DISK2 (Track 13).bin" size="35294112" crc="8aedd072" md5="7bd14f70ba2b47d8003df65732184f67" sha1="da361593efcfdee417200a988098c3c494234b0b" />
<rom name="XC2DISK2 (Track 14).bin" size="35374080" crc="2c2a4ee6" md5="18bcd4293e9e78afab16bfdd470625f5" sha1="f65720595d773c865e0f1da87c61622d17618da3" />
<rom name="XC2DISK2 (Track 15).bin" size="35301168" crc="5cd05940" md5="de4c315e2afe0eb689839edd555122a7" sha1="97e25d70d6693746d802a4fd7056cbd98124558d" />
<rom name="XC2DISK2 (Track 16).bin" size="33290208" crc="09f79ea1" md5="e5019631f7aeb24b605776caf09859d6" sha1="d67d80714c93f0ee48222f7a83126cd311bfe07e" />
<rom name="XC2DISK2 (Track 17).bin" size="43544928" crc="dcf04ec0" md5="492716533b52fce1350f6c1d50ad6495" sha1="2e24e86062e5454951b91f2c9640987ba92f6a97" />
<rom name="XC2DISK2 (Track 18).bin" size="59667888" crc="c237486c" md5="de076f1421f225ad8238d3f62193791f" sha1="a188d081820d2e8a792ae0ea90dcc6e68ade85e4" />
<rom name="XC2DISK2 (Track 19).bin" size="43544928" crc="dcf04ec0" md5="492716533b52fce1350f6c1d50ad6495" sha1="2e24e86062e5454951b91f2c9640987ba92f6a97" />

    Cuesheet:

FILE "XC2DISK2 (Track 01).bin" BINARY
  TRACK 01 MODE2/2352
    INDEX 01 00:00:00
FILE "XC2DISK2 (Track 02).bin" BINARY
  TRACK 02 AUDIO
    INDEX 00 00:00:00
    INDEX 01 00:02:00
FILE "XC2DISK2 (Track 03).bin" BINARY
  TRACK 03 AUDIO
    INDEX 00 00:00:00
    INDEX 01 00:02:00
FILE "XC2DISK2 (Track 04).bin" BINARY
  TRACK 04 AUDIO
    INDEX 00 00:00:00
    INDEX 01 00:02:00
FILE "XC2DISK2 (Track 05).bin" BINARY
  TRACK 05 AUDIO
    INDEX 00 00:00:00
    INDEX 01 00:02:00
FILE "XC2DISK2 (Track 06).bin" BINARY
  TRACK 06 AUDIO
    INDEX 00 00:00:00
    INDEX 01 00:02:00
FILE "XC2DISK2 (Track 07).bin" BINARY
  TRACK 07 AUDIO
    INDEX 00 00:00:00
    INDEX 01 00:02:00
FILE "XC2DISK2 (Track 08).bin" BINARY
  TRACK 08 AUDIO
    INDEX 00 00:00:00
    INDEX 01 00:02:00
FILE "XC2DISK2 (Track 09).bin" BINARY
  TRACK 09 AUDIO
    INDEX 00 00:00:00
    INDEX 01 00:02:00
FILE "XC2DISK2 (Track 10).bin" BINARY
  TRACK 10 AUDIO
    INDEX 00 00:00:00
    INDEX 01 00:02:00
FILE "XC2DISK2 (Track 11).bin" BINARY
  TRACK 11 AUDIO
    INDEX 00 00:00:00
    INDEX 01 00:02:00
FILE "XC2DISK2 (Track 12).bin" BINARY
  TRACK 12 AUDIO
    INDEX 00 00:00:00
    INDEX 01 00:02:00
FILE "XC2DISK2 (Track 13).bin" BINARY
  TRACK 13 AUDIO
    INDEX 00 00:00:00
    INDEX 01 00:02:00
FILE "XC2DISK2 (Track 14).bin" BINARY
  TRACK 14 AUDIO
    INDEX 00 00:00:00
    INDEX 01 00:02:00
FILE "XC2DISK2 (Track 15).bin" BINARY
  TRACK 15 AUDIO
    INDEX 00 00:00:00
    INDEX 01 00:02:00
FILE "XC2DISK2 (Track 16).bin" BINARY
  TRACK 16 AUDIO
    INDEX 00 00:00:00
    INDEX 01 00:02:00
FILE "XC2DISK2 (Track 17).bin" BINARY
  TRACK 17 AUDIO
    INDEX 00 00:00:00
    INDEX 01 00:02:00
FILE "XC2DISK2 (Track 18).bin" BINARY
  TRACK 18 AUDIO
    INDEX 00 00:00:00
    INDEX 01 00:02:00
FILE "XC2DISK2 (Track 19).bin" BINARY
  TRACK 19 AUDIO
    INDEX 00 00:00:00
    INDEX 01 00:02:00

    Write Offset: -12

23

(1 replies, posted in Verifications)

http://redump.org/disc/37286/
log: http://interbutt.com/misc/XC2DISK1_logs.zip

Common Disc Info:
    Title: X-Change 2
    Foreign Title (Non-latin): 
    Disc Number / Letter: 1
    Disc Title: Program Disc
    System: IBM PC Compatible
    Media Type: CD-ROM
    Category: Games
    Matching IDs: 37286
    Region: USA
    Languages: English
    Disc Serial: 2212

    Ringcode Information:
        Data Side Mastering Code (laser branded/etched): 7731 - 0352027D1 FUTURESOLUTIONS.COM/XCHANGE 2-DISC 1    090403
        Data Side Mastering SID Code: IFPI LT05
        Data Side Toolstamp or Mastering Code (engraved/stamped): 
        Data Side Mould SID Code: 
        Data Side Additional Mould: 
        Label Side Mould SID Code: 
        Label Side Additional Mould: 
    Barcode: 6 52823 20410 5
    Error Count: 0
    Comments:

[T:ISBN]: 4-921030-25-1

English Text / Japanese Voice

    Contents: 

Version and Editions:
    Version: 
    Edition/Release: Original

Extras:
    Primary Volume Descriptor (PVD):

0320 : 20 20 20 20 20 20 20 20  20 20 20 20 20 32 30 30                200
0330 : 33 30 38 31 37 31 35 35  31 33 34 30 30 00 32 30   3081715513400.20
0340 : 30 33 30 38 31 37 31 38  30 30 35 39 30 30 00 00   03081718005900..
0350 : 00 00 00 00 00 00 00 00  00 00 00 00 00 00 00 00   ................
0360 : 00 00 00 00 00 00 00 00  00 00 00 00 00 00 00 00   ................
0370 : 00 01 00 00 00 00 00 00  00 00 00 00 00 00 00 00   ................

Copy Protection:
    Copy Protection: None found

Tracks and Write Offsets:
    DAT:

<rom name="XC2DISK1 (Track 1).bin" size="553794864" crc="912d6ddd" md5="7c9bbacc7deb50344edd90785a3a2122" sha1="01d3e80d5eaa1ede18dce22ec94e4b3d933eb4bb" />
<rom name="XC2DISK1 (Track 2).bin" size="18625488" crc="737d737f" md5="d42bf71512d7574d48db9e9f28b2bef3" sha1="868d4e01649b4e4a9eb36e0056b34aca9652b928" />
<rom name="XC2DISK1 (Track 3).bin" size="31227504" crc="a80d61e9" md5="b2efd6697efb5954c7d6f3f9f7846753" sha1="fdd5daba1c8121c009f0a35dc6b37cff15ae054f" />
<rom name="XC2DISK1 (Track 4).bin" size="35294112" crc="fe73ecf9" md5="267b9f002af2f49bfca68447e3cff146" sha1="804bf2d21a32654a538b2355816c04e3f52d1b80" />
<rom name="XC2DISK1 (Track 5).bin" size="35350560" crc="87f77408" md5="56929a9a7c926e96ea0b6d023c31aa7a" sha1="a2c1b298d85770bdf50f4d3e0754e18c583046f4" />
<rom name="XC2DISK1 (Track 6).bin" size="35350560" crc="87f77408" md5="56929a9a7c926e96ea0b6d023c31aa7a" sha1="a2c1b298d85770bdf50f4d3e0754e18c583046f4" />

    Cuesheet:

FILE "XC2DISK1 (Track 1).bin" BINARY
  TRACK 01 MODE2/2352
    INDEX 01 00:00:00
FILE "XC2DISK1 (Track 2).bin" BINARY
  TRACK 02 AUDIO
    INDEX 00 00:00:00
    INDEX 01 00:02:00
FILE "XC2DISK1 (Track 3).bin" BINARY
  TRACK 03 AUDIO
    INDEX 00 00:00:00
    INDEX 01 00:02:00
FILE "XC2DISK1 (Track 4).bin" BINARY
  TRACK 04 AUDIO
    INDEX 00 00:00:00
    INDEX 01 00:02:00
FILE "XC2DISK1 (Track 5).bin" BINARY
  TRACK 05 AUDIO
    INDEX 00 00:00:00
    INDEX 01 00:02:00
FILE "XC2DISK1 (Track 6).bin" BINARY
  TRACK 06 AUDIO
    INDEX 00 00:00:00
    INDEX 01 00:02:00

    Write Offset: -12

http://redump.org/disc/79500/

Similar situation to http://forum.redump.org/topic/38137/ - CD-R disc with two sectors at the end having C2 errors, probably due to mastering. Dumped with an LG Blu-Ray drive initially with DIC 20200921. Write offset is too high to dump with the LG drive with current DIC, and dumping with a Plextor produces a different dump than what is in the database.

Unfortunately I can't get a consistent dump with the Plextor without /c2, it alternates between two different CRCs even when reading at 1x:

<rom name="12 30 2014.bin" size="96018048" crc="37a4088a" md5="ff198aec47a841c32ec10ad4b05961da" sha1="df31f05f3a55fcd8ce0643f005dbbdd03723c509" />
<rom name="12 30 2014.bin" size="96018048" crc="29017e85" md5="6cbbb261fe0efa7ea4e62e20b6d041c9" sha1="ed544520b71d1cd3ca4b08202ea6a5254e466483" />

The differences between the dumps are more than just a few bytes as well.

So I'm not sure if anything can be done other than marking as bad. I've attached the Plextor logs.

25

(0 replies, posted in Verifications)

http://redump.org/disc/1928/
log: http://interbutt.com/misc/HERETIC_II_logs.zip

Common Disc Info:
    Title: Heretic II
    Foreign Title (Non-latin): 
    Disc Number / Letter: 
    Disc Title: 
    System: IBM PC Compatible
    Media Type: CD-ROM
    Category: Games
    Matching IDs: 1928
    Region: USA
    Languages: English
    Disc Serial: 6246 01

    Ringcode Information:
        Data Side Mastering Code (laser branded/etched): 6246101US R1H
        Data Side Mastering SID Code: IFPI L238
        Data Side Toolstamp or Mastering Code (engraved/stamped): 14
        Data Side Mould SID Code: IFPI 4121
        Data Side Additional Mould: 
        Label Side Mould SID Code: 
        Label Side Additional Mould: 
    Barcode: 0 81656 06246 8
    Error Count: 0
    Comments: [T:ISBN]: 1-57714-082-6
    Contents: 

Version and Editions:
    Version: 1.06a
    Edition/Release: Original

Extras:
    Primary Volume Descriptor (PVD):

0320 : 20 20 20 20 20 20 20 20  20 20 20 20 20 32 30 30                200
0330 : 30 30 39 31 35 31 37 32  35 34 39 30 30 00 32 30   0091517254900.20
0340 : 30 30 30 39 31 35 31 37  32 35 34 39 30 30 00 30   00091517254900.0
0350 : 30 30 30 30 30 30 30 30  30 30 30 30 30 30 30 00   000000000000000.
0360 : 30 30 30 30 30 30 30 30  30 30 30 30 30 30 30 30   0000000000000000
0370 : 00 01 00 00 00 00 00 00  00 00 00 00 00 00 00 00   ................

Copy Protection:
    Copy Protection: None found

Tracks and Write Offsets:
    DAT:

<rom name="HERETIC_II (Track 01).bin" size="365578416" crc="fe6623a1" md5="1648acb99b944dfc89e942c655437250" sha1="a998ada9e4068c7746c27c2e6106cf2d5b3eb71a" />
<rom name="HERETIC_II (Track 02).bin" size="31373328" crc="0659d778" md5="5545e9e9c1787371610d96c11d3816aa" sha1="5403152bdcd730d4cce1ebebba0ded8fd2788daa" />
<rom name="HERETIC_II (Track 03).bin" size="32913888" crc="6ac14978" md5="13bdd9e67c9293a1085d3258af179747" sha1="15e58c1e1edc6495d617631ab00ff68b0e059609" />
<rom name="HERETIC_II (Track 04).bin" size="37813104" crc="0da37cdd" md5="177088d99c6602eccc4b3402b8deb446" sha1="11adfdedadf6a8c3327bbf7ca577db4afbcafad0" />
<rom name="HERETIC_II (Track 05).bin" size="32238864" crc="318c55cc" md5="26d656f91b75b4bc836d2f09abca1fd9" sha1="808221a9a0b7772f72a1c083683f96a678704613" />
<rom name="HERETIC_II (Track 06).bin" size="32231808" crc="64432b7d" md5="85a1d697ce5ee2027d8c18b5560df6e0" sha1="c0f6e23c45f8047685675a0ff2d2fba54be42cb8" />
<rom name="HERETIC_II (Track 07).bin" size="33814704" crc="73dfd301" md5="79750d0b7833aa767be6985124bc103d" sha1="ecb00f30a01e0ad3bc1e1a936321de54c5fb6f2f" />
<rom name="HERETIC_II (Track 08).bin" size="32090688" crc="3d5d9a39" md5="0fef8acb2e3c4b6e254fa344f15db852" sha1="b1565a6d17020c7e02cf8f786c7874db6162fe89" />
<rom name="HERETIC_II (Track 09).bin" size="31599120" crc="e6914d23" md5="55f2c612dd21fa00ef6ea4060e84d7cc" sha1="cb011d9249a29abc824805b2f91d02afc924e7d0" />
<rom name="HERETIC_II (Track 10).bin" size="31387440" crc="7af7b9ed" md5="a11bd386bf1c540a9dd469a09cdb3a20" sha1="9859d94d05f9793d1e834108bb3a9a4f09edfaf2" />
<rom name="HERETIC_II (Track 11).bin" size="33320784" crc="6c071a90" md5="0d5fceb0820f33f897c3828367dbe58f" sha1="8cac93e1231558c17db81e5d9a55fa0c5cd2f667" />
<rom name="HERETIC_II (Track 12).bin" size="32010720" crc="8053106e" md5="1c81e88e3a45ee51b6b129b186259388" sha1="ed8219657c216cac83ca2e5b902dd93c2216fc70" />
<rom name="HERETIC_II (Track 13).bin" size="32288256" crc="b1ac1df3" md5="c05cb48c2295a9c9b6de065b28f9649f" sha1="5cd51329be3728267f70d102ab7242abc7c8c562" />
<rom name="HERETIC_II (Track 14).bin" size="23341248" crc="45d01543" md5="8f6b9f0b32974c4f89aaafc2bde46f05" sha1="d9c49b3eea167666d84ab8e18bb32f3049ecdb84" />

    Cuesheet:

FILE "HERETIC_II (Track 01).bin" BINARY
  TRACK 01 MODE1/2352
    FLAGS DCP
    INDEX 01 00:00:00
FILE "HERETIC_II (Track 02).bin" BINARY
  TRACK 02 AUDIO
    FLAGS DCP
    INDEX 00 00:00:00
    INDEX 01 00:02:00
FILE "HERETIC_II (Track 03).bin" BINARY
  TRACK 03 AUDIO
    FLAGS DCP
    INDEX 00 00:00:00
    INDEX 01 00:02:00
FILE "HERETIC_II (Track 04).bin" BINARY
  TRACK 04 AUDIO
    FLAGS DCP
    INDEX 00 00:00:00
    INDEX 01 00:02:00
FILE "HERETIC_II (Track 05).bin" BINARY
  TRACK 05 AUDIO
    FLAGS DCP
    INDEX 00 00:00:00
    INDEX 01 00:02:00
FILE "HERETIC_II (Track 06).bin" BINARY
  TRACK 06 AUDIO
    FLAGS DCP
    INDEX 00 00:00:00
    INDEX 01 00:02:00
FILE "HERETIC_II (Track 07).bin" BINARY
  TRACK 07 AUDIO
    FLAGS DCP
    INDEX 00 00:00:00
    INDEX 01 00:02:00
FILE "HERETIC_II (Track 08).bin" BINARY
  TRACK 08 AUDIO
    FLAGS DCP
    INDEX 00 00:00:00
    INDEX 01 00:02:00
FILE "HERETIC_II (Track 09).bin" BINARY
  TRACK 09 AUDIO
    FLAGS DCP
    INDEX 00 00:00:00
    INDEX 01 00:02:00
FILE "HERETIC_II (Track 10).bin" BINARY
  TRACK 10 AUDIO
    FLAGS DCP
    INDEX 00 00:00:00
    INDEX 01 00:02:00
FILE "HERETIC_II (Track 11).bin" BINARY
  TRACK 11 AUDIO
    FLAGS DCP
    INDEX 00 00:00:00
    INDEX 01 00:02:00
FILE "HERETIC_II (Track 12).bin" BINARY
  TRACK 12 AUDIO
    FLAGS DCP
    INDEX 00 00:00:00
    INDEX 01 00:02:00
FILE "HERETIC_II (Track 13).bin" BINARY
  TRACK 13 AUDIO
    FLAGS DCP
    INDEX 00 00:00:00
    INDEX 01 00:02:00
FILE "HERETIC_II (Track 14).bin" BINARY
  TRACK 14 AUDIO
    FLAGS DCP
    INDEX 00 00:00:00
    INDEX 01 00:02:00

    Write Offset: 0