1

(0 replies, posted in Verifications)

http://redump.org/disc/60632/
log: http://interbutt.com/misc/SLPM-60282_logs.zip

Common Disc Info:
    Title: Lucky Star: RAvish Romance
    Foreign Title (Non-latin): らき☆すた-RAvishRomance-
    Disc Number / Letter: 
    Disc Title: 
    System: Sony PlayStation 2
    Media Type: CD-ROM
    Category: Demos
    Fully Matching ID: 60632
    Region: Japan
    Languages: Japanese
    Disc Serial: SLPM 60282

    Ringcode Information:

Data Side Mastering Code (laser branded/etched): SLPM-60282    1
Data Side Mastering SID Code: IFPI L275
Data Side Toolstamp or Mastering Code (engraved/stamped): 
Data Side Mould SID Code: IFPI 453F
Data Side Additional Mould: 
Label Side Mould SID Code: 

    Barcode: 
    EXE/Build Date: 2007-03-31
    Error Count: 0
    Comments:

[T:ISN] SLPM-60282
Bundled with http://redump.org/disc/108364/

    Contents: 

Version and Editions:
    Version: 1.00
    Edition/Release: Taikenban

Extras:
    Primary Volume Descriptor (PVD):

0320 : 20 20 20 20 20 20 20 20  20 20 20 20 20 32 30 30                200
0330 : 37 30 33 33 31 32 31 31  32 31 30 30 30 24 30 30   7033121121000$00
0340 : 30 30 30 30 30 30 30 30  30 30 30 30 30 30 00 30   00000000000000.0
0350 : 30 30 30 30 30 30 30 30  30 30 30 30 30 30 30 00   000000000000000.
0360 : 30 30 30 30 30 30 30 30  30 30 30 30 30 30 30 30   0000000000000000
0370 : 00 01 00 00 00 00 00 00  00 00 00 00 00 00 00 00   ................

Tracks and Write Offsets:
    DAT:

<rom name="SLPM-60282.bin" size="230072640" crc="d45b149c" md5="0dd582006a420397598071d07418019f" sha1="5d43c54315e96ef4ceec342c9c30ec42d0ba10c2" />

    Cuesheet:

FILE "SLPM-60282.bin" BINARY
  TRACK 01 MODE2/2352
    INDEX 01 00:00:00

    Write Offset: -12

Dumping Info:
    Frontend Version: 3.1.7-a9ee6667d0ebd60a83532b2ef672783a8589442e
    Dumping Program: Redumper v2024.01.08 build_311
    Date: 2024-05-09 03:44:03
    Manufacturer: PLEXTOR
    Model: CD-R PX-W5224A
    Firmware: 1.04 (04/10/06 17:00)
    Reported Disc Type: CD-ROM
    C2 Error Count: 0

2

(0 replies, posted in Verifications)

http://redump.org/disc/114511/
log: http://interbutt.com/misc/Rose%20Guns%20Days1_logs.zip

Common Disc Info:
    Title: Rose Guns Days: Season 1
    Foreign Title (Non-latin): ローズ ガンズ デイズ season 1
    Disc Number / Letter: 
    Disc Title: 
    System: IBM PC compatible
    Media Type: DVD-ROM-5
    Category: Games
    Region: Japan
    Languages: Japanese
    Disc Serial: 

    Ringcode Information:

Data Side Mastering Code (laser branded/etched): CB25-07T MT 761
Data Side Mastering SID Code: IFPI L269
Data Side Toolstamp or Mastering Code (engraved/stamped): 
Data Side Mould SID Code: IFPI 44BA
Data Side Additional Mould: 
Label Side Mould SID Code: 

    Barcode: 
    Comments: [T:VOL] Rose Guns Days1, ROSE_GUNS_DAYS1 (ISO)
    Contents: 

Version and Editions:
    Version: 1.011
    Edition/Release: Original

Extras:
    Primary Volume Descriptor (PVD):

0320 : 20 20 20 20 20 20 20 20  20 20 20 20 20 32 30 31                201
0330 : 32 30 37 32 36 32 31 30  38 30 30 30 30 24 32 30   2072621080000$20
0340 : 31 32 30 37 32 36 32 31  30 38 30 30 30 30 24 30   12072621080000$0
0350 : 30 30 30 30 30 30 30 30  30 30 30 30 30 30 30 00   000000000000000.
0360 : 30 30 30 30 30 30 30 30  30 30 30 30 30 30 30 30   0000000000000000
0370 : 00 01 00 00 00 00 00 00  00 00 00 00 00 00 00 00   ................

Copy Protection:
    Copy Protection: None found [OMIT FROM SUBMISSION]
    SubIntention Data (SecuROM/LibCrypt): 

Size & Checksum:
    Size: 1580367872
    CRC32: 28ea7da6
    MD5: edf25e56aee21c85a7ff73413e8a2922
    SHA1: 43799f96e4b923de934c21d39256be1fee8c8221

Dumping Info:
    Frontend Version: 3.1.5-771483ac146302cf6634037db23cd336b0d1c97a
    Dumping Program: Redumper v2024.01.08 build_311
    Date: 2024-04-15 19:08:39
    Manufacturer: ASUS
    Model: BW-16D1HT
    Firmware: 3.10 (WM01601KL4K9MJ1918)
    Reported Disc Type: DVD-ROM

3

(0 replies, posted in Verifications)

http://redump.org/disc/7057/
log: http://interbutt.com/misc/RECETTEAR_logs.zip

Common Disc Info:
    Title: Recettear: Item-ya-san no Hajimekata
    Foreign Title (Non-latin): ルセッティア ~アイテム屋さんのはじめ方~
    Disc Number / Letter: 
    Disc Title: 
    System: IBM PC compatible
    Media Type: CD-ROM
    Category: Games
    Fully Matching ID: 7057
    Region: Japan
    Languages: Japanese
    Disc Serial: EGS-0013

    Ringcode Information:

Data Side Mastering Code (laser branded/etched): EGS-0013 2
Data Side Mastering SID Code: IFPI L154
Data Side Toolstamp or Mastering Code (engraved/stamped): 
Data Side Mould SID Code: IFPI 28B7
Data Side Additional Mould: 
Label Side Mould SID Code: 

    Barcode: 
    Error Count: 0
    Comments: [T:VOL] RECETTEAR
    Contents: 

Version and Editions:
    Version: 1.11
    Edition/Release: Original

Extras:
    Primary Volume Descriptor (PVD):

0320 : 20 20 20 20 20 20 20 20  20 20 20 20 20 32 30 30                200
0330 : 38 30 32 30 38 31 36 31  32 30 30 30 00 24 32 30   802081612000.$20
0340 : 30 38 30 32 30 38 31 36  31 32 30 30 30 00 24 30   0802081612000.$0
0350 : 30 30 30 30 30 30 30 30  30 30 30 30 30 30 30 00   000000000000000.
0360 : 30 30 30 30 30 30 30 30  30 30 30 30 30 30 30 30   0000000000000000
0370 : 00 01 00 00 00 00 00 00  00 00 00 00 00 00 00 00   ................

Copy Protection:
    Copy Protection: None found [OMIT FROM SUBMISSION]
    SubIntention Data (SecuROM/LibCrypt): 

Tracks and Write Offsets:
    DAT:

<rom name="RECETTEAR.bin" size="695681616" crc="3fa51124" md5="965fa6eb89256cc52c68a99a9ae6c6f2" sha1="761ae803d66b4b1903d5ab04747c1f7f755bc0f4" />

    Cuesheet:

FILE "RECETTEAR.bin" BINARY
  TRACK 01 MODE1/2352
    INDEX 01 00:00:00

    Write Offset: -12

Dumping Info:
    Frontend Version: 3.1.5-771483ac146302cf6634037db23cd336b0d1c97a
    Dumping Program: Redumper v2024.01.08 build_311
    Date: 2024-04-15 20:28:20
    Manufacturer: PLEXTOR
    Model: CD-R PX-W5224A
    Firmware: 1.04 (04/10/06 17:00)
    Reported Disc Type: CD-ROM
    C2 Error Count: 0

4

(0 replies, posted in Verifications)

http://redump.org/disc/7053/

Common Disc Info:
    Title: Dash de LeiLei
    Foreign Title (Non-latin): ダッシュDEレイレイ
    Disc Number / Letter: 
    Disc Title: 
    System: IBM PC compatible
    Media Type: CD-ROM
    Category: Games
    Fully Matching ID: 7053
    Region: Japan
    Languages: Japanese
    Disc Serial: 

    Ringcode Information:

Data Side Mastering Code (laser branded/etched): EGS-0005A    OP412A
Data Side Mastering SID Code: IFPI L203
Data Side Toolstamp or Mastering Code (engraved/stamped): 
Data Side Mould SID Code: IFPI 4852
Data Side Additional Mould: 
Label Side Mould SID Code: 

    Barcode: 
    Error Count: 0
    Comments: [T:VOL] マイディスク, LEILEI (ISO)
    Contents: 

Version and Editions:
    Version: 1.02
    Edition/Release: 

Extras:
    Primary Volume Descriptor (PVD):

0320 : 20 20 20 20 20 20 20 20  20 20 20 20 20 32 30 30                200
0330 : 34 30 31 32 31 30 30 31  36 30 30 30 30 24 32 30   4012100160000$20
0340 : 30 34 30 31 32 31 30 30  31 36 30 30 30 30 24 32   04012100160000$2
0350 : 30 30 34 30 31 32 31 30  30 31 37 31 32 30 30 24   004012100171200$
0360 : 32 30 30 34 30 31 32 31  30 30 31 37 31 32 30 30   2004012100171200
0370 : 24 01 00 00 00 00 00 00  00 00 00 00 00 00 00 00   $...............

Copy Protection:
    Copy Protection: None found [OMIT FROM SUBMISSION]
    SubIntention Data (SecuROM/LibCrypt): 

Tracks and Write Offsets:
    DAT:

<rom name="マイディスク.bin" size="163400496" crc="bca78fc8" md5="208f05e629cc4c9cd7bcf20c90555e0f" sha1="1ab8786e8fe0de6bd3b18ce694d02b2e34c4e6a3" />

    Cuesheet:

FILE "マイディスク.bin" BINARY
  TRACK 01 MODE1/2352
    INDEX 01 00:00:00

    Write Offset: -12

Dumping Info:
    Frontend Version: 3.1.5-771483ac146302cf6634037db23cd336b0d1c97a
    Dumping Program: Redumper v2024.01.08 build_311
    Date: 2024-04-26 16:34:45
    Manufacturer: PLEXTOR
    Model: CD-R PX-W5224A
    Firmware: 1.04 (04/10/06 17:00)
    Reported Disc Type: CD-ROM
    C2 Error Count: 0

5

(0 replies, posted in Verifications)

http://redump.org/disc/87822/
log: http://interbutt.com/misc/DAYBREAK_logs.zip

Common Disc Info:
    Title: Higurashi DayBreak
    Foreign Title (Non-latin): ひぐらしデイブレイク
    Disc Number / Letter: 
    Disc Title: 
    System: IBM PC compatible
    Media Type: DVD-ROM-5
    Category: Games
    Fully Matching ID: 87822
    Region: Japan
    Languages: Japanese
    Disc Serial: TF017-JP

    Ringcode Information:

Data Side Mastering Code (laser branded/etched): TF017-JP-S 1
Data Side Mastering SID Code: IFPI L155
Data Side Toolstamp or Mastering Code (engraved/stamped): 
Data Side Mould SID Code: IFPI 2807
Data Side Additional Mould: 
Label Side Mould SID Code: IFPI 2810

    Barcode: 
    Comments: [T:VOL] DAYBREAK
    Contents: 

Version and Editions:
    Version: 
    Edition/Release: 

Extras:
    Primary Volume Descriptor (PVD):

0320 : 20 20 20 20 20 20 20 20  20 20 20 20 20 32 30 30                200
0330 : 36 30 38 30 32 31 31 35  35 33 38 37 30 24 30 30   6080211553870$00
0340 : 30 30 30 30 30 30 30 30  30 30 30 30 30 30 24 30   00000000000000$0
0350 : 30 30 30 30 30 30 30 30  30 30 30 30 30 30 30 24   000000000000000$
0360 : 30 30 30 30 30 30 30 30  30 30 30 30 30 30 30 30   0000000000000000
0370 : 24 01 00 00 00 00 00 00  00 00 00 00 00 00 00 00   $...............

Copy Protection:
    Copy Protection: None found [OMIT FROM SUBMISSION]
    SubIntention Data (SecuROM/LibCrypt): 

Size & Checksum:
    Size: 2861918208
    CRC32: 2eacf655
    MD5: 2f5df2d39b2392dc2676774286ac0d0f
    SHA1: 7ecec2567806fede0d181937f27c0d07a72e9a6c

Dumping Info:
    Frontend Version: 3.1.5-771483ac146302cf6634037db23cd336b0d1c97a
    Dumping Program: Redumper v2024.01.08 build_311
    Date: 2024-04-19 17:31:40
    Manufacturer: ASUS
    Model: BW-16D1HT
    Firmware: 3.10 (WM01601KL4K9MJ1918)
    Reported Disc Type: DVD-ROM

6

(0 replies, posted in Verifications)

http://redump.org/disc/73744/
log: http://interbutt.com/misc/MELTYBLOOD_REACT_logs.zip

Common Disc Info:
    Title: Melty Blood Re·ACT
    Foreign Title (Non-latin): メルティブラッドRe・ACT
    Disc Number / Letter: 
    Disc Title: 
    System: IBM PC compatible
    Media Type: CD-ROM
    Category: Add-Ons
    Fully Matching ID: 73744
    Region: Japan
    Languages: Japanese
    Disc Serial: 

    Ringcode Information:

Data Side Mastering Code (laser branded/etched): WATANABE-008 R1K    V
Data Side Mastering SID Code: IFPI L237
Data Side Toolstamp or Mastering Code (engraved/stamped): 11
Data Side Mould SID Code: IFPI 4011
Data Side Additional Mould: 
Label Side Mould SID Code: 

    Barcode: 
    Error Count: 0
    Comments:

[T:VOL] MELTYBLOOD_REACT
Requires a copy of Melty Blood to play.

    Contents: 

Version and Editions:
    Version: 2.000
    Edition/Release: 

Extras:
    Primary Volume Descriptor (PVD):

0320 : 20 20 20 20 20 20 20 20  20 20 20 20 20 32 30 30                200
0330 : 34 30 35 31 37 31 38 31  35 33 39 35 36 24 30 30   4051718153956$00
0340 : 30 30 30 30 30 30 30 30  30 30 30 30 30 30 24 30   00000000000000$0
0350 : 30 30 30 30 30 30 30 30  30 30 30 30 30 30 30 24   000000000000000$
0360 : 30 30 30 30 30 30 30 30  30 30 30 30 30 30 30 30   0000000000000000
0370 : 24 01 00 00 00 00 00 00  00 00 00 00 00 00 00 00   $...............

Copy Protection:
    Copy Protection: None found [OMIT FROM SUBMISSION]
    SubIntention Data (SecuROM/LibCrypt): 

Tracks and Write Offsets:
    DAT:

<rom name="MELTYBLOOD_REACT.bin" size="607161744" crc="933b3d67" md5="48bb83eadc2cb6d81ba59af52980a24c" sha1="709b893961d1b94b3aabf9e9088f45ff9b267032" />

    Cuesheet:

FILE "MELTYBLOOD_REACT.bin" BINARY
  TRACK 01 MODE1/2352
    INDEX 01 00:00:00

    Write Offset: -12

Dumping Info:
    Frontend Version: 3.1.5-771483ac146302cf6634037db23cd336b0d1c97a
    Dumping Program: Redumper v2024.01.08 build_311
    Date: 2024-04-18 22:56:22
    Manufacturer: PLEXTOR
    Model: CD-R PX-W5224A
    Firmware: 1.04 (04/10/06 17:00)
    Reported Disc Type: CD-ROM
    C2 Error Count: 0

7

(0 replies, posted in Verifications)

http://redump.org/disc/73745/
log: http://interbutt.com/misc/MELTY_BLOOD_logs.zip

Common Disc Info:
    Title: Melty Blood
    Foreign Title (Non-latin): メルティブラッド
    Disc Number / Letter: 
    Disc Title: 
    System: IBM PC compatible
    Media Type: CD-ROM
    Category: Games
    Fully Matching ID: 73745
    Region: Japan
    Languages: Japanese
    Disc Serial: 

    Ringcode Information:

Data Side Mastering Code (laser branded/etched): WATANABE-005    4MS1    C    2Z
Data Side Mastering SID Code: IFPI L223
Data Side Toolstamp or Mastering Code (engraved/stamped): 
Data Side Mould SID Code: IFPI 3938
Data Side Additional Mould: 
Label Side Mould SID Code: 

    Barcode: 
    Error Count: 0
    Comments: [T:VOL] MELTY_BLOOD
    Contents: 

Version and Editions:
    Version: 1.000
    Edition/Release: First Release Edition

Extras:
    Primary Volume Descriptor (PVD):

0320 : 20 20 20 20 20 20 20 20  20 20 20 20 20 32 30 30                200
0330 : 32 31 32 31 38 31 30 31  35 30 35 37 38 24 30 30   2121810150578$00
0340 : 30 30 30 30 30 30 30 30  30 30 30 30 30 30 24 30   00000000000000$0
0350 : 30 30 30 30 30 30 30 30  30 30 30 30 30 30 30 24   000000000000000$
0360 : 30 30 30 30 30 30 30 30  30 30 30 30 30 30 30 30   0000000000000000
0370 : 24 01 00 00 00 00 00 00  00 00 00 00 00 00 00 00   $...............

Copy Protection:
    Copy Protection: None found [OMIT FROM SUBMISSION]
    SubIntention Data (SecuROM/LibCrypt): 

Tracks and Write Offsets:
    DAT:

<rom name="MELTY_BLOOD.bin" size="730413600" crc="700acfec" md5="a20e82b8de22c6fb7a853b6832d68eaa" sha1="6ac9f7cff45ab81fea96dd4f72149cbe1073ce3a" />

    Cuesheet:

CATALOG 0000000000000
FILE "MELTY_BLOOD.bin" BINARY
  TRACK 01 MODE1/2352
    INDEX 01 00:00:00

    Write Offset: 0

Dumping Info:
    Frontend Version: 3.1.5-771483ac146302cf6634037db23cd336b0d1c97a
    Dumping Program: Redumper v2024.01.08 build_311
    Date: 2024-04-16 22:55:02
    Manufacturer: PLEXTOR
    Model: CD-R PX-W5224A
    Firmware: 1.04 (04/10/06 17:00)
    Reported Disc Type: CD-ROM
    C2 Error Count: 0

http://redump.org/disc/7058/
http://interbutt.com/misc/CHELSEA_logs.zip

Common Disc Info:
    Title: Chelsea-san wa 7 no Majin o Bukkorosaneba Naranai.
    Foreign Title (Non-latin): チェルシーさんは7の魔神をブッ殺さねばならない。
    Disc Number / Letter: 
    Disc Title: 
    System: IBM PC compatible
    Media Type: CD-ROM
    Category: Games
    Fully Matching ID: 7058
    Region: Japan
    Languages: Japanese
    Disc Serial: MSCD-0023

    Ringcode Information:

Data Side Mastering Code (laser branded/etched): MSCD-0023A    OP0692A
Data Side Mastering SID Code: IFPI L303
Data Side Toolstamp or Mastering Code (engraved/stamped): 
Data Side Mould SID Code: IFPI 4826
Data Side Additional Mould: 
Label Side Mould SID Code: 

    Barcode: 
    Error Count: 0
    Comments:

[T:VOL] CHELSEA
[T:ALT] Bunny Must Die
[T:ALT] Chelsea and 7devils

    Contents: 

Version and Editions:
    Version: REV060912
    Edition/Release: 

Extras:
    Primary Volume Descriptor (PVD):

0320 : 20 20 20 20 20 20 20 20  20 20 20 20 20 32 30 30                200
0330 : 36 30 39 31 33 31 34 31  31 33 36 30 30 24 32 30   6091314113600$20
0340 : 30 36 30 39 31 33 31 34  31 31 33 36 30 30 24 32   06091314113600$2
0350 : 30 30 36 30 39 31 33 31  34 31 31 33 36 30 30 24   006091314113600$
0360 : 32 30 30 36 30 39 31 33  31 34 31 31 33 36 30 30   2006091314113600
0370 : 24 01 00 00 00 00 00 00  00 00 00 00 00 00 00 00   $...............

Copy Protection:
    Copy Protection: None found [OMIT FROM SUBMISSION]
    SubIntention Data (SecuROM/LibCrypt): 

Tracks and Write Offsets:
    DAT:

<rom name="CHELSEA.bin" size="32104800" crc="b1824309" md5="1fd8543a283c163c876386cd712d7e0c" sha1="0032a036b69f37837149aa2f08b54cd72276fed4" />

    Cuesheet:

FILE "CHELSEA.bin" BINARY
  TRACK 01 MODE1/2352
    INDEX 01 00:00:00

    Write Offset: -12

Dumping Info:
    Frontend Version: 3.1.5-771483ac146302cf6634037db23cd336b0d1c97a
    Dumping Program: Redumper v2024.01.08 build_311
    Date: 2024-04-16 22:41:00
    Manufacturer: PLEXTOR
    Model: CD-R PX-W5224A
    Firmware: 1.04 (04/10/06 17:00)
    Reported Disc Type: CD-ROM
    C2 Error Count: 0

9

(0 replies, posted in Verifications)

http://redump.org/disc/85611/
log: http://interbutt.com/misc/6KINOKO_logs.zip

Common Disc Info:
    Title: Marisa to 6-tsu no Kinoko
    Foreign Title (Non-latin): 真理沙と6つのキノコ
    Disc Number / Letter: 
    Disc Title: 
    System: IBM PC compatible
    Media Type: CD-ROM
    Category: Games
    Fully Matching ID: 85611
    Region: Japan
    Languages: Japanese
    Disc Serial: TF023-JP

    Ringcode Information:

Data Side Mastering Code (laser branded/etched): TF023-JP 461
Data Side Mastering SID Code: IFPI L154
Data Side Toolstamp or Mastering Code (engraved/stamped): 
Data Side Mould SID Code: IFPI 28A2
Data Side Additional Mould: 
Label Side Mould SID Code: 

    Barcode: 
    Error Count: 0
    Comments:

[T:VOL] 6KINOKO
[T:ALT] NewSuperMarisaLand

    Contents: 

Version and Editions:
    Version: 
    Edition/Release: Original

Extras:
    Primary Volume Descriptor (PVD):

0320 : 20 20 20 20 20 20 20 20  20 20 20 20 20 32 30 31                201
0330 : 30 30 38 30 33 30 38 35  36 30 30 30 00 24 32 30   008030856000.$20
0340 : 31 30 30 38 30 33 30 38  35 36 30 30 30 00 24 30   1008030856000.$0
0350 : 30 30 30 30 30 30 30 30  30 30 30 30 30 30 30 00   000000000000000.
0360 : 30 30 30 30 30 30 30 30  30 30 30 30 30 30 30 30   0000000000000000
0370 : 00 01 00 00 00 00 00 00  00 00 00 00 00 00 00 00   ................

Copy Protection:
    Copy Protection: None found [OMIT FROM SUBMISSION]
    SubIntention Data (SecuROM/LibCrypt): 

Tracks and Write Offsets:
    DAT:

<rom name="6KINOKO.bin" size="355502448" crc="f3baed34" md5="67dec0adf47dbd2d29c77dc310138bb2" sha1="1e227e5c587caca68b0c7ee032b0acc877802012" />

    Cuesheet:

FILE "6KINOKO.bin" BINARY
  TRACK 01 MODE1/2352
    INDEX 01 00:00:00

    Write Offset: -12

Dumping Info:
    Frontend Version: 3.1.5-771483ac146302cf6634037db23cd336b0d1c97a
    Dumping Program: Redumper v2024.01.08 build_311
    Date: 2024-04-14 23:33:30
    Manufacturer: PLEXTOR
    Model: CD-R PX-W5224A
    Firmware: 1.04 (04/10/06 17:00)
    Reported Disc Type: CD-ROM
    C2 Error Count: 0

10

(0 replies, posted in Verifications)

http://redump.org/disc/89987/
log: http://interbutt.com/misc/ABYSS_BOAT_logs.zip

Common Disc Info:
    Title: Abyss Boat
    Foreign Title (Non-latin): 
    Disc Number / Letter: 
    Disc Title: 
    System: IBM PC compatible
    Media Type: CD-ROM
    Category: Games
    Fully Matching ID: 89987
    Region: Japan
    Languages: Japanese
    Disc Serial: 

    Ringcode Information:

Data Side Mastering Code (laser branded/etched): WIC-7235 2
Data Side Mastering SID Code: IFPI L154
Data Side Toolstamp or Mastering Code (engraved/stamped): A1
Data Side Mould SID Code: IFPI 28A3
Data Side Additional Mould: 
Label Side Mould SID Code: 

    Barcode: 
    Error Count: 0
    Comments: [T:VOL] ABYSS_BOAT
    Contents: 

Version and Editions:
    Version: 
    Edition/Release: Original

Extras:
    Primary Volume Descriptor (PVD):

0320 : 20 20 20 20 20 20 20 20  20 20 20 20 20 32 30 30                200
0330 : 31 31 32 31 30 31 34 34  37 32 39 33 38 24 30 30   1121014472938$00
0340 : 30 30 30 30 30 30 30 30  30 30 30 30 30 30 24 30   00000000000000$0
0350 : 30 30 30 30 30 30 30 30  30 30 30 30 30 30 30 24   000000000000000$
0360 : 30 30 30 30 30 30 30 30  30 30 30 30 30 30 30 30   0000000000000000
0370 : 24 01 00 00 00 00 00 00  00 00 00 00 00 00 00 00   $...............

Copy Protection:
    Copy Protection: None found [OMIT FROM SUBMISSION]
    SubIntention Data (SecuROM/LibCrypt): 

Tracks and Write Offsets:
    DAT:

<rom name="ABYSS_BOAT.bin" size="457329936" crc="7fef79a3" md5="afc049038138ff9b7ba258e398c35819" sha1="87dfadd3c3e25027bc2d4ce2e019b56060a336d8" />

    Cuesheet:

FILE "ABYSS_BOAT.bin" BINARY
  TRACK 01 MODE1/2352
    INDEX 01 00:00:00

    Write Offset: -12

Dumping Info:
    Frontend Version: 3.1.4-ccf2166b725a68810649721d7ae4f5afb3be1b62
    Dumping Program: Redumper v2024.01.08 build_311
    Date: 2024-03-19 01:43:50
    Manufacturer: PLEXTOR
    Model: CD-R PX-W5224A
    Firmware: 1.04 (04/10/06 17:00)
    Reported Disc Type: CD-ROM

11

(0 replies, posted in Verifications)

http://redump.org/disc/72294/
log: http://interbutt.com/misc/RAINBOW6_logs.zip

Common Disc Info:
    Title: Tom Clancy's Rainbow Six
    Disc Number / Letter: 
    Disc Title: 
    System: IBM PC compatible
    Media Type: CD-ROM
    Category: Games
    Fully Matching ID: 72294
    Region: USA
    Languages: English
    Disc Serial: TCRS-0414

    Ringcode Information:

Data Side Mastering Code (laser branded/etched): R6-0414    + +    C0916-01
Data Side Mastering SID Code: IFPI LB41
Data Side Toolstamp or Mastering Code (engraved/stamped): A02
Data Side Mould SID Code: IFPI 1036
Data Side Additional Mould: 
Label Side Mould SID Code: 

    Barcode: 7 53799 09823 8
    Error Count: 0
    Comments:

[T:VOL] RAINBOW6
Serials above barcode: 9823-3012, 9823
Audio tracks are missing

    Contents: PDF Manual (En)

Version and Editions:
    Version: 
    Edition/Release: Special Forces Pack

Extras:
    Primary Volume Descriptor (PVD):

0320 : 20 20 20 20 20 20 20 20  20 20 20 20 20 32 30 30                200
0330 : 31 30 38 30 36 31 30 34  37 33 37 30 30 00 32 30   1080610473700.20
0340 : 30 31 30 38 30 36 31 30  34 37 33 37 30 30 00 30   01080610473700.0
0350 : 30 30 30 30 30 30 30 30  30 30 30 30 30 30 30 00   000000000000000.
0360 : 30 30 30 30 30 30 30 30  30 30 30 30 30 30 30 30   0000000000000000
0370 : 00 01 00 00 00 00 00 00  00 00 00 00 00 00 00 00   ................

Copy Protection:
    Copy Protection: [Exception opening file, please try again]

Tracks and Write Offsets:
    DAT:

<rom name="RAINBOW6.bin" size="458816400" crc="f948905d" md5="e4838267188d5a2d5233d5e840f43636" sha1="eaa5efdf838878a7c9980dfcb36cf970a62dcc27" />

    Cuesheet:

FILE "RAINBOW6.bin" BINARY
  TRACK 01 MODE2/2352
    INDEX 01 00:00:00

    Write Offset: -12

Dumping Info:
    Dumping Program: DiscImageCreator 20230606
    Date: 2023-09-24 10:45:46
    Manufacturer: PLEXTOR
    Model: CD-R    PX-W5224A
    Firmware: 1.04
    Reported Disc Type: CD-ROM XA Disc

Ran BOS on the install folder with no results.

12

(0 replies, posted in Verifications)

Disc 2 submitted as a new dump.

http://redump.org/disc/62557/
log: http://interbutt.com/misc/BA2_CD1_logs.zip

Common Disc Info:
    Title: Beyond Atlantis II: New Worlds Await You...
    Disc Number / Letter: 1
    Disc Title: 
    System: IBM PC compatible
    Media Type: CD-ROM
    Category: Games
    Fully Matching ID: 62557
    Region: USA
    Languages: English
    Disc Serial: 

    Ringcode Information:

Data Side Mastering Code (laser branded/etched): DUPLIUM    10-62902-
Data Side Mastering SID Code: LJ21
Data Side Toolstamp or Mastering Code (engraved/stamped): 
Data Side Mould SID Code: IFPI V512
Data Side Additional Mould: 
Label Side Mould SID Code: 

    Barcode: 6 25904 32820 5
    Error Count: 0
    Comments:

[T:VOL] BA2_CD1
[T:ISBN] 1-55345-098-1

    Contents: 

Version and Editions:
    Version: DPV1.0
    Edition/Release: Original

Extras:
    Primary Volume Descriptor (PVD):

0320 : 20 20 20 20 20 20 20 20  20 20 20 20 20 32 30 30                200
0330 : 31 31 30 31 39 31 32 34  36 33 39 30 30 00 32 30   1101912463900.20
0340 : 30 31 31 30 31 39 31 32  34 36 33 39 30 30 00 30   01101912463900.0
0350 : 30 30 30 30 30 30 30 30  30 30 30 30 30 30 30 00   000000000000000.
0360 : 30 30 30 30 30 30 30 30  30 30 30 30 30 30 30 30   0000000000000000
0370 : 00 01 00 00 00 00 00 00  00 00 00 00 00 00 00 00   ................

Copy Protection:
    Copy Protection: None found [OMIT FROM SUBMISSION]
    SubIntention Data (SecuROM/LibCrypt): 

Tracks and Write Offsets:
    DAT:

<rom name="BA2_CD1.bin" size="743309616" crc="c2f3a9f4" md5="7088fa1ab1774156dd49bbb890cc69b8" sha1="6f84b2e520aeac8b25c680ccc11f99a750318b0a" />

    Cuesheet:

FILE "BA2_CD1.bin" BINARY
  TRACK 01 MODE2/2352
    INDEX 01 00:00:00

    Write Offset: -12

Dumping Info:
    Dumping Program: Redumper v2023.11.30 build_271
    Date: 2023-12-31 01:08:27
    Manufacturer: PLEXTOR
    Model: CD-R PX-W5224A
    Firmware: 1.04 (04/10/06 17:00)
    Reported Disc Type: CD-ROM

http://redump.org/disc/62559/
log: http://interbutt.com/misc/BA2_CD3_logs.zip

Common Disc Info:
    Title: Beyond Atlantis II: New Worlds Await You...
    Disc Number / Letter: 3
    Disc Title: 
    System: IBM PC compatible
    Media Type: CD-ROM
    Category: Games
    Fully Matching ID: 62559
    Region: USA
    Languages: English
    Disc Serial: 

    Ringcode Information:

Data Side Mastering Code (laser branded/etched): DUPLIUM    10-62904-
Data Side Mastering SID Code: LJ21
Data Side Toolstamp or Mastering Code (engraved/stamped): 
Data Side Mould SID Code: IFPI V502
Data Side Additional Mould: 
Label Side Mould SID Code: 

    Barcode: 6 25904 32820 5
    Error Count: 0
    Comments:

[T:VOL] BA2_CD3
[T:ISBN] 1-55345-098-1

    Contents: 

Version and Editions:
    Version: DPV1.0
    Edition/Release: Original

Extras:
    Primary Volume Descriptor (PVD):

0320 : 20 20 20 20 20 20 20 20  20 20 20 20 20 32 30 30                200
0330 : 31 31 30 31 30 31 36 33  31 33 35 30 30 00 32 30   1101016313500.20
0340 : 30 31 31 30 31 30 31 36  33 31 33 35 30 30 00 30   01101016313500.0
0350 : 30 30 30 30 30 30 30 30  30 30 30 30 30 30 30 00   000000000000000.
0360 : 30 30 30 30 30 30 30 30  30 30 30 30 30 30 30 30   0000000000000000
0370 : 00 01 00 00 00 00 00 00  00 00 00 00 00 00 00 00   ................

Copy Protection:
    Copy Protection: None found [OMIT FROM SUBMISSION]
    SubIntention Data (SecuROM/LibCrypt): 

Tracks and Write Offsets:
    DAT:

<rom name="BA2_CD3.bin" size="749462448" crc="dcb0f3a5" md5="c2106ad70196356d09cadcbc35a8395f" sha1="339909cfb40609091bf8abef016f203d947659fb" />

    Cuesheet:

FILE "BA2_CD3.bin" BINARY
  TRACK 01 MODE2/2352
    INDEX 01 00:00:00

    Write Offset: -12

Dumping Info:
    Dumping Program: Redumper v2023.11.30 build_271
    Date: 2023-12-31 02:22:25
    Manufacturer: PLEXTOR
    Model: CD-R PX-W5224A
    Firmware: 1.04 (04/10/06 17:00)
    Reported Disc Type: CD-ROM

13

(0 replies, posted in Verifications)

http://redump.org/disc/86590/

Common Disc Info:
    Title: Star Trek: Borg: The Ultimate Interactive Movie
    Foreign Title (Non-latin): スター・トレックボーグ:THEULTIMATEINTERACTIVEMOVIE
    Disc Number / Letter: 
    Disc Title: 
    System: DVD-Video
    Media Type: DVD-ROM-9
    Category: Games
    Fully Matching ID: 86590
    Region: Japan
    Languages: English, Japanese
    Disc Serial: PIBF-7075

    Ringcode Information:

Layer 0 (Inner) Mastering Code (laser branded/etched): PIBF-7075    1A-06
Layer 0 (Inner) Mastering SID Code: 
Layer 0 (Inner) Toolstamp or Mastering Code (engraved/stamped): 
Data Side Mould SID Code: 
Data Side Additional Mould: 
Layer 1 (Outer) Mastering Code (laser branded/etched): PIBF-7075    0A-05
Layer 1 (Outer) Mastering SID Code: 
Layer 1 (Outer) Toolstamp or Mastering Code (engraved/stamped): 
Label Side Mould SID Code: 

    Barcode: 4 988102 537418
    Comments: 
    Contents: 

Picard Dossier (Windows 95 software)

Version and Editions:
    Version: 
    Edition/Release: Original

Extras:
    Primary Volume Descriptor (PVD):

0320 : 20 20 20 20 20 20 20 20  20 20 20 20 20 30 30 30                000
0330 : 30 30 30 30 30 30 30 30  30 30 30 30 30 00 30 30   0000000000000.00
0340 : 30 30 30 30 30 30 30 30  30 30 30 30 30 30 00 30   00000000000000.0
0350 : 30 30 30 30 30 30 30 30  30 30 30 30 30 30 30 00   000000000000000.
0360 : 30 30 30 30 30 30 30 30  30 30 30 30 30 30 30 30   0000000000000000
0370 : 00 01 00 00 00 00 00 00  00 00 00 00 00 00 00 00   ................

Copy Protection:
    Copy Protection:

Region: 1 2
Copyright Protection System Type: CSS/CPPM
VIDEO_TS.VOB Title Key: <none>
VTS_01_1.VOB Title Key: C0 00 01 53 F1
VTS_02_1.VOB Title Key: C0 00 01 53 F1
VTS_03_1.VOB Title Key: C0 00 01 53 F1
VTS_04_1.VOB Title Key: C0 00 01 53 F1
VTS_05_1.VOB Title Key: C0 00 01 53 F1
VTS_06_1.VOB Title Key: C0 00 01 53 F1
VTS_07_1.VOB Title Key: C0 00 01 53 F1
VTS_08_1.VOB Title Key: C0 00 01 53 F1
VTS_09_1.VOB Title Key: C0 00 01 53 F1
VTS_10_1.VOB Title Key: C0 00 01 53 F1
VTS_11_1.VOB Title Key: C0 00 01 53 F1
VTS_11_2.VOB Title Key: C0 00 01 53 F1
VTS_12_1.VOB Title Key: C0 00 01 53 F1
Decrypted Disc Key: 00 00 01 53 F1

Size & Checksum:
    Layerbreak: 1857104
    Size: 6651680768
    CRC32: 42d64acc
    MD5: 4c37258ca61920f89d451bca7841e848
    SHA1: b36f7ee07628cb04e4c0ae311ab3cdf9ac1b1e08

Dumping Info:
    Dumping Program: Redumper v2023.11.30 build_271
    Date: 2023-12-24 03:36:38
    Manufacturer: ASUS
    Model: BW-16D1HT
    Firmware: 3.10 (WM01601KL4K9MJ1918)
    Reported Disc Type: DVD-ROM

14

(2 replies, posted in Guests & account requests)

Done, thanks!

15

(2 replies, posted in Guests & account requests)

I'd like to update http://wiki.redump.org/index.php?title= … _audio_CDs to remove some discs I dumped and make some romanization corrections to http://wiki.redump.org/index.php?title= … sing_Dumps

16

(3,506 replies, posted in General discussion)

I'm getting an issue with several doujin PC games on CD-R media where there are C2 errors on the final two sectors and DIC will not complete the dump. From discussion on Discord it sounds like this is a common occurrence with CD-R discs and is most likely a mastering issue and not due to disc damage. But I can't see any way to make DIC ignore the errors and complete the dump.

Logs for two discs with the issue: http://interbutt.com/misc/CD-R%20problem%20logs.zip

17

(3,506 replies, posted in General discussion)

Jackal wrote:

DopefishJustin submitted a verification for this disc: http://redump.org/disc/65563/

The audio tracks all seem to the data starting 4 bytes later than Nexy's Plextor dump. So the offset difference is 1 sample.

It was dumped with ASUS BW-16D1HT . Logs: http://interbutt.com/misc/WARCRAFT2_X_logs.zip

We need to know if this is a problem with the ASUS drives. I've warned before that we can't really trust them because it's all just experimental and never fully tested, yet DIC keeps supporting them and now perhaps the DB is being filled with bad dumps that are done with these drives.

For the record I am using an LG WH16NS40 cross-flashed to ASUS firmware as described at http://wiki.redump.org/index.php?title= … 2_firmware

I dumped the disc twice before submitting and have now dumped it a third time, with matching results each time. The other two discs in the set also have audio tracks and matched existing dumps when read with the same drive: http://forum.redump.org/topic/36304/pc- … t-2-discs/

I have ordered a PX-W5224TA and will compare when that arrives.