Also included is Shenmue JukeBox audio CD, submitted: http://forum.redump.org/topic/53926/aud … e-jukebox/

Disc 4 (Shenmue Passport)

Logs and scans: https://drive.google.com/drive/folders/ … drive_link
Matches: http://redump.org/disc/5905/

LD

Common Disc Info:
    Title: Shenmue: Ichishou Yokosuka
    Foreign Title (Non-latin): 
    Disc Number / Letter: 4
    Disc Title: Shenmue Passport
    System: Sega Dreamcast
    Media Type: CD-ROM
    Category: Games
    Partially Matching IDs: 5905, 77564
    Region: Japan
    Languages: Japanese
    Disc Serial: HDR-0031

    Ringcode Information:

Data Side Mastering Code (laser branded/etched): <HDR-0016-0270D>HJC07E
Data Side Mastering SID Code: IFPI L463
Data Side Toolstamp or Mastering Code (engraved/stamped): 
Data Side Mould SID Code: IFPI 7830
Data Side Additional Mould: 
Label Side Mould SID Code: 

    Barcode: 4 974365 500313
    EXE/Build Date: (REQUIRED)
    Error Count: 0
    Comments:

[T:ALT] シェンムー 一章 横須賀 (シェンムーパスポート)
[T:VOL] SHENMUE_DISC4
[T:SID] 673-00741

    Contents: 

Version and Editions:
    Version: 
    Edition/Release: Genteiban

Extras:
    Primary Volume Descriptor (PVD):

0320 : 20 20 20 20 20 20 20 20  20 20 20 20 20 31 39 39                199
0330 : 39 31 32 30 35 31 35 32  31 30 39 30 30 24 31 39   9120515210900$19
0340 : 39 39 31 32 30 35 31 35  32 31 30 39 30 30 24 30   99120515210900$0
0350 : 30 30 30 30 30 30 30 30  30 30 30 30 30 30 30 00   000000000000000.
0360 : 30 30 30 30 30 30 30 30  30 30 30 30 30 30 30 30   0000000000000000
0370 : 00 01 00 00 00 00 00 00  00 00 00 00 00 00 00 00   ................

Tracks and Write Offsets:
    DAT:

<rom name="Shenmue Passport (JP) (Track 1).bin" size="705600" crc="46a80589" md5="51dadc55daba840454bf8f1b651c512d" sha1="5145fb763f448fd5cfb4e86c6005e7d4f1e077f7" />
<rom name="Shenmue Passport (JP) (Track 2).bin" size="1898064" crc="cfbe87ad" md5="97cfd642de2d4993497f794e1f83a6b9" sha1="dc0ef9fdef60da8713eff4554ad9421ee7b9e232" />

    Cuesheet:

FILE "Shenmue Passport (JP) (Track 1).bin" BINARY
  TRACK 01 MODE1/2352
    INDEX 01 00:00:00
FILE "Shenmue Passport (JP) (Track 2).bin" BINARY
  TRACK 02 AUDIO
    INDEX 00 00:00:00
    INDEX 01 00:02:00

    Write Offset: +24

Dumping Info:
    Frontend Version: 3.1.5-771483ac146302cf6634037db23cd336b0d1c97a
    Dumping Program: Redumper v2024.01.08 build_311
    Date: 2024-04-16 02:49:06
    Manufacturer: PLEXTOR
    Model: CD-R PX-W4012A
    Firmware: 1.07 (03/22/06 09:00)
    Reported Disc Type: CD-ROM
    C2 Error Count: 0
0000 : 53 45 47 41 20 53 45 47  41 4B 41 54 41 4E 41 20   SEGA SEGAKATANA 
0010 : 53 45 47 41 20 45 4E 54  45 52 50 52 49 53 45 53   SEGA ENTERPRISES
0020 : 41 46 31 46 20 47 44 2D  52 4F 4D 34 2F 34 20 20   AF1F GD-ROM4/4  
0030 : 4A 20 20 20 20 20 20 20  30 37 39 39 38 31 30 20   J       0799810 
0040 : 48 44 52 2D 30 30 31 36  20 20 56 31 2E 30 31 34   HDR-0016  V1.014
0050 : 31 39 39 39 31 32 30 35  20 20 20 20 20 20 20 20   19991205        
0060 : 31 53 54 5F 52 45 41 44  2E 42 49 4E 20 20 20 20   1ST_READ.BIN    
0070 : 53 45 47 41 20 45 4E 54  45 52 50 52 49 53 45 53   SEGA ENTERPRISES
0080 : 53 48 45 4E 4D 55 45 20  20 20 20 20 20 20 20 20   SHENMUE         
0090 : 20 20 20 20 20 20 20 20  20 20 20 20 20 20 20 20                   
00A0 : 20 20 20 20 20 20 20 20  20 20 20 20 20 20 20 20                   
00B0 : 20 20 20 20 20 20 20 20  20 20 20 20 20 20 20 20                   
00C0 : 20 20 20 20 20 20 20 20  20 20 20 20 20 20 20 20                   
00D0 : 20 20 20 20 20 20 20 20  20 20 20 20 20 20 20 20                   
00E0 : 20 20 20 20 20 20 20 20  20 20 20 20 20 20 20 20                   
00F0 : 20 20 20 20 20 20 20 20  20 20 20 20 20 20 20 20                   

HD

Name: Track 03.bin
Size: 28478016 bytes (27 MiB)
CRC32: 53853329
CRC64: 6BA5C2A7E0DEDFBF
SHA256: 6fa78c47a5c1e0882249e986488bd738879c01c627c4b51e73b69a286bf8ec05
SHA1: 6822270148ed8537af0411808bc007e22dc8b984
BLAKE2sp: 54afc283d717b63c849dac127c847ae77d962ab402fbe619ab9b96ec369c5d73
MD5: 72825964772c0d419f98178564c5cfbd

Name: Track 04.bin
Size: 1411200 bytes (1378 KiB)
CRC32: C26F35DC
CRC64: 93A61BFB5170A9C3
SHA256: c6522a3868334c31087f2119a6e6d3c00365d3eed39a721406eaef3c2736c7c2
SHA1: e78b8ff0b774acf3a2810d54a4a5cbd3a344e416
BLAKE2sp: 91aeeda72ca26db11a5ebb801fdae37b595d9f330b94d035a1f1774c9970d13c
MD5: 92f4b008fb82c9cd5c8b10b02a540b96

Name: Track 05.bin
Size: 22365168 bytes (21 MiB)
CRC32: 1921CEB4
CRC64: 856F39DB04E71D92
SHA256: bece1989acdbbd6c707cbf6a41ca95b133f4c123ec4520dc2db7e08054d6dcdb
SHA1: 03a7a915c9499a33df2f9da2029d3d651510677f
BLAKE2sp: 899034046a7da12bbf8536b03662066efc4c838b1c5a299e66f5fb9ad1e1833a
MD5: 422608accc797426e9b1a750d135b1d8

Name: Track 06.bin
Size: 1801632 bytes (1759 KiB)
CRC32: 6DD8F55F
CRC64: 83B12B1A93B61039
SHA256: 06f165d94b65f50a15dc7ae7d1fa4de9d7b2500077d8ed71e7f605bd2be5ae32
SHA1: ed782a0bc35f3f7f83ad7a54bb8d7fc83ec4668a
BLAKE2sp: 10c9e469d93b2a5d3474a4847f8c61a505671952e3e3a4a06ed32a1c599a8aeb
MD5: 886ef9f9532ba942ebb369df3784090c

Name: Track 07.bin
Size: 1131704784 bytes (1079 MiB)
CRC32: 9802C4E5
CRC64: 13EC2187789F9F35
SHA256: e0e1f906c32fc24f4988de6ea5537ef1893e89ed0e1e7d919738864e5168b4c5
SHA1: 27a98620b49e9d2737f7142b932fe9da0efc78bb
BLAKE2sp: daa10fe2bfdf71add6333de7d1a44e7cda2bfebbdcc4275eb05176c8ec7f3814
MD5: f355bf7390b7e07a760c695d8ad47263
ice @20090609 / themabus@inbox.lv
---------------------------------
dense.bin
---------------------------------
Accessing                       : ok
Seeking 1st valid Mode1 sector  : ok
 LBA found                      : 44990
 @file offset                   : $00000078
 Scrambled                      : TRUE
Seeking LBA 45000               : ok
 Combined offset (samples)      : 30
Parsing IP.BIN                  : ok
 Writting 'ip.txt'              : ok
Parsing TOC                     : ok
 TOC entries                    : 8
 Writting 'redump.cue'          : ok
---------------------------------
03  Mode1   45000   57107   12108 ok
04  Audio   57108   57707     600 ok
05  Audio   57708   67216    9509 ok
06  Audio   67217   67982     766 ok
07  Mode1   67983  549149  481167 ok (75)
---------------------------------
done
FILE "Track 01.bin" BINARY
  TRACK 01 MODE1/2352
    INDEX 01 00:00:00
FILE "Track 02.bin" BINARY
  TRACK 02 AUDIO
    INDEX 00 00:00:00
    INDEX 01 00:02:00

FILE "Track 03.bin" BINARY
  TRACK 03 MODE1/2352
    INDEX 01 00:00:00
FILE "Track 04.bin" BINARY
  TRACK 04 AUDIO
    INDEX 00 00:00:00
    INDEX 01 00:02:00
FILE "Track 05.bin" BINARY
  TRACK 05 AUDIO
    INDEX 00 00:00:00
    INDEX 01 00:02:00
FILE "Track 06.bin" BINARY
  TRACK 06 AUDIO
    INDEX 00 00:00:00
    INDEX 01 00:02:00
FILE "Track 07.bin" BINARY
  TRACK 07 MODE1/2352
    INDEX 00 00:00:00
    INDEX 01 00:03:00

Disc 3

Logs and scans: https://drive.google.com/drive/folders/ … drive_link
Matches: http://redump.org/disc/5904/

LD

Common Disc Info:
    Title: Shenmue: Ichishou Yokosuka
    Foreign Title (Non-latin): シェンムー 一章 横須賀
    Disc Number / Letter: 3
    Disc Title: 
    System: Sega Dreamcast
    Media Type: CD-ROM
    Category: Games
    Partially Matching IDs: 5904
    Region: Japan
    Languages: Japanese
    Disc Serial: HDR-0031

    Ringcode Information:

Data Side Mastering Code (laser branded/etched): <HDR-0016-0269>HJB26C
Data Side Mastering SID Code: IFPI L463
Data Side Toolstamp or Mastering Code (engraved/stamped): 
Data Side Mould SID Code: IFPI 7832
Data Side Additional Mould: 
Label Side Mould SID Code: 

    Barcode: 4 974365 500313
    EXE/Build Date: (REQUIRED)
    Error Count: 0
    Comments:

[T:VOL] SHENMUE_DISC3
[T:SID] 673-00740

    Contents: 

Version and Editions:
    Version: 
    Edition/Release: Genteiban

Extras:
    Primary Volume Descriptor (PVD):

0320 : 20 20 20 20 20 20 20 20  20 20 20 20 20 31 39 39                199
0330 : 39 31 31 32 32 31 31 33  33 32 31 30 30 24 31 39   9112211332100$19
0340 : 39 39 31 31 32 32 31 31  33 33 32 31 30 30 24 30   99112211332100$0
0350 : 30 30 30 30 30 30 30 30  30 30 30 30 30 30 30 00   000000000000000.
0360 : 30 30 30 30 30 30 30 30  30 30 30 30 30 30 30 30   0000000000000000
0370 : 00 01 00 00 00 00 00 00  00 00 00 00 00 00 00 00   ................

Tracks and Write Offsets:
    DAT:

<rom name="Shenmue (JP) (Disc 3) (Track 1).bin" size="37300368" crc="fce3c2cd" md5="c7f5088b8a4d0ea82bdedd23fecadf23" sha1="7b03c037901621dedfca01f509446604e3a54e8c" />
<rom name="Shenmue (JP) (Disc 3) (Track 2).bin" size="3027024" crc="ed73d73c" md5="0d8b551d17c66d5da5871ff6aa04507e" sha1="64c1a8fdcaab60be08a736e5a35a8d129583c4ef" />

    Cuesheet:

FILE "Shenmue (JP) (Disc 3) (Track 1).bin" BINARY
  TRACK 01 MODE1/2352
    INDEX 01 00:00:00
FILE "Shenmue (JP) (Disc 3) (Track 2).bin" BINARY
  TRACK 02 AUDIO
    INDEX 00 00:00:00
    INDEX 01 00:02:00

    Write Offset: +24

Dumping Info:
    Frontend Version: 3.1.5-771483ac146302cf6634037db23cd336b0d1c97a
    Dumping Program: Redumper v2024.01.08 build_311
    Date: 2024-04-16 01:30:27
    Manufacturer: PLEXTOR
    Model: CD-R PX-W4012A
    Firmware: 1.07 (03/22/06 09:00)
    Reported Disc Type: CD-ROM
    C2 Error Count: 0
0000 : 53 45 47 41 20 53 45 47  41 4B 41 54 41 4E 41 20   SEGA SEGAKATANA 
0010 : 53 45 47 41 20 45 4E 54  45 52 50 52 49 53 45 53   SEGA ENTERPRISES
0020 : 41 43 34 44 20 47 44 2D  52 4F 4D 33 2F 34 20 20   AC4D GD-ROM3/4  
0030 : 4A 20 20 20 20 20 20 20  30 37 39 39 38 31 30 20   J       0799810 
0040 : 48 44 52 2D 30 30 31 36  20 20 56 31 2E 30 30 37   HDR-0016  V1.007
0050 : 31 39 39 39 31 31 32 32  20 20 20 20 20 20 20 20   19991122        
0060 : 31 53 54 5F 52 45 41 44  2E 42 49 4E 20 20 20 20   1ST_READ.BIN    
0070 : 53 45 47 41 20 45 4E 54  45 52 50 52 49 53 45 53   SEGA ENTERPRISES
0080 : 53 48 45 4E 4D 55 45 20  20 20 20 20 20 20 20 20   SHENMUE         
0090 : 20 20 20 20 20 20 20 20  20 20 20 20 20 20 20 20                   
00A0 : 20 20 20 20 20 20 20 20  20 20 20 20 20 20 20 20                   
00B0 : 20 20 20 20 20 20 20 20  20 20 20 20 20 20 20 20                   
00C0 : 20 20 20 20 20 20 20 20  20 20 20 20 20 20 20 20                   
00D0 : 20 20 20 20 20 20 20 20  20 20 20 20 20 20 20 20                   
00E0 : 20 20 20 20 20 20 20 20  20 20 20 20 20 20 20 20                   
00F0 : 20 20 20 20 20 20 20 20  20 20 20 20 20 20 20 20                   

HD

Name: Track 03.bin
Size: 103963104 bytes (99 MiB)
CRC32: DC01CD75
CRC64: 9BF22A9FB4091DB5
SHA256: f80d406046979f0ae95e31625785d334688f9d6343db5417b0d06749837ab80d
SHA1: 04ea563135cdd360742cd10bfb1e5660604fe04d
BLAKE2sp: 98484ecf357615bcfdcafa4d3dcd3ae0a7a04400426af8089b80bf472dd4d4a8
MD5: e7e7ba71b511aef26f621022c7d3923b

Name: Track 04.bin
Size: 1411200 bytes (1378 KiB)
CRC32: C26F35DC
CRC64: 93A61BFB5170A9C3
SHA256: c6522a3868334c31087f2119a6e6d3c00365d3eed39a721406eaef3c2736c7c2
SHA1: e78b8ff0b774acf3a2810d54a4a5cbd3a344e416
BLAKE2sp: 91aeeda72ca26db11a5ebb801fdae37b595d9f330b94d035a1f1774c9970d13c
MD5: 92f4b008fb82c9cd5c8b10b02a540b96

Name: Track 05.bin
Size: 22365168 bytes (21 MiB)
CRC32: 1921CEB4
CRC64: 856F39DB04E71D92
SHA256: bece1989acdbbd6c707cbf6a41ca95b133f4c123ec4520dc2db7e08054d6dcdb
SHA1: 03a7a915c9499a33df2f9da2029d3d651510677f
BLAKE2sp: 899034046a7da12bbf8536b03662066efc4c838b1c5a299e66f5fb9ad1e1833a
MD5: 422608accc797426e9b1a750d135b1d8

Name: Track 06.bin
Size: 1058021328 bytes (1009 MiB)
CRC32: E998585B
CRC64: 8DD6160A3DC3C8CF
SHA256: 0b161743d6e1d7420e24554d1975c50a48bd38a13a2843374cb3a291c77bf8cc
SHA1: 097459d54ba988269d5d9149de5dbe193bc2727b
BLAKE2sp: 3d67bc3ba51bf3d2a181a838838d5089cebef95b114a8e6bb0c2ea28b389f787
MD5: 7eae27ae6d5f0e6bb284d323099bc687
ice @20090609 / themabus@inbox.lv
---------------------------------
dense.bin
---------------------------------
Accessing                       : ok
Seeking 1st valid Mode1 sector  : ok
 LBA found                      : 44990
 @file offset                   : $00000078
 Scrambled                      : TRUE
Seeking LBA 45000               : ok
 Combined offset (samples)      : 30
Parsing IP.BIN                  : ok
 Writting 'ip.txt'              : ok
Parsing TOC                     : ok
 TOC entries                    : 7
 Writting 'redump.cue'          : ok
---------------------------------
03  Mode1   45000   89201   44202 ok
04  Audio   89202   89801     600 ok
05  Audio   89802   99310    9509 ok
06  Mode1   99311  549149  449839 ok (75)
---------------------------------
done
FILE "Track 01.bin" BINARY
  TRACK 01 MODE1/2352
    INDEX 01 00:00:00
FILE "Track 02.bin" BINARY
  TRACK 02 AUDIO
    INDEX 00 00:00:00
    INDEX 01 00:02:00

FILE "Track 03.bin" BINARY
  TRACK 03 MODE1/2352
    INDEX 01 00:00:00
FILE "Track 04.bin" BINARY
  TRACK 04 AUDIO
    INDEX 00 00:00:00
    INDEX 01 00:02:00
FILE "Track 05.bin" BINARY
  TRACK 05 AUDIO
    INDEX 00 00:00:00
    INDEX 01 00:02:00
FILE "Track 06.bin" BINARY
  TRACK 06 MODE1/2352
    INDEX 00 00:00:00
    INDEX 01 00:03:00

Disc 2

Logs and scans: https://drive.google.com/drive/folders/ … drive_link
Matches: http://redump.org/disc/5903/

LD

Common Disc Info:
    Title: Shenmue: Ichishou Yokosuka
    Foreign Title (Non-latin): シェンムー 一章 横須賀
    Disc Number / Letter: 2
    Disc Title: 
    System: Sega Dreamcast
    Media Type: CD-ROM
    Category: Games
    Partially Matching IDs: 5903
    Region: Japan
    Languages: Japanese
    Disc Serial: HDR-0031

    Ringcode Information:

Data Side Mastering Code (laser branded/etched): <HDR-0016-0268>HJC02H
Data Side Mastering SID Code: IFPI L463
Data Side Toolstamp or Mastering Code (engraved/stamped): 
Data Side Mould SID Code: IFPI 7839
Data Side Additional Mould: 
Label Side Mould SID Code: 

    Barcode: 4 974365 500313
    EXE/Build Date: (REQUIRED)
    Error Count: 0
    Comments:

[T:VOL] SHENMUE_DISC2
[T:SID] 673-00739

    Contents: 

Version and Editions:
    Version: 
    Edition/Release: Genteiban

Extras:
    Primary Volume Descriptor (PVD):

0320 : 20 20 20 20 20 20 20 20  20 20 20 20 20 31 39 39                199
0330 : 39 31 31 32 32 31 31 34  36 30 31 30 30 24 31 39   9112211460100$19
0340 : 39 39 31 31 32 32 31 31  34 36 30 31 30 30 24 30   99112211460100$0
0350 : 30 30 30 30 30 30 30 30  30 30 30 30 30 30 30 00   000000000000000.
0360 : 30 30 30 30 30 30 30 30  30 30 30 30 30 30 30 30   0000000000000000
0370 : 00 01 00 00 00 00 00 00  00 00 00 00 00 00 00 00   ................

Tracks and Write Offsets:
    DAT:

<rom name="Shenmue (JP) (Disc 2) (Track 1).bin" size="37269792" crc="8180792c" md5="c61ee86f239db7bac73f4366d3a834ef" sha1="0e6d8140349a885757b1797fba44db669607da64" />
<rom name="Shenmue (JP) (Disc 2) (Track 2).bin" size="2996448" crc="de8eeddb" md5="43764f430182bbfa7c1e50160b6f2021" sha1="59e49aa622493d1454b585d55026ba4e1b951f12" />

    Cuesheet:

FILE "Shenmue (JP) (Disc 2) (Track 1).bin" BINARY
  TRACK 01 MODE1/2352
    INDEX 01 00:00:00
FILE "Shenmue (JP) (Disc 2) (Track 2).bin" BINARY
  TRACK 02 AUDIO
    INDEX 00 00:00:00
    INDEX 01 00:02:00

    Write Offset: +24

Dumping Info:
    Frontend Version: 3.1.5-771483ac146302cf6634037db23cd336b0d1c97a
    Dumping Program: Redumper v2024.01.08 build_311
    Date: 2024-04-16 01:24:13
    Manufacturer: PLEXTOR
    Model: CD-R PX-W4012A
    Firmware: 1.07 (03/22/06 09:00)
    Reported Disc Type: CD-ROM
    C2 Error Count: 0
0000 : 53 45 47 41 20 53 45 47  41 4B 41 54 41 4E 41 20   SEGA SEGAKATANA 
0010 : 53 45 47 41 20 45 4E 54  45 52 50 52 49 53 45 53   SEGA ENTERPRISES
0020 : 41 43 34 44 20 47 44 2D  52 4F 4D 32 2F 34 20 20   AC4D GD-ROM2/4  
0030 : 4A 20 20 20 20 20 20 20  30 37 39 39 38 31 30 20   J       0799810 
0040 : 48 44 52 2D 30 30 31 36  20 20 56 31 2E 30 30 37   HDR-0016  V1.007
0050 : 31 39 39 39 31 31 32 32  20 20 20 20 20 20 20 20   19991122        
0060 : 31 53 54 5F 52 45 41 44  2E 42 49 4E 20 20 20 20   1ST_READ.BIN    
0070 : 53 45 47 41 20 45 4E 54  45 52 50 52 49 53 45 53   SEGA ENTERPRISES
0080 : 53 48 45 4E 4D 55 45 20  20 20 20 20 20 20 20 20   SHENMUE         
0090 : 20 20 20 20 20 20 20 20  20 20 20 20 20 20 20 20                   
00A0 : 20 20 20 20 20 20 20 20  20 20 20 20 20 20 20 20                   
00B0 : 20 20 20 20 20 20 20 20  20 20 20 20 20 20 20 20                   
00C0 : 20 20 20 20 20 20 20 20  20 20 20 20 20 20 20 20                   
00D0 : 20 20 20 20 20 20 20 20  20 20 20 20 20 20 20 20                   
00E0 : 20 20 20 20 20 20 20 20  20 20 20 20 20 20 20 20                   
00F0 : 20 20 20 20 20 20 20 20  20 20 20 20 20 20 20 20                   

HD

Name: Track 03.bin
Size: 205752960 bytes (196 MiB)
CRC32: 30DE60EC
CRC64: 77F10C9FD484932C
SHA256: 666a4d98d2d763d734123bd8add9c3e6889d544cab828ecf5868c1856b83cbfa
SHA1: c1eae4d10348104b7a371f951f198c26570dfd21
BLAKE2sp: 8355f3f9b5955002cdca07e58d3810dd82f57a5b584d44109826be37115fdca4
MD5: 9c30d580e4f24c43bbcdd861530b4161

Name: Track 04.bin
Size: 1411200 bytes (1378 KiB)
CRC32: C26F35DC
CRC64: 93A61BFB5170A9C3
SHA256: c6522a3868334c31087f2119a6e6d3c00365d3eed39a721406eaef3c2736c7c2
SHA1: e78b8ff0b774acf3a2810d54a4a5cbd3a344e416
BLAKE2sp: 91aeeda72ca26db11a5ebb801fdae37b595d9f330b94d035a1f1774c9970d13c
MD5: 92f4b008fb82c9cd5c8b10b02a540b96

Name: Track 05.bin
Size: 1801632 bytes (1759 KiB)
CRC32: 6DD8F55F
CRC64: 83B12B1A93B61039
SHA256: 06f165d94b65f50a15dc7ae7d1fa4de9d7b2500077d8ed71e7f605bd2be5ae32
SHA1: ed782a0bc35f3f7f83ad7a54bb8d7fc83ec4668a
BLAKE2sp: 10c9e469d93b2a5d3474a4847f8c61a505671952e3e3a4a06ed32a1c599a8aeb
MD5: 886ef9f9532ba942ebb369df3784090c

Name: Track 06.bin
Size: 976795008 bytes (931 MiB)
CRC32: DCF444C6
CRC64: 40E49A949AD665D9
SHA256: d8179323643eb225588d73f9e97919bd436781d55b01305b6a55efbc98423dc7
SHA1: bfdbee2fc1f43e7b7e933804a9ad1d5ba9aebdff
BLAKE2sp: 14ab2f7c2b4377d057b2136a767260bd94631f5d00819527de0e699101e549e5
MD5: ba682c6c2a2dc370f8bdeaa4f7ea4229
ice @20090609 / themabus@inbox.lv
---------------------------------
dense.bin
---------------------------------
Accessing                       : ok
Seeking 1st valid Mode1 sector  : ok
 LBA found                      : 44990
 @file offset                   : $00000078
 Scrambled                      : TRUE
Seeking LBA 45000               : ok
 Combined offset (samples)      : 30
Parsing IP.BIN                  : ok
 Writting 'ip.txt'              : ok
Parsing TOC                     : ok
 TOC entries                    : 7
 Writting 'redump.cue'          : ok
---------------------------------
03  Mode1   45000  132479   87480 ok
04  Audio  132480  133079     600 ok
05  Audio  133080  133845     766 ok
06  Mode1  133846  549149  415304 ok (75)
---------------------------------
done
FILE "Track 01.bin" BINARY
  TRACK 01 MODE1/2352
    INDEX 01 00:00:00
FILE "Track 02.bin" BINARY
  TRACK 02 AUDIO
    INDEX 00 00:00:00
    INDEX 01 00:02:00

FILE "Track 03.bin" BINARY
  TRACK 03 MODE1/2352
    INDEX 01 00:00:00
FILE "Track 04.bin" BINARY
  TRACK 04 AUDIO
    INDEX 00 00:00:00
    INDEX 01 00:02:00
FILE "Track 05.bin" BINARY
  TRACK 05 AUDIO
    INDEX 00 00:00:00
    INDEX 01 00:02:00
FILE "Track 06.bin" BINARY
  TRACK 06 MODE1/2352
    INDEX 00 00:00:00
    INDEX 01 00:03:00

Disc 1

Logs and scans: https://drive.google.com/drive/folders/ … drive_link
Matches: http://redump.org/disc/5902/

LD

Common Disc Info:
    Title: Shenmue: Ichishou Yokosuka
    Foreign Title (Non-latin): シェンムー 一章 横須賀
    Disc Number / Letter: 1
    Disc Title: 
    System: Sega Dreamcast
    Media Type: CD-ROM
    Category: Games
    Partially Matching IDs: 5902
    Region: Japan
    Languages: Japanese
    Disc Serial: HDR-0031

    Ringcode Information:

Data Side Mastering Code (laser branded/etched): <HDR-0016-0267>HJB26B
Data Side Mastering SID Code: IFPI L463
Data Side Toolstamp or Mastering Code (engraved/stamped): 
Data Side Mould SID Code: IFPI 7838
Data Side Additional Mould: 
Label Side Mould SID Code: 

    Barcode: 4 974365 500313
    EXE/Build Date: (REQUIRED)
    Error Count: 0
    Comments:

[T:VOL] SHENMUE_DISC1
[T:SID] 673-00738

    Contents: 

Version and Editions:
    Version: 
    Edition/Release: Genteiban

Extras:
    Primary Volume Descriptor (PVD):

0320 : 20 20 20 20 20 20 20 20  20 20 20 20 20 31 39 39                199
0330 : 39 31 31 32 32 31 31 31  35 32 30 30 30 24 31 39   9112211152000$19
0340 : 39 39 31 31 32 32 31 31  31 35 32 30 30 30 24 30   99112211152000$0
0350 : 30 30 30 30 30 30 30 30  30 30 30 30 30 30 30 00   000000000000000.
0360 : 30 30 30 30 30 30 30 30  30 30 30 30 30 30 30 30   0000000000000000
0370 : 00 01 00 00 00 00 00 00  00 00 00 00 00 00 00 00   ................

Tracks and Write Offsets:
    DAT:

<rom name="Shenmue (JP) (Disc 1) (Track 1).bin" size="24402000" crc="065ad246" md5="f6543c78c44a26bb133f68acf10291dc" sha1="4dd8b454abfc97ff0d2278035dbfdc0f9a8deee3" />
<rom name="Shenmue (JP) (Disc 1) (Track 2).bin" size="1860432" crc="9205ddad" md5="fdbf39ae9961f08dbb3ea96338d79879" sha1="70bda45f052e8718078f9cc0f76301f65103d4bf" />

    Cuesheet:

FILE "Shenmue (JP) (Disc 1) (Track 1).bin" BINARY
  TRACK 01 MODE1/2352
    INDEX 01 00:00:00
FILE "Shenmue (JP) (Disc 1) (Track 2).bin" BINARY
  TRACK 02 AUDIO
    INDEX 00 00:00:00
    INDEX 01 00:02:00

    Write Offset: +24

Dumping Info:
    Frontend Version: 3.1.5-771483ac146302cf6634037db23cd336b0d1c97a
    Dumping Program: Redumper v2024.01.08 build_311
    Date: 2024-04-16 01:18:11
    Manufacturer: PLEXTOR
    Model: CD-R PX-W4012A
    Firmware: 1.07 (03/22/06 09:00)
    Reported Disc Type: CD-ROM
    C2 Error Count: 0
0000 : 53 45 47 41 20 53 45 47  41 4B 41 54 41 4E 41 20   SEGA SEGAKATANA 
0010 : 53 45 47 41 20 45 4E 54  45 52 50 52 49 53 45 53   SEGA ENTERPRISES
0020 : 41 43 34 44 20 47 44 2D  52 4F 4D 31 2F 34 20 20   AC4D GD-ROM1/4  
0030 : 4A 20 20 20 20 20 20 20  30 37 39 39 38 31 30 20   J       0799810 
0040 : 48 44 52 2D 30 30 31 36  20 20 56 31 2E 30 30 37   HDR-0016  V1.007
0050 : 31 39 39 39 31 31 32 32  20 20 20 20 20 20 20 20   19991122        
0060 : 31 53 54 5F 52 45 41 44  2E 42 49 4E 20 20 20 20   1ST_READ.BIN    
0070 : 53 45 47 41 20 45 4E 54  45 52 50 52 49 53 45 53   SEGA ENTERPRISES
0080 : 53 48 45 4E 4D 55 45 20  20 20 20 20 20 20 20 20   SHENMUE         
0090 : 20 20 20 20 20 20 20 20  20 20 20 20 20 20 20 20                   
00A0 : 20 20 20 20 20 20 20 20  20 20 20 20 20 20 20 20                   
00B0 : 20 20 20 20 20 20 20 20  20 20 20 20 20 20 20 20                   
00C0 : 20 20 20 20 20 20 20 20  20 20 20 20 20 20 20 20                   
00D0 : 20 20 20 20 20 20 20 20  20 20 20 20 20 20 20 20                   
00E0 : 20 20 20 20 20 20 20 20  20 20 20 20 20 20 20 20                   
00F0 : 20 20 20 20 20 20 20 20  20 20 20 20 20 20 20 20                   

HD

Name: Track 03.bin
Size: 267198960 bytes (254 MiB)
CRC32: 58DA20DA
CRC64: 162D75CBE25286AD
SHA256: 993a682c974d11c7b87c24b023400a22e0ad89abe1aac4e458a5938f5eae3848
SHA1: 8b36358d79ac61fb04708380b8d4500346efa108
BLAKE2sp: 49324d66ba9d4d949f06eafdd8cb6f47aff16621fec9195d054514c0a4671d2c
MD5: 40246405d362a63d2cb476b9e11fca8d

Name: Track 04.bin
Size: 1411200 bytes (1378 KiB)
CRC32: C26F35DC
CRC64: 93A61BFB5170A9C3
SHA256: c6522a3868334c31087f2119a6e6d3c00365d3eed39a721406eaef3c2736c7c2
SHA1: e78b8ff0b774acf3a2810d54a4a5cbd3a344e416
BLAKE2sp: 91aeeda72ca26db11a5ebb801fdae37b595d9f330b94d035a1f1774c9970d13c
MD5: 92f4b008fb82c9cd5c8b10b02a540b96

Name: Track 05.bin
Size: 1801632 bytes (1759 KiB)
CRC32: 6DD8F55F
CRC64: 83B12B1A93B61039
SHA256: 06f165d94b65f50a15dc7ae7d1fa4de9d7b2500077d8ed71e7f605bd2be5ae32
SHA1: ed782a0bc35f3f7f83ad7a54bb8d7fc83ec4668a
BLAKE2sp: 10c9e469d93b2a5d3474a4847f8c61a505671952e3e3a4a06ed32a1c599a8aeb
MD5: 886ef9f9532ba942ebb369df3784090c

Name: Track 06.bin
Size: 915349008 bytes (872 MiB)
CRC32: A847313F
CRC64: 10285B40FD6BA817
SHA256: a3afe7d7250f269ddf64dbc40c4c8b33d0717156acfa489be18dcee47f7b66c1
SHA1: 5d17315e79e14c454b97c8e26eaf9a1245e0ab82
BLAKE2sp: 9be1bdbf5cdd7da659602c1ab6c2986876f5fd69c4299643017c6329c4d12506
MD5: 82d23bffdad174ef8d7e4ca2da6c3c15
ice @20090609 / themabus@inbox.lv
---------------------------------
dense.bin
---------------------------------
Accessing                       : ok
Seeking 1st valid Mode1 sector  : ok
 LBA found                      : 44990
 @file offset                   : $00000078
 Scrambled                      : TRUE
Seeking LBA 45000               : ok
 Combined offset (samples)      : 30
Parsing IP.BIN                  : ok
 Writting 'ip.txt'              : ok
Parsing TOC                     : ok
 TOC entries                    : 7
 Writting 'redump.cue'          : ok
---------------------------------
03  Mode1   45000  158604  113605 ok
04  Audio  158605  159204     600 ok
05  Audio  159205  159970     766 ok
06  Mode1  159971  549149  389179 ok (75)
---------------------------------
done
FILE "Track 01.bin" BINARY
  TRACK 01 MODE1/2352
    INDEX 01 00:00:00
FILE "Track 02.bin" BINARY
  TRACK 02 AUDIO
    INDEX 00 00:00:00
    INDEX 01 00:02:00

FILE "Track 03.bin" BINARY
  TRACK 03 MODE1/2352
    INDEX 01 00:00:00
FILE "Track 04.bin" BINARY
  TRACK 04 AUDIO
    INDEX 00 00:00:00
    INDEX 01 00:02:00
FILE "Track 05.bin" BINARY
  TRACK 05 AUDIO
    INDEX 00 00:00:00
    INDEX 01 00:02:00
FILE "Track 06.bin" BINARY
  TRACK 06 MODE1/2352
    INDEX 00 00:00:00
    INDEX 01 00:03:00

6

(0 replies, posted in Verifications)

Logs and scans: https://drive.google.com/drive/folders/ … drive_link
Matches: http://redump.org/disc/3887/

Common Disc Info:
    Title: Street Fighter Zero 3
    Foreign Title (Non-latin): ストリートファイターZERO3
    System: Sony PlayStation
    Media Type: CD-ROM
    Category: Games
    Fully Matching ID: 3887
    Region: Japan
    Languages: Japanese
    Disc Serial: SLPS 01777

    Ringcode Information:

Data Side Mastering Code (laser branded/etched): SLPS-01777    1
Data Side Mastering SID Code: IFPI L275
Data Side Toolstamp or Mastering Code (engraved/stamped): 
Data Side Mould SID Code: IFPI 455C
Data Side Additional Mould: 
Label Side Mould SID Code: 

    Barcode: 4 976219 354363
    EXE/Build Date: 1998-12-02
    Error Count: 0
    Comments:

[T:ISN] SLPS-01777
[T:VOL] STREET_FIGHTER_ZERO3

    Contents: 

Version and Editions:
    Version: 
    Edition/Release: Original

EDC:
    EDC: No

Extras:
    Primary Volume Descriptor (PVD):

0320 : 20 20 20 20 20 20 20 20  20 20 20 20 20 31 39 39                199
0330 : 38 31 32 30 32 30 33 30  30 30 30 30 30 24 30 30   8120203000000$00
0340 : 30 30 30 30 30 30 30 30  30 30 30 30 30 30 00 30   00000000000000.0
0350 : 30 30 30 30 30 30 30 30  30 30 30 30 30 30 30 00   000000000000000.
0360 : 30 30 30 30 30 30 30 30  30 30 30 30 30 30 30 30   0000000000000000
0370 : 00 01 00 00 00 00 00 00  00 00 00 00 00 00 00 00   ................

Copy Protection:
    Anti-modchip: No
    LibCrypt: No
    SubIntention Data (SecuROM/LibCrypt): 

Tracks and Write Offsets:
    DAT:

<rom name="Street Fighter Zero 3 (Track 1).bin" size="484170960" crc="f197bb1f" md5="f1ca247e0e9ab78ec8ad94be7a2035fb" sha1="6bcf09eff4fd7df94c0c65d7e4a40761551decc6" />
<rom name="Street Fighter Zero 3 (Track 2).bin" size="43248576" crc="2a796ae2" md5="d3fbe8a32f6184a19c6892a280f67948" sha1="64444b7cb4f7bbe299229ef511af289e48c9559f" />

    Cuesheet:

FILE "Street Fighter Zero 3 (Track 1).bin" BINARY
  TRACK 01 MODE2/2352
    INDEX 01 00:00:00
FILE "Street Fighter Zero 3 (Track 2).bin" BINARY
  TRACK 02 MODE2/2352
    INDEX 00 00:00:00
    INDEX 01 00:02:00

    Write Offset: +2

Dumping Info:
    Frontend Version: 3.1.5-771483ac146302cf6634037db23cd336b0d1c97a
    Dumping Program: Redumper v2024.01.08 build_311
    Date: 2024-04-14 21:36:03
    Manufacturer: PLEXTOR
    Model: CD-R PX-W4012A
    Firmware: 1.07 (03/22/06 09:00)
    Reported Disc Type: CD-ROM
    C2 Error Count: 0

7

(0 replies, posted in Verifications)

Logs and scans: https://drive.google.com/drive/folders/ … drive_link
Matches: http://redump.org/disc/6806

Common Disc Info:
    Title: Densha de Go! 2
    Foreign Title (Non-latin): 電車でGO!2
    System: Sony PlayStation
    Media Type: CD-ROM
    Category: Games
    Fully Matching ID: 6806
    Partially Matching IDs: 23329, 35070, 62371
    Region: Japan
    Languages: Japanese
    Disc Serial: SLPM 36142

    Ringcode Information:

Data Side Mastering Code (laser branded/etched): SLPM-86142    1
Data Side Mastering SID Code: IFPI L276
Data Side Toolstamp or Mastering Code (engraved/stamped): 
Data Side Mould SID Code: IFPI 45GA
Data Side Additional Mould: 
Label Side Mould SID Code: 

    Barcode: 4 988611 980088
    EXE/Build Date: 1999-01-31
    Error Count: 0
    Comments:

[T:ISN] SLPM-86142
[T:VOL] GOTRAIN2
[T:TID] TCPS10003

    Contents: 

Version and Editions:
    Version: 
    Edition/Release: Original

EDC:
    EDC: Yes

Extras:
    Primary Volume Descriptor (PVD):

0320 : 20 20 20 20 20 20 20 20  20 20 20 20 20 31 39 39                199
0330 : 39 30 32 31 31 30 39 33  30 30 30 30 30 24 30 30   9021109300000$00
0340 : 30 30 30 30 30 30 30 30  30 30 30 30 30 30 00 30   00000000000000.0
0350 : 30 30 30 30 30 30 30 30  30 30 30 30 30 30 30 00   000000000000000.
0360 : 30 30 30 30 30 30 30 30  30 30 30 30 30 30 30 30   0000000000000000
0370 : 00 01 00 00 00 00 00 00  00 00 00 00 00 00 00 00   ................

Copy Protection:
    Anti-modchip: No
    LibCrypt: No
    SubIntention Data (SecuROM/LibCrypt): 

Tracks and Write Offsets:
    DAT:

<rom name="Densha de Go! 2 (Track 1).bin" size="611541168" crc="46f677b5" md5="c2d5f5e27bd1c5fd06dd1f6e8a20f468" sha1="613b5f4954e78b4e7239ef67a93d8c2e39f783fc" />
<rom name="Densha de Go! 2 (Track 2).bin" size="4332384" crc="37a2dc92" md5="75b198433ba4924e941dfe0b86c18743" sha1="cd6c2aff8acc81bd7f60b0b589d71efa3515522d" />
<rom name="Densha de Go! 2 (Track 3).bin" size="24477264" crc="e410d971" md5="b7d360cf9bb71a8206c73f5cb8efd988" sha1="b3d1503c8b0ee2ae7c850298bc7e30deb450cbb7" />
<rom name="Densha de Go! 2 (Track 4).bin" size="25747344" crc="37ce4c2b" md5="fa5efb2d0e2f5fe98f8e838e726f9c83" sha1="f4707198e1331618340b136c4fcfd911d40e50a9" />

    Cuesheet:

FILE "Densha de Go! 2 (Track 1).bin" BINARY
  TRACK 01 MODE2/2352
    INDEX 01 00:00:00
FILE "Densha de Go! 2 (Track 2).bin" BINARY
  TRACK 02 AUDIO
    INDEX 00 00:00:00
    INDEX 01 00:02:00
FILE "Densha de Go! 2 (Track 3).bin" BINARY
  TRACK 03 AUDIO
    INDEX 00 00:00:00
    INDEX 01 00:02:00
FILE "Densha de Go! 2 (Track 4).bin" BINARY
  TRACK 04 AUDIO
    INDEX 00 00:00:00
    INDEX 01 00:02:00

    Write Offset: +2

Dumping Info:
    Frontend Version: 3.1.5-771483ac146302cf6634037db23cd336b0d1c97a
    Dumping Program: Redumper v2024.01.08 build_311
    Date: 2024-04-14 18:31:33
    Manufacturer: PLEXTOR
    Model: CD-R PX-W4012A
    Firmware: 1.07 (03/22/06 09:00)
    Reported Disc Type: CD-ROM
    C2 Error Count: 0

8

(0 replies, posted in Verifications)

Logs and scans: https://drive.google.com/drive/folders/ … drive_link
Matches: http://redump.org/disc/3735

Common Disc Info:
    Title: Densha de Go!
    Foreign Title (Non-latin): 電車でGO!
    System: Sony PlayStation
    Media Type: CD-ROM
    Category: Games
    Fully Matching ID: 3735
    Region: Japan
    Languages: Japanese
    Disc Serial: SLPS 01150

    Ringcode Information:

Data Side Mastering Code (laser branded/etched): SLPS-01150    1
Data Side Mastering SID Code: IFPI L275
Data Side Toolstamp or Mastering Code (engraved/stamped): 
Data Side Mould SID Code: IFPI 4536
Data Side Additional Mould: 
Label Side Mould SID Code: 

    Barcode: 4 988611 970133
    EXE/Build Date: 1997-11-14
    Error Count: 0
    Comments:

[T:ISN] SLPS-01150
[T:VOL] GOTRAIN

    Contents: 

Version and Editions:
    Version: 
    Edition/Release: Original

EDC:
    EDC: Yes

Extras:
    Primary Volume Descriptor (PVD):

0320 : 20 20 20 20 20 20 20 20  20 20 20 20 20 31 39 39                199
0330 : 37 31 31 31 34 30 34 34  37 32 34 30 30 24 30 30   7111404472400$00
0340 : 30 30 30 30 30 30 30 30  30 30 30 30 30 30 00 30   00000000000000.0
0350 : 30 30 30 30 30 30 30 30  30 30 30 30 30 30 30 00   000000000000000.
0360 : 30 30 30 30 30 30 30 30  30 30 30 30 30 30 30 30   0000000000000000
0370 : 00 01 00 00 00 00 00 00  00 00 00 00 00 00 00 00   ................

Copy Protection:
    Anti-modchip: No
    LibCrypt: No
    SubIntention Data (SecuROM/LibCrypt): 

Tracks and Write Offsets:
    DAT:

<rom name="Densha De Go.bin" size="746141424" crc="8623d88a" md5="4fc17c7f9ea1d6fc0f4ddae8733808e1" sha1="bde19064a9cf496e29ba81be9fcb690dae4119d3" />

    Cuesheet:

FILE "Densha De Go.bin" BINARY
  TRACK 01 MODE2/2352
    INDEX 01 00:00:00

    Write Offset: +2

Dumping Info:
    Frontend Version: 3.1.5-771483ac146302cf6634037db23cd336b0d1c97a
    Dumping Program: Redumper v2024.01.08 build_311
    Date: 2024-04-14 18:12:25
    Manufacturer: PLEXTOR
    Model: CD-R PX-W4012A
    Firmware: 1.07 (03/22/06 09:00)
    Reported Disc Type: CD-ROM
    C2 Error Count: 0

9

(0 replies, posted in Verifications)

Logs and scans: https://drive.google.com/drive/folders/ … drive_link
Matches: http://redump.org/disc/55/

Common Disc Info:
    Title: Final Fantasy Tactics
    System: Sony PlayStation
    Media Type: CD-ROM
    Category: Games
    Fully Matching ID: 55
    Region: USA
    Languages: English
    Disc Serial: SCUS-94221

    Ringcode Information:

Data Side Mastering Code (laser branded/etched): PSRM-008740    G4 1A 06
Data Side Mastering SID Code: IFPI L424
Data Side Toolstamp or Mastering Code (engraved/stamped): 
Data Side Mould SID Code: IFPI 7287
Data Side Additional Mould: 
Label Side Mould SID Code: 

    Barcode: 7 11719 42212 9
    EXE/Build Date: 1997-10-17
    Error Count: 0
    Comments:

[T:ISN] SCUS-94221
[T:VOL] FINALFANTASYTACTICS

    Contents: 

Version and Editions:
    Version: 
    Edition/Release: Greatest Hits

EDC:
    EDC: Yes

Extras:
    Primary Volume Descriptor (PVD):

0320 : 20 20 20 20 20 20 20 20  20 20 20 20 20 31 39 39                199
0330 : 37 31 30 31 37 31 38 33  37 32 31 30 30 24 31 39   7101718372100$19
0340 : 39 37 31 30 31 37 31 38  33 37 32 31 30 30 24 30   97101718372100$0
0350 : 30 30 30 30 30 30 30 30  30 30 30 30 30 30 30 00   000000000000000.
0360 : 30 30 30 30 30 30 30 30  30 30 30 30 30 30 30 30   0000000000000000
0370 : 00 01 00 00 00 00 00 00  00 00 00 00 00 00 00 00   ................

Copy Protection:
    Anti-modchip: No
    LibCrypt: No
    SubIntention Data (SecuROM/LibCrypt): 

Tracks and Write Offsets:
    DAT:

<rom name="Final Fantasy Tactics.bin" size="541315152" crc="377f6510" md5="b156ba386436d20fd5ed8d37bab6b624" sha1="2b5d4db3229cdc7bbd0358b95fcba33dddae8bba" />

    Cuesheet:

FILE "Final Fantasy Tactics.bin" BINARY
  TRACK 01 MODE2/2352
    INDEX 01 00:00:00

    Write Offset: -647

Dumping Info:
    Frontend Version: 3.1.5-771483ac146302cf6634037db23cd336b0d1c97a
    Dumping Program: Redumper v2024.01.08 build_311
    Date: 2024-04-13 23:06:37
    Manufacturer: PLEXTOR
    Model: CD-R PX-W4012A
    Firmware: 1.07 (03/22/06 09:00)
    Reported Disc Type: CD-ROM
    C2 Error Count: 0

Logs and scans: https://drive.google.com/drive/folders/ … drive_link
Matches: http://redump.org/disc/14959

Common Disc Info:
    Title: Super Puzzle Fighter II Turbo
    System: Sony PlayStation
    Media Type: CD-ROM
    Category: Games
    Fully Matching ID: 14959
    Partially Matching IDs: 125, 184, 340, 341, 344, 345, 459, 460, 464, 473, 477, 509, 549, 554, 621, 710, 971, 1071, 1195, 1304, 1525, 1526, 1598, 1600, 1781, 2134, 2325, 2576, 2742, 2743, 2773, 2776, 3624, 3665, 3906, 4007, 4008, 4035, 4054, 4311, 4407, 4705, 5217, 5218, 5369, 5517, 6542, 6599, 6778, 6795, 6867, 6900, 7157, 7192, 7213, 7371, 7495, 7516, 7586, 7612, 7634, 7677, 7908, 7927, 8597, 9489, 9710, 10175, 10176, 10259, 10260, 10286, 10546, 10547, 10641, 10765, 10766, 11245, 11430, 12055, 12669, 12797, 13074, 13075, 13399, 13994, 14498, 14499, 14657, 14952, 16236, 17012, 18010, 18429, 18430, 18962, 19170, 19788, 23417, 23418, 24278, 25689, 25724, 25726, 26158, 26265, 26620, 26733, 26757, 26820, 26970, 27002, 27261, 27940, 27941, 27982, 28171, 29100, 29491, 29513, 29514, 29580, 29762, 31113, 31306, 32213, 32241, 33071, 33238, 33414, 33483, 33494, 33549, 33763, 34087, 34155, 36640, 36798, 37122, 37126, 38857, 38867, 39065, 39089, 39209, 39227, 40501, 40502, 41076, 41162, 41163, 41514, 41961, 42270, 42273, 42324, 42390, 42459, 44360, 44426, 45993, 46405, 48049, 48050, 48119, 48244, 49242, 53067, 53925, 55559, 59477, 60714, 61436, 62043, 68766, 68960, 69179, 74597, 80899, 89485, 90448
    Region: USA
    Languages: English
    Disc Serial: SLUS-00418

    Ringcode Information:

Data Side Mastering Code (laser branded/etched): PSRM-005810    3
Data Side Mastering SID Code: IFPI L327
Data Side Toolstamp or Mastering Code (engraved/stamped): 
Data Side Mould SID Code: IFPI 720Q
Data Side Additional Mould: 
Label Side Mould SID Code: 

    Barcode: 0 13388 21025 1
    EXE/Build Date: 1996-11-13
    Error Count: 1
    Comments:

[T:ISN] SLUS-00418
[T:VOL] SUPER_PUZZLE_FIGHTER_2_TURBO

    Contents: 

Version and Editions:
    Version: 
    Edition/Release: Original

EDC:
    EDC: No

Extras:
    Primary Volume Descriptor (PVD):

0320 : 20 20 20 20 20 20 20 20  20 20 20 20 20 31 39 39                199
0330 : 36 31 31 31 33 31 35 30  30 30 30 30 30 24 30 30   6111315000000$00
0340 : 30 30 30 30 30 30 30 30  30 30 30 30 30 30 00 30   00000000000000.0
0350 : 30 30 30 30 30 30 30 30  30 30 30 30 30 30 30 00   000000000000000.
0360 : 30 30 30 30 30 30 30 30  30 30 30 30 30 30 30 30   0000000000000000
0370 : 00 01 00 00 00 00 00 00  00 00 00 00 00 00 00 00   ................

Copy Protection:
    Anti-modchip: No
    LibCrypt: No
    SubIntention Data (SecuROM/LibCrypt): 

Tracks and Write Offsets:
    DAT:

<rom name="Super Puzzle Fighter 2 Turbo (Track 1).bin" size="523682208" crc="ed5cc99b" md5="4dc27af095f6ea6b8218a0425027396a" sha1="b299aec6e6d4c005b3b9f2917d280a8e842b8c67" />
<rom name="Super Puzzle Fighter 2 Turbo (Track 2).bin" size="45334800" crc="9c4fc90d" md5="29049d178a31b766a489a57f389d6333" sha1="8804b5e77bdae20cf1ec4b78e5f67a2c004347e3" />
<rom name="Super Puzzle Fighter 2 Turbo (Track 3).bin" size="37396800" crc="7976083e" md5="2d7b5e8e94a91bf5423b2356f6a34863" sha1="d9f92af296360772e62caa4cb276de3fa74f5538" />

    Cuesheet:

FILE "Super Puzzle Fighter 2 Turbo (Track 1).bin" BINARY
  TRACK 01 MODE2/2352
    INDEX 01 00:00:00
FILE "Super Puzzle Fighter 2 Turbo (Track 2).bin" BINARY
  TRACK 02 AUDIO
    INDEX 00 00:00:00
    INDEX 01 00:02:00
FILE "Super Puzzle Fighter 2 Turbo (Track 3).bin" BINARY
  TRACK 03 AUDIO
    INDEX 00 00:00:00
    INDEX 01 00:02:00

    Write Offset: -12

Dumping Info:
    Frontend Version: 3.1.5-771483ac146302cf6634037db23cd336b0d1c97a
    Dumping Program: Redumper v2024.01.08 build_311
    Date: 2024-04-13 22:49:31
    Manufacturer: PLEXTOR
    Model: CD-R PX-W4012A
    Firmware: 1.07 (03/22/06 09:00)
    Reported Disc Type: CD-ROM
    C2 Error Count: 0

11

(0 replies, posted in Verifications)

Logs and scans: https://drive.google.com/drive/folders/ … drive_link
Matches: http://redump.org/disc/3086

Common Disc Info:
    Title: Ape Escape
    System: Sony PlayStation
    Media Type: CD-ROM
    Category: Games
    Fully Matching ID: 3086
    Region: USA
    Languages: English
    Disc Serial: SCUS-94423

    Ringcode Information:

Data Side Mastering Code (laser branded/etched): PSRM-013000    2
Data Side Mastering SID Code: IFPI L330
Data Side Toolstamp or Mastering Code (engraved/stamped): B05
Data Side Mould SID Code: IFPI 5010
Data Side Additional Mould: 
Label Side Mould SID Code: 

    Barcode: 7 11719 44232 5
    EXE/Build Date: 1999-05-22
    Error Count: 0
    Comments: [T:ISN] SCUS-94423
    Contents: 

Version and Editions:
    Version: 
    Edition/Release: Original

EDC:
    EDC: No

Extras:
    Primary Volume Descriptor (PVD):

0320 : 20 20 20 20 20 20 20 20  20 20 20 20 20 31 39 39                199
0330 : 39 30 35 32 32 30 30 30  30 30 30 30 30 24 30 30   9052200000000$00
0340 : 30 30 30 30 30 30 30 30  30 30 30 30 30 30 00 30   00000000000000.0
0350 : 30 30 30 30 30 30 30 30  30 30 30 30 30 30 30 00   000000000000000.
0360 : 30 30 30 30 30 30 30 30  30 30 30 30 30 30 30 30   0000000000000000
0370 : 00 01 00 00 00 00 00 00  00 00 00 00 00 00 00 00   ................

Copy Protection:
    Anti-modchip: Yes
    LibCrypt: No
    SubIntention Data (SecuROM/LibCrypt): 

Tracks and Write Offsets:
    DAT:

<rom name="Ape Escape.bin" size="432238800" crc="c6f455bc" md5="de4e7ab78c08bd03712e83c14d4cf642" sha1="466cce4bcd6992f57227abd270323bcdad2fb7fc" />

    Cuesheet:

FILE "Ape Escape.bin" BINARY
  TRACK 01 MODE2/2352
    INDEX 01 00:00:00

    Write Offset: +2

Dumping Info:
    Frontend Version: 3.1.5-771483ac146302cf6634037db23cd336b0d1c97a
    Dumping Program: Redumper v2024.01.08 build_311
    Date: 2024-04-13 20:52:42
    Manufacturer: PLEXTOR
    Model: CD-R PX-W4012A
    Firmware: 1.07 (03/22/06 09:00)
    Reported Disc Type: CD-ROM
    C2 Error Count: 0

12

(0 replies, posted in Verifications)

Logs and scans: https://drive.google.com/drive/folders/ … drive_link
Matches: http://redump.org/disc/8707

Common Disc Info:
    Title: Virtua Fighter 2
    Foreign Title (Non-latin): バーチャ・ファイター2
    System: Sega Saturn
    Media Type: CD-ROM
    Category: Games
    Fully Matching ID: 8707
    Partially Matching IDs: 1460, 10126, 10127, 10788, 25477, 29174, 103330
    Region: Japan
    Languages: Japanese
    Disc Serial: GS-9079

    Ringcode Information:

Data Side Mastering Code (laser branded/etched): GS-9079P-00579B-P2K    V
Data Side Mastering SID Code: IFPI L237
Data Side Toolstamp or Mastering Code (engraved/stamped): 12
Data Side Mould SID Code: IFPI4011
Data Side Additional Mould: 
Label Side Mould SID Code: 

    Barcode: 
    EXE/Build Date: 1995-11-17
    Error Count: 0
    Comments:

[T:ISN] GS-9079
[T:SID] 670-7705 (Disc), 672-2864 (Manual), 670-7707 (Case)

    Contents: 

Version and Editions:
    Version: 1.001
    Edition/Release: Original

Extras:
    Primary Volume Descriptor (PVD):

0320 : 20 20 20 20 20 20 20 20  20 20 20 20 20 31 39 39                199
0330 : 35 31 31 31 37 31 34 35  37 32 33 30 30 14 31 39   5111714572300.19
0340 : 39 35 31 31 31 37 31 34  35 37 32 33 30 30 14 30   95111714572300.0
0350 : 30 30 30 30 30 30 30 30  30 30 30 30 30 30 30 00   000000000000000.
0360 : 30 30 30 30 30 30 30 30  30 30 30 30 30 30 30 30   0000000000000000
0370 : 00 01 00 00 00 00 00 00  00 00 00 00 00 00 00 00   ................

    Header:

0000 : 53 45 47 41 20 53 45 47  41 53 41 54 55 52 4E 20   SEGA SEGASATURN 
0010 : 53 45 47 41 20 45 4E 54  45 52 50 52 49 53 45 53   SEGA ENTERPRISES
0020 : 47 53 2D 39 30 37 39 20  20 20 56 31 2E 30 30 31   GS-9079   V1.001
0030 : 31 39 39 35 31 31 31 37  43 44 2D 31 2F 31 20 20   19951117CD-1/1
0040 : 4A 54 20 20 20 20 20 20  20 20 20 20 20 20 20 20   JT
0050 : 4A 20 20 20 20 20 20 20  20 20 20 20 20 20 20 20   J
0060 : 56 49 52 54 55 41 20 46  49 47 48 54 45 52 20 32   VIRTUA FIGHTER 2
0070 : 20 20 20 20 20 20 20 20  20 20 20 20 20 20 20 20
0080 : 20 20 20 20 20 20 20 20  20 20 20 20 20 20 20 20
0090 : 20 20 20 20 20 20 20 20  20 20 20 20 20 20 20 20
00A0 : 20 20 20 20 20 20 20 20  20 20 20 20 20 20 20 20
00B0 : 20 20 20 20 20 20 20 20  20 20 20 20 20 20 20 20
00C0 : 20 20 20 20 20 20 20 20  20 20 20 20 20 20 20 20
00D0 : 00 00 00 00 00 00 00 00  00 00 00 00 00 00 00 00   ................
00E0 : 00 00 80 00 00 00 00 00  00 00 00 00 00 00 00 00   ................
00F0 : 06 00 40 00 00 00 00 00  00 00 00 00 00 00 00 00   ..@.............

Tracks and Write Offsets:
    DAT:

<rom name="Virtua Fighter 2 (Track 01).bin" size="61316640" crc="65c7fc1e" md5="14992450395f67b251023821a4d20480" sha1="2475bfb03eeaabdfcce93bc010d7c395efdf8dce" />
<rom name="Virtua Fighter 2 (Track 02).bin" size="14057904" crc="6acf2e5b" md5="260b49418525be3228fc23bf69d3f163" sha1="97e760ee64ecac94d1cc09c857f44cdab48d04f9" />
<rom name="Virtua Fighter 2 (Track 03).bin" size="16513392" crc="ea2f6aaa" md5="56a33a7b801fde80c969688499d9eb3c" sha1="19543ca11ed86c9ccb6692b119802ba0e7a31adb" />
<rom name="Virtua Fighter 2 (Track 04).bin" size="14227248" crc="379d96d2" md5="9dba99ccfed9dd283f760165a5349edd" sha1="44dd3ef2cae83a0e6df65ee85b2d837022140cb4" />
<rom name="Virtua Fighter 2 (Track 05).bin" size="14286048" crc="6c90267a" md5="24ddcde05d4cd87754159dcd5165dac6" sha1="19108756ff4a06f2fb155515c92106bf38362f22" />
<rom name="Virtua Fighter 2 (Track 06).bin" size="13175904" crc="6a37c1a3" md5="8afc1fbf24c5e931b3f51bdc10423ed8" sha1="42465fd96278c724942d5c0420d67f43c3c3bfb5" />
<rom name="Virtua Fighter 2 (Track 07).bin" size="17397744" crc="96259fa2" md5="0066b8905e607d1ff3b2bd954e1adac5" sha1="6cabfbbc846adabea37222e53d398ca408735829" />
<rom name="Virtua Fighter 2 (Track 08).bin" size="16301712" crc="cf6b6b61" md5="5c36d4bd729329d195b311d0bfba6f4b" sha1="89c8fc16a0c429ec33b1b2262c8f1e9f674fd74b" />
<rom name="Virtua Fighter 2 (Track 09).bin" size="16153536" crc="7ecc9600" md5="669cf682e85b9d7f77670460d9dcc8ae" sha1="ce4bafedbcbfc2a978c125ef330f69f52a152380" />
<rom name="Virtua Fighter 2 (Track 10).bin" size="16710960" crc="ea8bbca6" md5="f0cc51b21ac1bba7a6c747f69a65e792" sha1="9a53343dec1fd3af720ab77c399ce69fc46b0f54" />
<rom name="Virtua Fighter 2 (Track 11).bin" size="13269984" crc="cdeeaf45" md5="9b33236a0e547c8d30cafa9c302bf8c5" sha1="58b4572576a5a4b97c31fb95e95a0f72516a3a92" />
<rom name="Virtua Fighter 2 (Track 12).bin" size="16478112" crc="0c1820e0" md5="610083ea2c6a7be0360c57f50af4bb79" sha1="993e25c1946b592f98363a4fdd28ee9921a64913" />
<rom name="Virtua Fighter 2 (Track 13).bin" size="13286448" crc="e916b017" md5="30b4007c16268206f6f0ef46cc435591" sha1="57e85b0bfc953a236e34ed5d5197968c90c30995" />
<rom name="Virtua Fighter 2 (Track 14).bin" size="5990544" crc="3ee2daa6" md5="fe2258725c0267d2ab800840d7c60154" sha1="67993e4099413bf064a0c836356d8c8480fabbb8" />
<rom name="Virtua Fighter 2 (Track 15).bin" size="1058400" crc="ee0538d9" md5="4822c0011a705fc0229f8df4354276b3" sha1="31411348cb59a421d895213acd5acb0ffd14856b" />
<rom name="Virtua Fighter 2 (Track 16).bin" size="2991744" crc="93fa10bc" md5="3e9d97e9da6ac2d356a95976114f89b2" sha1="58aaf55f185b0c3043e5f6c5a7be5b1de31a3ff6" />
<rom name="Virtua Fighter 2 (Track 17).bin" size="8594208" crc="9ef48bb0" md5="adbc688eba1cc67ddb3b5b1e32050d14" sha1="540d9eda2bc25a668e62bbcce7ab7f101317ec41" />
<rom name="Virtua Fighter 2 (Track 18).bin" size="1418256" crc="29e63405" md5="dedc8c07196ba165219a6d883c28950d" sha1="44b17b2393d9e08e5bce990142a687f5ab686027" />
<rom name="Virtua Fighter 2 (Track 19).bin" size="1613472" crc="5f44dcd3" md5="59eb8c77a82a420693f56d51c5b768e2" sha1="d1aa4b8ecfd09b5153606a75d87f7e7466496045" />
<rom name="Virtua Fighter 2 (Track 20).bin" size="2439024" crc="38b81c32" md5="d8ecf937a79c6baa0f4b05e67f716150" sha1="a2666676adae44a2f4484fe901763c727d1a1280" />
<rom name="Virtua Fighter 2 (Track 21).bin" size="32062464" crc="759d7390" md5="7abf47c47b09851c808603501d655366" sha1="6181144e71e42538429d77ce5addb2bd4f4401ef" />
<rom name="Virtua Fighter 2 (Track 22).bin" size="27135024" crc="e0382fc3" md5="bded68d2b09ebe7881b1712b8c9e9cc2" sha1="1141bf28177cf1b31ac926d297698b5b15d2e2fb" />
<rom name="Virtua Fighter 2 (Track 23).bin" size="31827264" crc="315eb224" md5="6f0a46bac90024eb58de62384ee4760d" sha1="a6448935cd8308622baae8e5a0b886b4b1f2891e" />
<rom name="Virtua Fighter 2 (Track 24).bin" size="30714768" crc="99c85ea8" md5="03b521cf2aaa1bf0eef90ae9ed14c5fe" sha1="8ad7c32d553dbee55718326306c3a96d11a41e02" />
<rom name="Virtua Fighter 2 (Track 25).bin" size="27172656" crc="28a921b6" md5="bb479bfc54d9df1df5fae2eaf28f2b34" sha1="4dda639ccc7c3c70f9b8a33e361306ee68e3565b" />
<rom name="Virtua Fighter 2 (Track 26).bin" size="30115008" crc="cca4c022" md5="2891e937879ecb9b08fe4f56c97fc1d6" sha1="f7041344987bd066c183cf8026551fe2c576fae2" />
<rom name="Virtua Fighter 2 (Track 27).bin" size="38368176" crc="81b92eb0" md5="7545041adaa784f32eafecc5182b1cb7" sha1="f0f40a332ee4913f668e53a86d9c6d8cedf65dac" />
<rom name="Virtua Fighter 2 (Track 28).bin" size="30329040" crc="a644d0cb" md5="6d6496d9b5306091fb473b8b9b79a3d7" sha1="22304a74f19316dfaa520083b9213e414fcf0c02" />
<rom name="Virtua Fighter 2 (Track 29).bin" size="24493728" crc="96d0d9a5" md5="63b9bbbd13a791a75c533b7e62600e1e" sha1="8e333e33288215f61fd416e698e6f5ff5a8daf5b" />
<rom name="Virtua Fighter 2 (Track 30).bin" size="25415712" crc="da68b5c1" md5="a7daec34e68da3d0dd38b556f25f4436" sha1="1f5509e8cd702dba88ccdb819e0a43f2551dd0d8" />
<rom name="Virtua Fighter 2 (Track 31).bin" size="26431776" crc="c8b12849" md5="c70f70f06c5d788402563c49fc748a35" sha1="334c8d15f5c81d8f093a2e9745049c5e007e5e8f" />
<rom name="Virtua Fighter 2 (Track 32).bin" size="27925296" crc="84dbee89" md5="e591f57ee7cf77a244a69b47d719d165" sha1="516a59f0209e24e1af464590f78e4d96767aaab9" />
<rom name="Virtua Fighter 2 (Track 33).bin" size="14565936" crc="98fc6468" md5="06082c788cffa49601f2dc72894e1a34" sha1="273dd14867675f33da203e64102dc494bdae1447" />
<rom name="Virtua Fighter 2 (Track 34).bin" size="13629840" crc="2ab7952d" md5="39b72ff85153536544f8e2e50de379e3" sha1="2f5b557992c7be6dd14cced184dd3577eb31f4f0" />

    Cuesheet:

CATALOG 0000000000000
FILE "Virtua Fighter 2 (Track 01).bin" BINARY
  TRACK 01 MODE1/2352
    INDEX 01 00:00:00
FILE "Virtua Fighter 2 (Track 02).bin" BINARY
  TRACK 02 AUDIO
    INDEX 00 00:00:00
    INDEX 01 00:02:00
FILE "Virtua Fighter 2 (Track 03).bin" BINARY
  TRACK 03 AUDIO
    INDEX 00 00:00:00
    INDEX 01 00:01:74
FILE "Virtua Fighter 2 (Track 04).bin" BINARY
  TRACK 04 AUDIO
    INDEX 00 00:00:00
    INDEX 01 00:01:74
FILE "Virtua Fighter 2 (Track 05).bin" BINARY
  TRACK 05 AUDIO
    INDEX 00 00:00:00
    INDEX 01 00:01:74
FILE "Virtua Fighter 2 (Track 06).bin" BINARY
  TRACK 06 AUDIO
    INDEX 00 00:00:00
    INDEX 01 00:01:74
FILE "Virtua Fighter 2 (Track 07).bin" BINARY
  TRACK 07 AUDIO
    INDEX 00 00:00:00
    INDEX 01 00:01:74
FILE "Virtua Fighter 2 (Track 08).bin" BINARY
  TRACK 08 AUDIO
    INDEX 00 00:00:00
    INDEX 01 00:01:74
FILE "Virtua Fighter 2 (Track 09).bin" BINARY
  TRACK 09 AUDIO
    INDEX 00 00:00:00
    INDEX 01 00:01:74
FILE "Virtua Fighter 2 (Track 10).bin" BINARY
  TRACK 10 AUDIO
    INDEX 00 00:00:00
    INDEX 01 00:01:74
FILE "Virtua Fighter 2 (Track 11).bin" BINARY
  TRACK 11 AUDIO
    INDEX 00 00:00:00
    INDEX 01 00:01:74
FILE "Virtua Fighter 2 (Track 12).bin" BINARY
  TRACK 12 AUDIO
    INDEX 00 00:00:00
    INDEX 01 00:01:74
FILE "Virtua Fighter 2 (Track 13).bin" BINARY
  TRACK 13 AUDIO
    INDEX 00 00:00:00
    INDEX 01 00:01:74
FILE "Virtua Fighter 2 (Track 14).bin" BINARY
  TRACK 14 AUDIO
    INDEX 00 00:00:00
    INDEX 01 00:01:74
FILE "Virtua Fighter 2 (Track 15).bin" BINARY
  TRACK 15 AUDIO
    INDEX 00 00:00:00
    INDEX 01 00:01:74
FILE "Virtua Fighter 2 (Track 16).bin" BINARY
  TRACK 16 AUDIO
    INDEX 00 00:00:00
    INDEX 01 00:01:74
FILE "Virtua Fighter 2 (Track 17).bin" BINARY
  TRACK 17 AUDIO
    INDEX 00 00:00:00
    INDEX 01 00:01:74
FILE "Virtua Fighter 2 (Track 18).bin" BINARY
  TRACK 18 AUDIO
    INDEX 00 00:00:00
    INDEX 01 00:01:74
FILE "Virtua Fighter 2 (Track 19).bin" BINARY
  TRACK 19 AUDIO
    INDEX 00 00:00:00
    INDEX 01 00:01:74
FILE "Virtua Fighter 2 (Track 20).bin" BINARY
  TRACK 20 AUDIO
    INDEX 00 00:00:00
    INDEX 01 00:01:74
FILE "Virtua Fighter 2 (Track 21).bin" BINARY
  TRACK 21 AUDIO
    INDEX 00 00:00:00
    INDEX 01 00:01:74
FILE "Virtua Fighter 2 (Track 22).bin" BINARY
  TRACK 22 AUDIO
    INDEX 00 00:00:00
    INDEX 01 00:01:74
FILE "Virtua Fighter 2 (Track 23).bin" BINARY
  TRACK 23 AUDIO
    INDEX 00 00:00:00
    INDEX 01 00:01:74
FILE "Virtua Fighter 2 (Track 24).bin" BINARY
  TRACK 24 AUDIO
    INDEX 00 00:00:00
    INDEX 01 00:01:74
FILE "Virtua Fighter 2 (Track 25).bin" BINARY
  TRACK 25 AUDIO
    INDEX 00 00:00:00
    INDEX 01 00:01:74
FILE "Virtua Fighter 2 (Track 26).bin" BINARY
  TRACK 26 AUDIO
    INDEX 00 00:00:00
    INDEX 01 00:01:74
FILE "Virtua Fighter 2 (Track 27).bin" BINARY
  TRACK 27 AUDIO
    INDEX 00 00:00:00
    INDEX 01 00:01:74
FILE "Virtua Fighter 2 (Track 28).bin" BINARY
  TRACK 28 AUDIO
    INDEX 00 00:00:00
    INDEX 01 00:01:74
FILE "Virtua Fighter 2 (Track 29).bin" BINARY
  TRACK 29 AUDIO
    INDEX 00 00:00:00
    INDEX 01 00:01:74
FILE "Virtua Fighter 2 (Track 30).bin" BINARY
  TRACK 30 AUDIO
    INDEX 00 00:00:00
    INDEX 01 00:01:74
FILE "Virtua Fighter 2 (Track 31).bin" BINARY
  TRACK 31 AUDIO
    INDEX 00 00:00:00
    INDEX 01 00:01:74
FILE "Virtua Fighter 2 (Track 32).bin" BINARY
  TRACK 32 AUDIO
    INDEX 00 00:00:00
    INDEX 01 00:01:74
FILE "Virtua Fighter 2 (Track 33).bin" BINARY
  TRACK 33 AUDIO
    INDEX 00 00:00:00
    INDEX 01 00:01:74
FILE "Virtua Fighter 2 (Track 34).bin" BINARY
  TRACK 34 AUDIO
    INDEX 00 00:00:00
    INDEX 01 00:01:74

    Write Offset: +684

Dumping Info:
    Frontend Version: 3.1.5-771483ac146302cf6634037db23cd336b0d1c97a
    Dumping Program: Redumper v2024.01.08 build_311
    Date: 2024-04-13 20:30:15
    Manufacturer: PLEXTOR
    Model: CD-R PX-W4012A
    Firmware: 1.07 (03/22/06 09:00)
    Reported Disc Type: CD-ROM
    C2 Error Count: 0

13

(3 replies, posted in Verifications)

Disc 3
Logs and scans: https://drive.google.com/drive/folders/ … drive_link
Matches: http://redump.org/disc/3034/

LD

Common Disc Info:
    Title: Shenmue
    Disc Number / Letter: 3
    System: Sega Dreamcast
    Media Type: CD-ROM
    Category: Games
    Partially Matching IDs: 3034, 20027
    Region: USA
    Languages: English
    Disc Serial: 51059

    Ringcode Information:

Data Side Mastering Code (laser branded/etched): *1S*    51059-3S    B
Data Side Mastering SID Code: IFPI L433
Data Side Toolstamp or Mastering Code (engraved/stamped): A1
Data Side Mould SID Code: IFPI 7498
Data Side Additional Mould: 
Label Side Mould SID Code: 

    Barcode: 0 10086 51059 1
    EXE/Build Date: (REQUIRED)
    Error Count: 0
    Comments: [T:VOL] SHENMUE_DISC3
    Contents: 

Version and Editions:
    Version: 
    Edition/Release: Original

Extras:
    Primary Volume Descriptor (PVD):

0320 : 20 20 20 20 20 20 20 20  20 20 20 20 20 32 30 30                200
0330 : 30 30 39 31 38 32 32 31  34 31 34 30 30 24 32 30   0091822141400$20
0340 : 30 30 30 39 31 38 32 32  31 34 31 34 30 30 24 30   00091822141400$0
0350 : 30 30 30 30 30 30 30 30  30 30 30 30 30 30 30 00   000000000000000.
0360 : 30 30 30 30 30 30 30 30  30 30 30 30 30 30 30 30   0000000000000000
0370 : 00 01 00 00 00 00 00 00  00 00 00 00 00 00 00 00   ................

Tracks and Write Offsets:
    DAT:

<rom name="Shenmue (Disc 3) (Track 1).bin" size="705600" crc="d942ae84" md5="f37953d817c75581dd167d52423139e7" sha1="9850c58e87d658c9b3a234bb244e0f9a51fc6a86" />
<rom name="Shenmue (Disc 3) (Track 2).bin" size="2836512" crc="a9fd94eb" md5="17a10d173a99e1eceddf1b9d38e2fbe5" sha1="ac4ad55af4fa470f89790b58652040f1d35dc6fb" />

    Cuesheet:

FILE "Shenmue (Disc 3) (Track 1).bin" BINARY
  TRACK 01 MODE1/2352
    INDEX 01 00:00:00
FILE "Shenmue (Disc 3) (Track 2).bin" BINARY
  TRACK 02 AUDIO
    INDEX 00 00:00:00
    INDEX 01 00:02:00

    Write Offset: -322

Dumping Info:
    Frontend Version: 3.1.4-ccf2166b725a68810649721d7ae4f5afb3be1b62
    Dumping Program: Redumper v2024.01.08 build_311
    Date: 2024-03-30 23:38:18
    Manufacturer: PLEXTOR
    Model: CD-R PX-W4012A
    Firmware: 1.07 (03/22/06 09:00)
    Reported Disc Type: CD-ROM

HD

ice @20090609 / themabus@inbox.lv
---------------------------------
dense.bin
---------------------------------
Accessing                       : ok
Seeking 1st valid Mode1 sector  : ok
 LBA found                      : 44991
 @file offset                   : $00000450
 Scrambled                      : TRUE
Seeking LBA 45000               : ok
 Combined offset (samples)      : -312
Parsing IP.BIN                  : ok
 Writting 'ip.txt'              : ok
Parsing TOC                     : ok
 TOC entries                    : 7
 Writting 'redump.cue'          : ok
---------------------------------
03  Mode1   45000  180155  135156 ok
04  Audio  180156  180755     600 ok
05  Audio  180756  190264    9509 ok
06  Mode1  190265  549149  358885 ok (75)
---------------------------------
done
Name: Track 03.bin
Size: 317886912 bytes (303 MiB)
CRC32: 65A342E8
CRC64: 926B700336C16399
SHA256: 28dfd62f9d3e596d5c0baf267564e419ee12626268996078add09b8200743b03
SHA1: de2a5470df24b5042c4474c1ba42f91c7cdcbe28
BLAKE2sp: 7c14910a3499d2f7fa9b2732389a94dd112f25ca477f81b6a4fdf3a4702d7139
MD5: a07bbf441e46875bf57cd66dc427635c

Name: Track 04.bin
Size: 1411200 bytes (1378 KiB)
CRC32: C26F35DC
CRC64: 93A61BFB5170A9C3
SHA256: c6522a3868334c31087f2119a6e6d3c00365d3eed39a721406eaef3c2736c7c2
SHA1: e78b8ff0b774acf3a2810d54a4a5cbd3a344e416
BLAKE2sp: 91aeeda72ca26db11a5ebb801fdae37b595d9f330b94d035a1f1774c9970d13c
MD5: 92f4b008fb82c9cd5c8b10b02a540b96

Name: Track 05.bin
Size: 22365168 bytes (21 MiB)
CRC32: 1921CEB4
CRC64: 856F39DB04E71D92
SHA256: bece1989acdbbd6c707cbf6a41ca95b133f4c123ec4520dc2db7e08054d6dcdb
SHA1: 03a7a915c9499a33df2f9da2029d3d651510677f
BLAKE2sp: 899034046a7da12bbf8536b03662066efc4c838b1c5a299e66f5fb9ad1e1833a
MD5: 422608accc797426e9b1a750d135b1d8

Name: Track 06.bin
Size: 844097520 bytes (804 MiB)
CRC32: 04AE123F
CRC64: C7A016E49549A855
SHA256: 27d7d6ec247af0843b438176d4448faf48c70b1c57a90f7a0a427b88cb254040
SHA1: b813fa4a57466c36568fbd32869efce66deeec19
BLAKE2sp: 8c9b9962364b4061b1c28039a76b65238c274b23d9ed04f188081ab62b706808
MD5: dc7c3adcdd5d9afb6e5ea1612b43dcdd

CUE

FILE "Track 01.bin" BINARY
  TRACK 01 MODE1/2352
    INDEX 01 00:00:00
FILE "Track 02.bin" BINARY
  TRACK 02 AUDIO
    INDEX 00 00:00:00
    INDEX 01 00:02:00

FILE "Track 03.bin" BINARY
  TRACK 03 MODE1/2352
    INDEX 01 00:00:00
FILE "Track 04.bin" BINARY
  TRACK 04 AUDIO
    INDEX 00 00:00:00
    INDEX 01 00:02:00
FILE "Track 05.bin" BINARY
  TRACK 05 AUDIO
    INDEX 00 00:00:00
    INDEX 01 00:02:00
FILE "Track 06.bin" BINARY
  TRACK 06 MODE1/2352
    INDEX 00 00:00:00
    INDEX 01 00:03:00

14

(3 replies, posted in Verifications)

Disc 2
Logs and scans: https://drive.google.com/drive/folders/ … drive_link
Matches: http://redump.org/disc/3029/

LD

Common Disc Info:
    Title: Shenmue
    Disc Number / Letter: 2
    System: Sega Dreamcast
    Media Type: CD-ROM
    Category: Games
    Partially Matching IDs: 3029, 19954
    Region: USA
    Languages: English
    Disc Serial: 51059

    Ringcode Information:

Data Side Mastering Code (laser branded/etched): *3S*    51059-2S    B
Data Side Mastering SID Code: IFPI L433
Data Side Toolstamp or Mastering Code (engraved/stamped): B10
Data Side Mould SID Code: IFPI 7497
Data Side Additional Mould: 
Label Side Mould SID Code: 

    Barcode: 0 10086 51059 1
    EXE/Build Date: (REQUIRED)
    Error Count: 0
    Comments: [T:VOL] SHENMUE_DISC2
    Contents: 

Version and Editions:
    Version: 
    Edition/Release: Original

Extras:
    Primary Volume Descriptor (PVD):

0320 : 20 20 20 20 20 20 20 20  20 20 20 20 20 32 30 30                200
0330 : 30 30 39 31 38 32 32 30  37 35 31 30 30 24 32 30   0091822075100$20
0340 : 30 30 30 39 31 38 32 32  30 37 35 31 30 30 24 30   00091822075100$0
0350 : 30 30 30 30 30 30 30 30  30 30 30 30 30 30 30 00   000000000000000.
0360 : 30 30 30 30 30 30 30 30  30 30 30 30 30 30 30 30   0000000000000000
0370 : 00 01 00 00 00 00 00 00  00 00 00 00 00 00 00 00   ................

Tracks and Write Offsets:
    DAT:

<rom name="Shenmue (Disc 2) (Track 1).bin" size="705600" crc="52e320ae" md5="347ae87c7f1cf09020ccb81025790159" sha1="438f4b5c580c05df3b692271845ec4fb27117da8" />
<rom name="Shenmue (Disc 2) (Track 2).bin" size="2203824" crc="ff8e1161" md5="5652d653d7ea70c73209a6f2a0b16d90" sha1="47cb7fc9072838383170377978316c6f8361c9dd" />

    Cuesheet:

FILE "Shenmue (Disc 2) (Track 1).bin" BINARY
  TRACK 01 MODE1/2352
    INDEX 01 00:00:00
FILE "Shenmue (Disc 2) (Track 2).bin" BINARY
  TRACK 02 AUDIO
    INDEX 00 00:00:00
    INDEX 01 00:02:00

    Write Offset: -247

Dumping Info:
    Frontend Version: 3.1.4-ccf2166b725a68810649721d7ae4f5afb3be1b62
    Dumping Program: Redumper v2024.01.08 build_311
    Date: 2024-03-30 23:34:46
    Manufacturer: PLEXTOR
    Model: CD-R PX-W4012A
    Firmware: 1.07 (03/22/06 09:00)
    Reported Disc Type: CD-ROM

HD

ice @20090609 / themabus@inbox.lv
---------------------------------
dense.bin
---------------------------------
Accessing                       : ok
Seeking 1st valid Mode1 sector  : ok
 LBA found                      : 44991
 @file offset                   : $00000570
 Scrambled                      : TRUE
Seeking LBA 45000               : ok
 Combined offset (samples)      : -240
Parsing IP.BIN                  : ok
 Writting 'ip.txt'              : ok
Parsing TOC                     : ok
 TOC entries                    : 7
 Writting 'redump.cue'          : ok
---------------------------------
03  Mode1   45000  225836  180837 ok
04  Audio  225837  226436     600 ok
05  Audio  226437  227202     766 ok
06  Mode1  227203  549149  321947 ok (75)
---------------------------------
done
Name: Track 03.bin
Size: 425328624 bytes (405 MiB)
CRC32: 6134FAFD
CRC64: 5B454D914180130E
SHA256: ac50f68ccd433c7f0c30d2a20ab1d18b8cd55b5180a4a6723880c099c331dc60
SHA1: d719fd5e7b10b21857f2ef58aa1670ed7e50aae6
BLAKE2sp: 0d50c0dc366ffeffc8ae93f09487a5b8db350b41000e1de4c4d194aff957a851
MD5: 4c0ed7e69f6e06997e981ff4013b521b

Name: Track 04.bin
Size: 1411200 bytes (1378 KiB)
CRC32: C26F35DC
CRC64: 93A61BFB5170A9C3
SHA256: c6522a3868334c31087f2119a6e6d3c00365d3eed39a721406eaef3c2736c7c2
SHA1: e78b8ff0b774acf3a2810d54a4a5cbd3a344e416
BLAKE2sp: 91aeeda72ca26db11a5ebb801fdae37b595d9f330b94d035a1f1774c9970d13c
MD5: 92f4b008fb82c9cd5c8b10b02a540b96

Name: Track 05.bin
Size: 1801632 bytes (1759 KiB)
CRC32: 6DD8F55F
CRC64: 83B12B1A93B61039
SHA256: 06f165d94b65f50a15dc7ae7d1fa4de9d7b2500077d8ed71e7f605bd2be5ae32
SHA1: ed782a0bc35f3f7f83ad7a54bb8d7fc83ec4668a
BLAKE2sp: 10c9e469d93b2a5d3474a4847f8c61a505671952e3e3a4a06ed32a1c599a8aeb
MD5: 886ef9f9532ba942ebb369df3784090c

Name: Track 06.bin
Size: 757219344 bytes (722 MiB)
CRC32: C197E804
CRC64: 6B261A887A7C0361
SHA256: fb55f4ead1009c01a525752193485fff73f666c9e77fa1407de3688b14820c16
SHA1: 3679487d478a12f4ef050606631571f4c3f42b7b
BLAKE2sp: f06fc07ca50291ac4b3f83ae2252d2e592862257a59d0e9596eda21174aa76a8
MD5: bfaea1a34a25a22373cefd23424d0188

CUE

FILE "Track 01.bin" BINARY
  TRACK 01 MODE1/2352
    INDEX 01 00:00:00
FILE "Track 02.bin" BINARY
  TRACK 02 AUDIO
    INDEX 00 00:00:00
    INDEX 01 00:02:00

FILE "Track 03.bin" BINARY
  TRACK 03 MODE1/2352
    INDEX 01 00:00:00
FILE "Track 04.bin" BINARY
  TRACK 04 AUDIO
    INDEX 00 00:00:00
    INDEX 01 00:02:00
FILE "Track 05.bin" BINARY
  TRACK 05 AUDIO
    INDEX 00 00:00:00
    INDEX 01 00:02:00
FILE "Track 06.bin" BINARY
  TRACK 06 MODE1/2352
    INDEX 00 00:00:00
    INDEX 01 00:03:00

15

(3 replies, posted in Verifications)

Disc 1
Logs and scans: https://drive.google.com/drive/folders/ … drive_link
Matches: http://redump.org/disc/3028/

LD

Common Disc Info:
    Title: Shenmue
    Disc Number / Letter: 1
    System: Sega Dreamcast
    Media Type: CD-ROM
    Category: Games
    Partially Matching IDs: 3028, 27639
    Region: USA
    Languages: English
    Disc Serial: 51059

    Ringcode Information:

Data Side Mastering Code (laser branded/etched): *TS*    51059-1S    B
Data Side Mastering SID Code: IFPI L433
Data Side Toolstamp or Mastering Code (engraved/stamped): C8
Data Side Mould SID Code: IFPI 7495
Data Side Additional Mould: 
Label Side Mould SID Code: 

    Barcode: 0 10086 51059 1
    EXE/Build Date: (REQUIRED)
    Error Count: 0
    Comments: [T:VOL] SHENMUE_DISC1
    Contents: 

Version and Editions:
    Version: 
    Edition/Release: Original

Extras:
    Primary Volume Descriptor (PVD):

0320 : 20 20 20 20 20 20 20 20  20 20 20 20 20 32 30 30                200
0330 : 30 30 39 31 38 32 32 30  31 35 33 30 30 24 32 30   0091822015300$20
0340 : 30 30 30 39 31 38 32 32  30 31 35 33 30 30 24 30   00091822015300$0
0350 : 30 30 30 30 30 30 30 30  30 30 30 30 30 30 30 00   000000000000000.
0360 : 30 30 30 30 30 30 30 30  30 30 30 30 30 30 30 30   0000000000000000
0370 : 00 01 00 00 00 00 00 00  00 00 00 00 00 00 00 00   ................

Tracks and Write Offsets:
    DAT:

<rom name="Shenmue (Disc 1) (Track 1).bin" size="705600" crc="ae989622" md5="91f5df82824ebd3ad7e9cf563be0d52d" sha1="eccd579bcfaa25866b610b1efff6430e1d5361f8" />
<rom name="Shenmue (Disc 1) (Track 2).bin" size="2086224" crc="28cce79d" md5="8973940cea2f0c670cb0084f12710a21" sha1="aca0c191b6c17242545a5efecaea955888f95cb8" />

    Cuesheet:

FILE "Shenmue (Disc 1) (Track 1).bin" BINARY
  TRACK 01 MODE1/2352
    INDEX 01 00:00:00
FILE "Shenmue (Disc 1) (Track 2).bin" BINARY
  TRACK 02 AUDIO
    INDEX 00 00:00:00
    INDEX 01 00:02:00

    Write Offset: -85

Dumping Info:
    Frontend Version: 3.1.4-ccf2166b725a68810649721d7ae4f5afb3be1b62
    Dumping Program: Redumper v2024.01.08 build_311
    Date: 2024-03-30 23:28:00
    Manufacturer: PLEXTOR
    Model: CD-R PX-W4012A
    Firmware: 1.07 (03/22/06 09:00)
    Reported Disc Type: CD-ROM

HD

ice @20090609 / themabus@inbox.lv
---------------------------------
dense.bin
---------------------------------
Accessing                       : ok
Seeking 1st valid Mode1 sector  : ok
 LBA found                      : 44991
 @file offset                   : $000007F8
 Scrambled                      : TRUE
Seeking LBA 45000               : ok
 Combined offset (samples)      : -78
Parsing IP.BIN                  : ok
 Writting 'ip.txt'              : ok
Parsing TOC                     : ok
 TOC entries                    : 7
 Writting 'redump.cue'          : ok
---------------------------------
03  Mode1   45000  195968  150969 ok
04  Audio  195969  196568     600 ok
05  Audio  196569  197334     766 ok
06  Mode1  197335  549149  351815 ok (75)
---------------------------------
done
Name: Track 03.bin
Size: 355079088 bytes (338 MiB)
CRC32: 0B9B7C09
CRC64: 0A2BAEDE68B5BFA5
SHA256: 2801297006d2dceb04179e4cbc142e2e78510432a95b9e331a8c982d31e357a8
SHA1: a58a978297afc795ebd40c3918ad69033959b63a
BLAKE2sp: b404c7716556dc66035fff1b0c228b5d31ad63517cbfc3fe4f9e6c67bf567980
MD5: c2d669c486d2ba6c304b8d8fc7b90e24

Name: Track 04.bin
Size: 1411200 bytes (1378 KiB)
CRC32: C26F35DC
CRC64: 93A61BFB5170A9C3
SHA256: c6522a3868334c31087f2119a6e6d3c00365d3eed39a721406eaef3c2736c7c2
SHA1: e78b8ff0b774acf3a2810d54a4a5cbd3a344e416
BLAKE2sp: 91aeeda72ca26db11a5ebb801fdae37b595d9f330b94d035a1f1774c9970d13c
MD5: 92f4b008fb82c9cd5c8b10b02a540b96

Name: Track 05.bin
Size: 1801632 bytes (1759 KiB)
CRC32: 6DD8F55F
CRC64: 83B12B1A93B61039
SHA256: 06f165d94b65f50a15dc7ae7d1fa4de9d7b2500077d8ed71e7f605bd2be5ae32
SHA1: ed782a0bc35f3f7f83ad7a54bb8d7fc83ec4668a
BLAKE2sp: 10c9e469d93b2a5d3474a4847f8c61a505671952e3e3a4a06ed32a1c599a8aeb
MD5: 886ef9f9532ba942ebb369df3784090c

Name: Track 06.bin
Size: 827468880 bytes (789 MiB)
CRC32: E2F09CCF
CRC64: 87784A990D2D9467
SHA256: 07e3e1b93e372f0cc3a844a1fe924084b00ab519cb266d4d4516c63087e33dd5
SHA1: a077fc62025540476a7d3d7399e480c91f50b433
BLAKE2sp: 45fd0532eb4991fe4408625a4818c325b30453a4a1e2ff85e64d3d2b0f98cac7
MD5: cc4d32afdba1c7a9a3423c2f172c808c

CUE

FILE "Track 01.bin" BINARY
  TRACK 01 MODE1/2352
    INDEX 01 00:00:00
FILE "Track 02.bin" BINARY
  TRACK 02 AUDIO
    INDEX 00 00:00:00
    INDEX 01 00:02:00

FILE "Track 03.bin" BINARY
  TRACK 03 MODE1/2352
    INDEX 01 00:00:00
FILE "Track 04.bin" BINARY
  TRACK 04 AUDIO
    INDEX 00 00:00:00
    INDEX 01 00:02:00
FILE "Track 05.bin" BINARY
  TRACK 05 AUDIO
    INDEX 00 00:00:00
    INDEX 01 00:02:00
FILE "Track 06.bin" BINARY
  TRACK 06 MODE1/2352
    INDEX 00 00:00:00
    INDEX 01 00:03:00

16

(3 replies, posted in Verifications)

Disc 4 (Shenmue Passport)

Logs and scans: https://drive.google.com/drive/folders/ … drive_link
Matches: http://redump.org/disc/3035

LD

Common Disc Info:
    Title: Shenmue
    Disc Number / Letter: 4
    Disc Title: Shenmue Passport
    System: Sega Dreamcast
    Media Type: CD-ROM
    Category: Games
    Partially Matching IDs: 3035
    Region: USA
    Languages: English
    Disc Serial: 51059

    Ringcode Information:

Data Side Mastering Code (laser branded/etched): *1S*    51059A-4S    B
Data Side Mastering SID Code: IFPI L433
Data Side Toolstamp or Mastering Code (engraved/stamped): D12
Data Side Mould SID Code: IFPI 7498
Data Side Additional Mould: 
Label Side Mould SID Code: 

    Barcode: 0 10086 51059 1
    EXE/Build Date: (REQUIRED)
    Error Count: 0
    Comments: [T:VOL] SHENMUE_DISC4
    Contents: 

Version and Editions:
    Version: 1.004
    Edition/Release: Original

Extras:
    Primary Volume Descriptor (PVD):

0320 : 20 20 20 20 20 20 20 20  20 20 20 20 20 32 30 30                200
0330 : 30 30 39 32 39 30 31 34  33 32 33 30 30 24 32 30   0092901432300$20
0340 : 30 30 30 39 32 39 30 31  34 33 32 33 30 30 24 30   00092901432300$0
0350 : 30 30 30 30 30 30 30 30  30 30 30 30 30 30 30 00   000000000000000.
0360 : 30 30 30 30 30 30 30 30  30 30 30 30 30 30 30 30   0000000000000000
0370 : 00 01 00 00 00 00 00 00  00 00 00 00 00 00 00 00   ................

Tracks and Write Offsets:
    DAT:

<rom name="SHENMUE_DISC4 (Track 1).bin" size="705600" crc="4c5ce9ae" md5="1127c923c0fbb0d521770d69f2548401" sha1="765db866c1dd1b44d95d22a1724e149af76d1499" />
<rom name="SHENMUE_DISC4 (Track 2).bin" size="2695392" crc="711a4b67" md5="f6830130eb58e97a17ff0514d4d80c5c" sha1="84d285f9e8341db089b134374f932f3fd16bfa0f" />

    Cuesheet:

FILE "SHENMUE_DISC4 (Track 1).bin" BINARY
  TRACK 01 MODE1/2352
    INDEX 01 00:00:00
FILE "SHENMUE_DISC4 (Track 2).bin" BINARY
  TRACK 02 AUDIO
    INDEX 00 00:00:00
    INDEX 01 00:02:00

    Write Offset: -290

Dumping Info:
    Frontend Version: 3.1.4-ccf2166b725a68810649721d7ae4f5afb3be1b62
    Dumping Program: Redumper v2024.01.08 build_311
    Date: 2024-03-30 03:47:37
    Manufacturer: PLEXTOR
    Model: CD-R PX-W4012A
    Firmware: 1.07 (03/22/06 09:00)
    Reported Disc Type: CD-ROM

HD

ice @20090609 / themabus@inbox.lv
---------------------------------
dense.bin
---------------------------------
Accessing                       : ok
Seeking 1st valid Mode1 sector  : ok
 LBA found                      : 44991
 @file offset                   : $000004C8
 Scrambled                      : TRUE
Seeking LBA 45000               : ok
 Combined offset (samples)      : -282
Parsing IP.BIN                  : ok
 Writting 'ip.txt'              : ok
Parsing TOC                     : ok
 TOC entries                    : 8
 Writting 'redump.cue'          : ok
---------------------------------
03  Mode1   45000   85588   40589 ok
04  Audio   85589   86188     600 ok
05  Audio   86189   95697    9509 ok
06  Audio   95698   96463     766 ok
07  Mode1   96464  549149  452686 ok (75)
---------------------------------
done
Name: Track 03.bin
Size: 95465328 bytes (91 MiB)
CRC32: 96E4A178
CRC64: 83A0D0B48ED63C86
SHA256: 29a55ebf0816b05ca50e8b69c699aa3c3bf650798622eba17e97ed456498ef84
SHA1: a70033206b73c328ed53ba2803085df95bf240b2
BLAKE2sp: ac3bfe19af2a0176e0f7049e7141a7d940b4d23cba9f0ca22812e4366981f73e
MD5: 07c19ff3d375043e5c1a1caf1d68d4f9

Name: Track 04.bin
Size: 1411200 bytes (1378 KiB)
CRC32: C26F35DC
CRC64: 93A61BFB5170A9C3
SHA256: c6522a3868334c31087f2119a6e6d3c00365d3eed39a721406eaef3c2736c7c2
SHA1: e78b8ff0b774acf3a2810d54a4a5cbd3a344e416
BLAKE2sp: 91aeeda72ca26db11a5ebb801fdae37b595d9f330b94d035a1f1774c9970d13c
MD5: 92f4b008fb82c9cd5c8b10b02a540b96

Name: Track 05.bin
Size: 22365168 bytes (21 MiB)
CRC32: 1921CEB4
CRC64: 856F39DB04E71D92
SHA256: bece1989acdbbd6c707cbf6a41ca95b133f4c123ec4520dc2db7e08054d6dcdb
SHA1: 03a7a915c9499a33df2f9da2029d3d651510677f
BLAKE2sp: 899034046a7da12bbf8536b03662066efc4c838b1c5a299e66f5fb9ad1e1833a
MD5: 422608accc797426e9b1a750d135b1d8

Name: Track 06.bin
Size: 1801632 bytes (1759 KiB)
CRC32: 6DD8F55F
CRC64: 83B12B1A93B61039
SHA256: 06f165d94b65f50a15dc7ae7d1fa4de9d7b2500077d8ed71e7f605bd2be5ae32
SHA1: ed782a0bc35f3f7f83ad7a54bb8d7fc83ec4668a
BLAKE2sp: 10c9e469d93b2a5d3474a4847f8c61a505671952e3e3a4a06ed32a1c599a8aeb
MD5: 886ef9f9532ba942ebb369df3784090c

Name: Track 07.bin
Size: 1064717472 bytes (1015 MiB)
CRC32: BD53E535
CRC64: 7F3166309C410A84
SHA256: 02f00b15fe45d218e4241140986ebc518a5924e9ffdfcf6a8327dc5244e438f7
SHA1: 25408b9a4c580cedff5c866a35d84124a733ee97
BLAKE2sp: 40bc4e2266e8f8bc93a29f403867e1aa43b92edd0f97eae884baf54a40e91e27
MD5: 8ae137eb044d71b287dfa798f50f266e

CUE

FILE "Track 01.bin" BINARY
  TRACK 01 MODE1/2352
    INDEX 01 00:00:00
FILE "Track 02.bin" BINARY
  TRACK 02 AUDIO
    INDEX 00 00:00:00
    INDEX 01 00:02:00

FILE "Track 03.bin" BINARY
  TRACK 03 MODE1/2352
    INDEX 01 00:00:00
FILE "Track 04.bin" BINARY
  TRACK 04 AUDIO
    INDEX 00 00:00:00
    INDEX 01 00:02:00
FILE "Track 05.bin" BINARY
  TRACK 05 AUDIO
    INDEX 00 00:00:00
    INDEX 01 00:02:00
FILE "Track 06.bin" BINARY
  TRACK 06 AUDIO
    INDEX 00 00:00:00
    INDEX 01 00:02:00
FILE "Track 07.bin" BINARY
  TRACK 07 MODE1/2352
    INDEX 00 00:00:00
    INDEX 01 00:03:00

Disc 2
Logs and scans: https://drive.google.com/drive/folders/ … drive_link
Matches: http://redump.org/disc/1823

Common Disc Info:
    Title: Devil Summoner: Soul Hackers
    Foreign Title (Non-latin): デビル・サマナーソウル・ハッカーズ
    Disc Number / Letter: 02
    System: Sega Saturn
    Media Type: CD-ROM
    Category: Games
    Fully Matching ID: 1823
    Partially Matching IDs: 1806
    Region: Japan
    Languages: Japanese
    Disc Serial: T-14420G

    Ringcode Information:

Data Side Mastering Code (laser branded/etched): T-14420GP-01941-P1K    V
Data Side Mastering SID Code: IFPI L237
Data Side Toolstamp or Mastering Code (engraved/stamped): 2
Data Side Mould SID Code: IFPI4011
Data Side Additional Mould: 
Label Side Mould SID Code: 

    Barcode: 4 984995 800196
    EXE/Build Date: 1997-10-15
    Error Count: 0
    Comments:

[T:ISN] T-14420G
[T:VOL] DEVIL_SUMMONER_SOUL_HACKERS

    Contents: 

Version and Editions:
    Version: 1.002
    Edition/Release: Original

Extras:
    Primary Volume Descriptor (PVD):

0320 : 20 20 20 20 20 20 20 20  20 20 20 20 20 31 39 39                199
0330 : 37 31 30 31 35 31 31 32  32 31 30 30 30 00 31 39   7101511221000.19
0340 : 39 37 31 30 31 35 31 31  32 32 31 30 30 30 00 31   97101511221000.1
0350 : 39 39 37 31 30 31 35 31  31 32 32 31 30 30 30 00   997101511221000.
0360 : 31 39 39 37 31 30 31 35  31 31 32 32 31 30 30 30   1997101511221000
0370 : 00 01 00 00 00 00 00 00  00 00 00 00 00 00 00 00   ................

    Header:

0000 : 53 45 47 41 20 53 45 47  41 53 41 54 55 52 4E 20   SEGA SEGASATURN 
0010 : 53 45 47 41 20 54 50 20  54 2D 31 34 34 20 20 20   SEGA TP T-144
0020 : 54 2D 31 34 34 32 30 47  20 20 56 31 2E 30 30 32   T-14420G  V1.002
0030 : 31 39 39 37 31 30 31 35  43 44 2D 32 2F 32 20 20   19971015CD-2/2
0040 : 4A 20 20 20 20 20 20 20  20 20 20 20 20 20 20 20   J
0050 : 4A 20 20 20 20 20 20 20  20 20 20 20 20 20 20 20   J
0060 : 44 45 56 49 4C 20 53 55  4D 4D 4F 4E 45 52 20 53   DEVIL SUMMONER S
0070 : 4F 55 4C 20 48 41 43 4B  45 52 53 20 20 20 20 20   OUL HACKERS
0080 : 20 20 20 20 20 20 20 20  20 20 20 20 20 20 20 20
0090 : 20 20 20 20 20 20 20 20  20 20 20 20 20 20 20 20
00A0 : 20 20 20 20 20 20 20 20  20 20 20 20 20 20 20 20
00B0 : 20 20 20 20 20 20 20 20  20 20 20 20 20 20 20 20
00C0 : 20 20 20 20 20 20 20 20  20 20 20 20 20 20 20 20
00D0 : 00 00 00 00 00 00 00 00  00 00 00 00 00 00 00 00   ................
00E0 : 00 00 18 00 00 00 00 00  00 00 00 00 00 00 00 00   ................
00F0 : 06 00 40 00 00 00 00 00  00 00 00 00 00 00 00 00   ..@.............

Tracks and Write Offsets:
    DAT:

<rom name="Devil Summoner - Soul Hackers (Disc 2) (Track 1).bin" size="618771216" crc="ad5d3006" md5="0628ba7614f97e0bfda1fc7a2238b2c7" sha1="ecce5aa8aa06d03ceed28ee72a636b13184cf6ba" />
<rom name="Devil Summoner - Soul Hackers (Disc 2) (Track 2).bin" size="6362160" crc="f55832a3" md5="e5c229e61e8c56741512dfeb5e95d950" sha1="d330f857b31f99122568544f36f657be84944d91" />

    Cuesheet:

CATALOG 0000000000000
FILE "Devil Summoner - Soul Hackers (Disc 2) (Track 1).bin" BINARY
  TRACK 01 MODE1/2352
    INDEX 01 00:00:00
FILE "Devil Summoner - Soul Hackers (Disc 2) (Track 2).bin" BINARY
  TRACK 02 AUDIO
    INDEX 00 00:00:00
    INDEX 01 00:02:00

    Write Offset: +390

Dumping Info:
    Frontend Version: 3.1.4-ccf2166b725a68810649721d7ae4f5afb3be1b62
    Dumping Program: Redumper v2024.01.08 build_311
    Date: 2024-03-30 04:53:23
    Manufacturer: PLEXTOR
    Model: CD-R PX-W4012A
    Firmware: 1.07 (03/22/06 09:00)
    Reported Disc Type: CD-ROM

Disc 1
Logs and scans: https://drive.google.com/drive/folders/ … drive_link
Matches: http://redump.org/disc/1806

Common Disc Info:
    Title: Devil Summoner: Soul Hackers
    Foreign Title (Non-latin): デビル・サマナーソウル・ハッカーズ
    Disc Number / Letter: 01
    System: Sega Saturn
    Media Type: CD-ROM
    Category: Games
    Fully Matching ID: 1806
    Partially Matching IDs: 1823
    Region: Japan
    Languages: Japanese
    Disc Serial: T-14420G

    Ringcode Information:

Data Side Mastering Code (laser branded/etched): T-14420GP-01936-P2C    V
Data Side Mastering SID Code: IFPI L231
Data Side Toolstamp or Mastering Code (engraved/stamped): 12
Data Side Mould SID Code: IFPI4011
Data Side Additional Mould: 
Label Side Mould SID Code: 

    Barcode: 4 984995 800196
    EXE/Build Date: 1997-10-15
    Error Count: 0
    Comments:

[T:ISN] T-14420G
[T:VOL] DEVIL_SUMMONER_SOUL_HACKERS

    Contents: 

Version and Editions:
    Version: 1.002
    Edition/Release: Original

Extras:
    Primary Volume Descriptor (PVD):

0320 : 20 20 20 20 20 20 20 20  20 20 20 20 20 31 39 39                199
0330 : 37 31 30 31 35 31 30 30  36 35 32 30 30 00 31 39   7101510065200.19
0340 : 39 37 31 30 31 35 31 30  30 36 35 32 30 30 00 31   97101510065200.1
0350 : 39 39 37 31 30 31 35 31  30 30 36 35 32 30 30 00   997101510065200.
0360 : 31 39 39 37 31 30 31 35  31 30 30 36 35 32 30 30   1997101510065200
0370 : 00 01 00 00 00 00 00 00  00 00 00 00 00 00 00 00   ................

    Header:

0000 : 53 45 47 41 20 53 45 47  41 53 41 54 55 52 4E 20   SEGA SEGASATURN 
0010 : 53 45 47 41 20 54 50 20  54 2D 31 34 34 20 20 20   SEGA TP T-144
0020 : 54 2D 31 34 34 32 30 47  20 20 56 31 2E 30 30 32   T-14420G  V1.002
0030 : 31 39 39 37 31 30 31 35  43 44 2D 31 2F 32 20 20   19971015CD-1/2
0040 : 4A 20 20 20 20 20 20 20  20 20 20 20 20 20 20 20   J
0050 : 4A 20 20 20 20 20 20 20  20 20 20 20 20 20 20 20   J
0060 : 44 45 56 49 4C 20 53 55  4D 4D 4F 4E 45 52 20 53   DEVIL SUMMONER S
0070 : 4F 55 4C 20 48 41 43 4B  45 52 53 20 20 20 20 20   OUL HACKERS
0080 : 20 20 20 20 20 20 20 20  20 20 20 20 20 20 20 20
0090 : 20 20 20 20 20 20 20 20  20 20 20 20 20 20 20 20
00A0 : 20 20 20 20 20 20 20 20  20 20 20 20 20 20 20 20
00B0 : 20 20 20 20 20 20 20 20  20 20 20 20 20 20 20 20
00C0 : 20 20 20 20 20 20 20 20  20 20 20 20 20 20 20 20
00D0 : 00 00 00 00 00 00 00 00  00 00 00 00 00 00 00 00   ................
00E0 : 00 00 18 00 00 00 00 00  00 00 00 00 00 00 00 00   ................
00F0 : 06 00 40 00 00 00 00 00  00 00 00 00 00 00 00 00   ..@.............

Tracks and Write Offsets:
    DAT:

<rom name="Devil Summoner - Soul Hackers (Disc 1) (Track 1).bin" size="593110896" crc="f32796b1" md5="3d18516108c408d936ae729b7a4047ca" sha1="81926fd820465f1588247377e7fadaa477913e9b" />
<rom name="Devil Summoner - Soul Hackers (Disc 1) (Track 2).bin" size="6362160" crc="f55832a3" md5="e5c229e61e8c56741512dfeb5e95d950" sha1="d330f857b31f99122568544f36f657be84944d91" />

    Cuesheet:

CATALOG 0000000000000
FILE "Devil Summoner - Soul Hackers (Disc 1) (Track 1).bin" BINARY
  TRACK 01 MODE1/2352
    INDEX 01 00:00:00
FILE "Devil Summoner - Soul Hackers (Disc 1) (Track 2).bin" BINARY
  TRACK 02 AUDIO
    INDEX 00 00:00:00
    INDEX 01 00:02:00

    Write Offset: +666

Dumping Info:
    Frontend Version: 3.1.4-ccf2166b725a68810649721d7ae4f5afb3be1b62
    Dumping Program: Redumper v2024.01.08 build_311
    Date: 2024-03-30 04:40:59
    Manufacturer: PLEXTOR
    Model: CD-R PX-W4012A
    Firmware: 1.07 (03/22/06 09:00)
    Reported Disc Type: CD-ROM

Disc 1
Logs and scans: https://drive.google.com/drive/folders/ … drive_link
Matches: http://redump.org/disc/50573/

Common Disc Info:
    Title: Metal Gear Solid: HD Collection
    Disc Number / Letter: 1
    System: Microsoft Xbox 360
    Media Type: DVD-ROM-9
    Category: Games
    Fully Matching ID: 50573
    Region: USA, Japan
    Languages: English, French, Spanish
    Disc Serial: KN-2112

    Ringcode Information:

Layer 0 (Inner) Mastering Code (laser branded/etched): 34C740C3-L0 01
Layer 0 (Inner) Mastering SID Code: IFPI LV76
Layer 0 (Inner) Toolstamp or Mastering Code (engraved/stamped): 0502
Data Side Mould SID Code: IFPI KKNV
Data Side Additional Mould: 
Layer 1 (Outer) Mastering Code (laser branded/etched): 34C740C3-L1 01
Layer 1 (Outer) Mastering SID Code: IFPI LV76
Layer 1 (Outer) Toolstamp or Mastering Code (engraved/stamped): 0106
Label Side Mould SID Code: IFPI KK7X

    Barcode: 0 83717 30132 5
    Comments:

[T:VOL] DVD_ROM, CD_ROM (ISO)
<b>XeMID</b>: KN211205K04F11
<b>DMI</b>: 3AFDB46F
<b>PFI</b>: 26AF4C58
<b>SS</b>: 18F7F503
<b>SS version</b>: 01
<b>Disc Hologram ID</b>: ASP1281
KN211205K04F11
ID above barcode: 30132-CS

    Contents:

Metal Gear
Metal Gear 2: Solid Snake
Metal Gear Solid 2: Sons of Liberty
Metal Gear Solid 3: Snake Eater

Version and Editions:
    Version: 
    Edition/Release: Original

Extras:
    Primary Volume Descriptor (PVD):

0320 : 20 20 20 20 20 20 20 20  20 20 20 20 20 32 30 31                201
0330 : 31 31 30 31 33 31 37 30  30 30 30 30 30 E4 30 30   1101317000000.00
0340 : 30 30 30 30 30 30 30 30  30 30 30 30 30 30 00 30   00000000000000.0
0350 : 30 30 30 30 30 30 30 30  30 30 30 30 30 30 30 00   000000000000000.
0360 : 30 30 30 30 30 30 30 30  30 30 30 30 30 30 30 30   0000000000000000
0370 : 00 01 00 00 00 00 00 00  00 00 00 00 00 00 00 00   ................

    Security Sector Ranges:

12544-16639
4246304-4250399

Size & Checksum:
    Size: 8738846720
    CRC32: 7bf3e348
    MD5: db3022f1bb90272f076843d72998d0a0
    SHA1: 98afea6929b2e5e0f59bd6e749d850e476176da7

Dumping Info:
    Frontend Version: 3.1.4-ccf2166b725a68810649721d7ae4f5afb3be1b62
    Dumping Program: DiscImageCreator 20230606
    Date: 2024-03-25 23:46:36
    Manufacturer: TSSTcorp
    Model: DVD-ROM SH-D162C
    Firmware: TS05
    Reported Disc Type: DVD-ROM, DVD+R DL

Disc 2
Logs and scans: https://drive.google.com/drive/folders/ … drive_link
Matches: http://redump.org/disc/50063/

Common Disc Info:
    Title: Metal Gear Solid: HD Collection
    Disc Number / Letter: 2
    System: Microsoft Xbox 360
    Media Type: DVD-ROM-9
    Category: Games
    Fully Matching ID: 50063
    Region: USA, Japan
    Languages: English, French, Spanish
    Disc Serial: KN-2108

    Ringcode Information:

Layer 0 (Inner) Mastering Code (laser branded/etched): 64B881AA-L0 01
Layer 0 (Inner) Mastering SID Code: IFPI LV76
Layer 0 (Inner) Toolstamp or Mastering Code (engraved/stamped): 0303
Data Side Mould SID Code: IFPI KK0X
Data Side Additional Mould: 
Layer 1 (Outer) Mastering Code (laser branded/etched): 64B881AA-L1 03
Layer 1 (Outer) Mastering SID Code: IFPI LV76
Layer 1 (Outer) Toolstamp or Mastering Code (engraved/stamped): 0303
Label Side Mould SID Code: IFPI KK11J

    Barcode: 0 83717 30132 5
    Comments:

[T:VOL] DVD_ROM, CD_ROM (ISO)
<b>XeMID</b>: KN210805K09F11
<b>DMI</b>: 57B5E427
<b>PFI</b>: 26AF4C58
<b>SS</b>: 1A7C6DB3
<b>SS version</b>: 01
<b>Disc Hologram ID</b>: ASP1281
KN210805K09F11
Language selection via Options Menu
ID above barcode: 30132-CS

    Contents: Metal Gear Solid: Peace Walker

Version and Editions:
    Version: 
    Edition/Release: Original

Extras:
    Primary Volume Descriptor (PVD):

0320 : 20 20 20 20 20 20 20 20  20 20 20 20 20 32 30 31                201
0330 : 31 31 30 31 33 31 37 30  30 30 30 30 30 E4 30 30   1101317000000.00
0340 : 30 30 30 30 30 30 30 30  30 30 30 30 30 30 00 30   00000000000000.0
0350 : 30 30 30 30 30 30 30 30  30 30 30 30 30 30 30 00   000000000000000.
0360 : 30 30 30 30 30 30 30 30  30 30 30 30 30 30 30 30   0000000000000000
0370 : 00 01 00 00 00 00 00 00  00 00 00 00 00 00 00 00   ................

    Security Sector Ranges:

12544-16639
4246304-4250399

Size & Checksum:
    Size: 8738846720
    CRC32: f0dbe54a
    MD5: 49c1af359ff923d45c673f094cfe2c7e
    SHA1: fae36743039d474614d3080d43a541f75fb95d63

Dumping Info:
    Frontend Version: 3.1.4-ccf2166b725a68810649721d7ae4f5afb3be1b62
    Dumping Program: DiscImageCreator 20230606
    Date: 2024-03-26 00:07:56
    Manufacturer: TSSTcorp
    Model: DVD-ROM SH-D162C
    Firmware: TS05
    Reported Disc Type: DVD-ROM, DVD+R DL

20

(0 replies, posted in Verifications)

Logs and scans: https://drive.google.com/drive/folders/ … drive_link
Matches: http://redump.org/disc/13298/

Common Disc Info:
    Title: Red Dead Redemption
    System: Microsoft Xbox 360
    Media Type: DVD-ROM-9
    Category: Games
    Fully Matching ID: 13298
    Region: World
    Languages: English
    Disc Serial: TT-2091

    Ringcode Information:

Layer 0 (Inner) Mastering Code (laser branded/etched): 2AAB34E2-L0 04
Layer 0 (Inner) Mastering SID Code: IFPI LV76
Layer 0 (Inner) Toolstamp or Mastering Code (engraved/stamped): 0710
Data Side Mould SID Code: IFPI KKFC
Data Side Additional Mould: 
Layer 1 (Outer) Mastering Code (laser branded/etched): 2AAB34E2-L1 01
Layer 1 (Outer) Mastering SID Code: IFPI LV76
Layer 1 (Outer) Toolstamp or Mastering Code (engraved/stamped): 1207
Label Side Mould SID Code: IFPI KK8K

    Barcode: 7 10425 39574 1
    Comments:

[T:VOL] DVD_ROM, CD_ROM (ISO)
<b>XeMID</b>: TT209101W0X11
<b>DMI</b>: 92D932C9
<b>PFI</b>: 05C6C409
<b>SS</b>: 13C53B4B
<b>SS version</b>: 01
<b>Disc Hologram ID</b>: ASP1281
TT209101W0X11
-
Disc ID: 39574-PH
Cover ID: 39574-3BUNDLE
Spine: RCK 39574
Box Spine: RCK 49228
Box ID: 49228-4

    Contents: 

Version and Editions:
    Version: 
    Edition/Release: Original

Extras:
    Primary Volume Descriptor (PVD):

0320 : 20 20 20 20 20 20 20 20  20 20 20 20 20 32 30 30                200
0330 : 39 31 30 32 39 31 37 30  30 30 30 30 30 E4 30 30   9102917000000.00
0340 : 30 30 30 30 30 30 30 30  30 30 30 30 30 30 00 30   00000000000000.0
0350 : 30 30 30 30 30 30 30 30  30 30 30 30 30 30 30 00   000000000000000.
0360 : 30 30 30 30 30 30 30 30  30 30 30 30 30 30 30 30   0000000000000000
0370 : 00 01 00 00 00 00 00 00  00 00 00 00 00 00 00 00   ................

    Security Sector Ranges:

108976-113071
3719856-3723951

Size & Checksum:
    Size: 7838695424
    CRC32: 11ca8be9
    MD5: 2dbabdb7be8bd034829c90a7380d6aa6
    SHA1: 7051eaf8d64701406dc896ddc35719d6c96fec94

Dumping Info:
    Frontend Version: 3.1.4-ccf2166b725a68810649721d7ae4f5afb3be1b62
    Dumping Program: DiscImageCreator 20230606
    Date: 2024-03-25 23:20:54
    Manufacturer: TSSTcorp
    Model: DVD-ROM SH-D162C
    Firmware: TS05
    Reported Disc Type: DVD-ROM, DVD+R DL

21

(0 replies, posted in Verifications)

Logs and scans: https://drive.google.com/drive/folders/ … drive_link
Matches: http://redump.org/disc/13321

Common Disc Info:
    Title: Skate 3
    System: Microsoft Xbox 360
    Media Type: DVD-ROM-9
    Category: Games
    Fully Matching ID: 13321
    Region: World
    Languages: English
    Disc Serial: EA-2278

    Ringcode Information:

Layer 0 (Inner) Mastering Code (laser branded/etched): 5C087C2C-L0 01
Layer 0 (Inner) Mastering SID Code: IFPI LV76
Layer 0 (Inner) Toolstamp or Mastering Code (engraved/stamped): 0204
Data Side Mould SID Code: IFPI KK11J
Data Side Additional Mould: 
Layer 1 (Outer) Mastering Code (laser branded/etched): 5C087C2C-L1 01
Layer 1 (Outer) Mastering SID Code: IFPI LV76
Layer 1 (Outer) Toolstamp or Mastering Code (engraved/stamped): 0105
Label Side Mould SID Code: IFPI KK3H

    Barcode: 0 14633 19293 3
    Comments:

[T:VOL] DVD_ROM, CD_ROM (ISO)
<b>XeMID</b>: EA227803W0X11
<b>DMI</b>: 1B02EEBF
<b>PFI</b>: 05C6C409
<b>SS</b>: 6B4090D9
<b>SS version</b>: 01
<b>Disc Hologram ID</b>: ASP1281
[T:EAID] Disc: 1929317, Cover: 1929321, Insert: 1929315
EA227803W0X11

    Contents: 

Version and Editions:
    Version: 
    Edition/Release: Platinum Hits

Extras:
    Primary Volume Descriptor (PVD):

0320 : 20 20 20 20 20 20 20 20  20 20 20 20 20 32 30 30                200
0330 : 39 31 30 32 39 31 37 30  30 30 30 30 30 E4 30 30   9102917000000.00
0340 : 30 30 30 30 30 30 30 30  30 30 30 30 30 30 00 30   00000000000000.0
0350 : 30 30 30 30 30 30 30 30  30 30 30 30 30 30 30 00   000000000000000.
0360 : 30 30 30 30 30 30 30 30  30 30 30 30 30 30 30 30   0000000000000000
0370 : 00 01 00 00 00 00 00 00  00 00 00 00 00 00 00 00   ................

    Security Sector Ranges:

108976-113071
3719856-3723951

Size & Checksum:
    Size: 7838695424
    CRC32: a9f64c60
    MD5: 509fcedba25955a9c8a77c9f917e78f9
    SHA1: d4f47c966902fedc221cdd847bbe1eed767919cd

Dumping Info:
    Frontend Version: 3.1.4-ccf2166b725a68810649721d7ae4f5afb3be1b62
    Dumping Program: DiscImageCreator 20230606
    Date: 2024-03-25 22:49:02
    Manufacturer: TSSTcorp
    Model: DVD-ROM SH-D162C
    Firmware: TS05
    Reported Disc Type: DVD-ROM, DVD+R DL

22

(0 replies, posted in Verifications)

Logs and scans: https://drive.google.com/drive/folders/ … drive_link
Matches: http://redump.org/disc/23450

Common Disc Info:
    Title: F1 2010
    Foreign Title (Non-latin): Formula 1 2010
    System: Microsoft Xbox 360
    Media Type: DVD-ROM-9
    Category: Games
    Fully Matching ID: 23450
    Region: World
    Languages: English
    Disc Serial: CM-2093

    Ringcode Information:

Layer 0 (Inner) Mastering Code (laser branded/etched): 6ED9D986-L0 01 +    +
Layer 0 (Inner) Mastering SID Code: IFPI LB48
Layer 0 (Inner) Toolstamp or Mastering Code (engraved/stamped): A05
Data Side Mould SID Code: IFPI 10L3
Data Side Additional Mould: 
Layer 1 (Outer) Mastering Code (laser branded/etched): 6ED9D986-L1 01 +    +
Layer 1 (Outer) Mastering SID Code: IFPI LB48
Layer 1 (Outer) Toolstamp or Mastering Code (engraved/stamped): A04
Label Side Mould SID Code: IFPI 10G7

    Barcode: 7 67649 40334 9
    Comments:

[T:VOL] DVD_ROM, CD_ROM (ISO)
<b>XeMID</b>: CM209301W0X11
<b>DMI</b>: BF4AE9D0
<b>PFI</b>: 05C6C409
<b>SS</b>: 2F909C7C
<b>SS version</b>: 01
<b>Disc Hologram ID</b>: ASP5181
CM209301W0X11
-
Cover ID: PF110X3US03
Spine: 494 03349
Disc ID: MF110X3US00

    Contents: 

Version and Editions:
    Version: 
    Edition/Release: Original

Extras:
    Primary Volume Descriptor (PVD):

0320 : 20 20 20 20 20 20 20 20  20 20 20 20 20 32 30 30                200
0330 : 39 31 30 32 39 31 37 30  30 30 30 30 30 E4 30 30   9102917000000.00
0340 : 30 30 30 30 30 30 30 30  30 30 30 30 30 30 00 30   00000000000000.0
0350 : 30 30 30 30 30 30 30 30  30 30 30 30 30 30 30 00   000000000000000.
0360 : 30 30 30 30 30 30 30 30  30 30 30 30 30 30 30 30   0000000000000000
0370 : 00 01 00 00 00 00 00 00  00 00 00 00 00 00 00 00   ................

    Security Sector Ranges:

108976-113071
3719856-3723951

Size & Checksum:
    Size: 7838695424
    CRC32: 9a026acf
    MD5: c53be9a82fad335fd5bf806b72895983
    SHA1: ef3f59f8cbcd44d11afdade4f648ed3fbdbad4d2

Dumping Info:
    Frontend Version: 3.1.4-ccf2166b725a68810649721d7ae4f5afb3be1b62
    Dumping Program: DiscImageCreator 20230606
    Date: 2024-03-27 02:04:31
    Manufacturer: TSSTcorp
    Model: DVD-ROM SH-D162C
    Firmware: TS05
    Reported Disc Type: DVD-ROM, DVD+R DL

23

(0 replies, posted in Verifications)

Logs and scans: https://drive.google.com/drive/folders/ … drive_link
Matches: http://redump.org/disc/9680/

Common Disc Info:
    Title: Sega Rally Revo
    Foreign Title (Non-latin): Sega Rally
    Disc Number / Letter: 
    Disc Title: 
    System: Microsoft Xbox 360
    Media Type: DVD-ROM-9
    Category: Games
    Fully Matching ID: 9680
    Region: World
    Languages: English, French, German, Italian, Spanish
    Disc Serial: SE-2022

    Ringcode Information:

Layer 0 (Inner) Mastering Code (laser branded/etched): 70E7E7E3-L0    02 +    +
Layer 0 (Inner) Mastering SID Code: IFPI LB48
Layer 0 (Inner) Toolstamp or Mastering Code (engraved/stamped): A02
Data Side Mould SID Code: IFPI I0H9
Data Side Additional Mould: 
Layer 1 (Outer) Mastering Code (laser branded/etched): 70E7E7E3-L1    02 +    +
Layer 1 (Outer) Mastering SID Code: IFPI LB48
Layer 1 (Outer) Toolstamp or Mastering Code (engraved/stamped): A04
Label Side Mould SID Code: IFPI I0J0

    Barcode: 0 10086 68018 8
    Comments:

<b>XeMID</b>: SE202201W0X11
<b>DMI</b>: E5406EA5
<b>PFI</b>: A4CFB59C
<b>SS</b>: 47800981
<b>SS version</b>: 01
SE202201W0X11

    Contents: 

Version and Editions:
    Version: 
    Edition/Release: Original

Extras:
    Primary Volume Descriptor (PVD):

0320 : 20 20 20 20 20 20 20 20  20 20 20 20 20 32 30 30                200
0330 : 36 30 33 30 36 32 31 30  39 30 37 30 30 E0 30 30   6030621090700.00
0340 : 30 30 30 30 30 30 30 30  30 30 30 30 30 30 00 30   00000000000000.0
0350 : 30 30 30 30 30 30 30 30  30 30 30 30 30 30 30 00   000000000000000.
0360 : 30 30 30 30 30 30 30 30  30 30 30 30 30 30 30 30   0000000000000000
0370 : 00 01 00 00 00 00 00 00  00 00 00 00 00 00 00 00   ................

    Security Sector Ranges:

108976-113071
3719856-3723951

Size & Checksum:
    Size: 7835492352
    CRC32: 08a3d390
    MD5: c81cae51ec5ac8fd2460d8e56e8c9222
    SHA1: 3b134964f5c9e6e276b81fb4b8935164ca5be1d5

Dumping Info:
    Frontend Version: 3.1.4-ccf2166b725a68810649721d7ae4f5afb3be1b62
    Dumping Program: DiscImageCreator 20230606
    Date: 2024-03-25 00:59:58
    Manufacturer: TSSTcorp
    Model: DVD-ROM SH-D162C
    Firmware: TS05
    Reported Disc Type: DVD-ROM, DVD+R DL

Logs and scans: https://drive.google.com/drive/folders/ … drive_link
Matches: http://redump.org/disc/2818/

Common Disc Info:
    Title: Gran Turismo 2
    Disc Title: Simulation Mode
    System: Sony PlayStation
    Media Type: CD-ROM
    Category: Games
    Fully Matching ID: 2818
    Region: USA
    Languages: English
    Disc Serial: SCUS-94488

    Ringcode Information:

Data Side Mastering Code (laser branded/etched): PSRM-013780    G4 1A 15
Data Side Mastering SID Code: IFPI L424    
Data Side Toolstamp or Mastering Code (engraved/stamped): 
Data Side Mould SID Code: IFPI 7296
Data Side Additional Mould: 
Label Side Mould SID Code: 

    Barcode: 7 11719 44552 4
    EXE/Build Date: 1999-10-12
    Error Count: 0
    Comments:

[T:ISN] SCUS-94488
[T:VOL] GRANTURISMO2

    Contents: 

Version and Editions:
    Version: Rev 2
    Edition/Release: Greatest Hits

EDC:
    EDC: Yes

Extras:
    Primary Volume Descriptor (PVD):

0320 : 20 20 20 20 20 20 20 20  20 20 20 20 20 31 39 39                199
0330 : 39 31 32 31 30 30 30 30  30 30 30 30 30 00 30 30   9121000000000.00
0340 : 30 30 30 30 30 30 30 30  30 30 30 30 30 30 00 30   00000000000000.0
0350 : 30 30 30 30 30 30 30 30  30 30 30 30 30 30 30 00   000000000000000.
0360 : 30 30 30 30 30 30 30 30  30 30 30 30 30 30 30 30   0000000000000000
0370 : 00 01 00 00 00 00 00 00  00 00 00 00 00 00 00 00   ................

Copy Protection:
    Anti-modchip: No
    LibCrypt: No
    SubIntention Data (SecuROM/LibCrypt): 

Tracks and Write Offsets:
    DAT:

<rom name="Gran Turismo 2 - Simulation Mode.bin" size="691850208" crc="a0c88c87" md5="e697a485b661a12fa6c327186c336a31" sha1="c4813703d2ad440ed36670c1ac2c1a66c9dc673d" />

    Cuesheet:

FILE "Gran Turismo 2 - Simulation Mode.bin" BINARY
  TRACK 01 MODE2/2352
    INDEX 01 00:00:00

    Write Offset: -647

Dumping Info:
    Frontend Version: 3.1.4-ccf2166b725a68810649721d7ae4f5afb3be1b62
    Dumping Program: Redumper v2024.01.08 build_311
    Date: 2024-03-23 00:28:36
    Manufacturer: PLEXTOR
    Model: CD-R PX-W4012A
    Firmware: 1.07 (03/22/06 09:00)
    Reported Disc Type: CD-ROM

Logs and scans: https://drive.google.com/drive/folders/ … drive_link
Matches: http://redump.org/disc/2615/

Common Disc Info:
    Title: Gran Turismo 2
    Disc Title: Arcade Mode
    System: Sony PlayStation
    Media Type: CD-ROM
    Category: Games
    Fully Matching ID: 2615
    Region: USA
    Languages: English
    Disc Serial: SCUS-94455

    Ringcode Information:

Data Side Mastering Code (laser branded/etched): PSRM-013750    H4 1A 13
Data Side Mastering SID Code: IFPI L424
Data Side Toolstamp or Mastering Code (engraved/stamped): 
Data Side Mould SID Code: IFPI 72017
Data Side Additional Mould: 
Label Side Mould SID Code: 

    Barcode: 7 11719 44552 4
    EXE/Build Date: 1999-10-12
    Error Count: 0
    Comments:

[T:ISN] SCUS-94455
[T:VOL] GRANTURISMO2
This disc remains unchanged after the second release of the game.

    Contents: 

Version and Editions:
    Version: Rev 1
    Edition/Release: Greatest Hits

EDC:
    EDC: Yes

Extras:
    Primary Volume Descriptor (PVD):

0320 : 20 20 20 20 20 20 20 20  20 20 20 20 20 31 39 39                199
0330 : 39 31 32 31 30 30 30 30  30 30 30 30 30 00 30 30   9121000000000.00
0340 : 30 30 30 30 30 30 30 30  30 30 30 30 30 30 00 30   00000000000000.0
0350 : 30 30 30 30 30 30 30 30  30 30 30 30 30 30 30 00   000000000000000.
0360 : 30 30 30 30 30 30 30 30  30 30 30 30 30 30 30 30   0000000000000000
0370 : 00 01 00 00 00 00 00 00  00 00 00 00 00 00 00 00   ................

Copy Protection:
    Anti-modchip: No
    LibCrypt: No
    SubIntention Data (SecuROM/LibCrypt): 

Tracks and Write Offsets:
    DAT:

<rom name="Gran Turismo 2 - Arcade Mode.bin" size="729606864" crc="b444f497" md5="79befcdb7e725daff04bce3c4aafb321" sha1="68f226780ef551b746e1a0964541570ec04c8060" />

    Cuesheet:

FILE "Gran Turismo 2 - Arcade Mode.bin" BINARY
  TRACK 01 MODE2/2352
    INDEX 01 00:00:00

    Write Offset: -647

Dumping Info:
    Frontend Version: 3.1.4-ccf2166b725a68810649721d7ae4f5afb3be1b62
    Dumping Program: Redumper v2024.01.08 build_311
    Date: 2024-03-23 00:13:44
    Manufacturer: PLEXTOR
    Model: CD-R PX-W4012A
    Firmware: 1.07 (03/22/06 09:00)
    Reported Disc Type: CD-ROM