1

(0 replies, posted in Verifications)

Common Disc Info:
    Title: BioShock
    Disc Number / Letter: 
    Disc Title: 
    System: DVD-Video
    Media Type: DVD-ROM-9
    Category: Games
    Fully Matching ID: 30540
    Region: Australia
    Languages:
    Disc Serial: 5051743/DVD

    Ringcode Information:

Layer 0 (Inner) Mastering Code (laser branded/etched): Sony DADC    A0100845262-B911    56
Layer 0 (Inner) Mastering SID Code: IFPI L556
Layer 0 (Inner) Toolstamp or Mastering Code (engraved/stamped): A02
Data Side Mould SID Code: IFPI 946W
Data Side Additional Mould: 
Layer 1 (Outer) Mastering Code (laser branded/etched): Sony DADC    5051743DVDL0    87
Layer 1 (Outer) Mastering SID Code: IFPI L557
Layer 1 (Outer) Toolstamp or Mastering Code (engraved/stamped): A1
Label Side Mould SID Code: 

    Barcode: 5 026555 053099
    Comments:

[T:VOL] BIOSHOCK
(OPTIONAL)

    Contents: (OPTIONAL)

Version and Editions:
    Version: 
    Edition/Release: 

Extras:
    Primary Volume Descriptor (PVD): Disc has no PVD

Copy Protection:
    Copy Protection:

Region: 1 2 3 4 5 6 7 8
Copyright Protection System Type: No

Size & Checksum:
    Layerbreak: 1582384
    Size: 6481444864
    CRC32: 74c2e111
    MD5: 553d121090c780c3b9f165d50493fa47
    SHA1: d9caf859c98e3d129beb27b3998a9ac5cf6d70e5

Dumping Info:
    Dumping Program: Redumper v2024.01.08 build_311
    Date: 2024-03-03 01:39:27
    Manufacturer: SONY
    Model: DVD RW DRU-830A
    Firmware: SS20 (Sep02 ,2006)
    Reported Disc Type: DVD-ROM

https://www.mediafire.com/file/lej0qa6r … s.zip/file
http://redump.org/disc/30540/

Common Disc Info:
    Title: Medal of Honor: Pacific Assault
    Disc Number / Letter: 
    Disc Title: 
    System: IBM PC compatible
    Media Type: DVD-ROM-5
    Category: Games
    Fully Matching ID: 68217
    Region: Australia
    Languages:
    Disc Serial: DWJ07705446D

    Ringcode Information:

Data Side Mastering Code (laser branded/etched): arvato digital services BERTELSMANN    www.arvatodigitalservices.com.au        DWJ07705446D    21/10/2008 - ADSAU8642
Data Side Mastering SID Code: IFPI LY
Data Side Toolstamp or Mastering Code (engraved/stamped): 
Data Side Mould SID Code: IFPI 5V10
Data Side Additional Mould: 
Label Side Mould SID Code: IFPI 5V11

    Barcode: 5 030941 054362
    Comments:

[T:VOL] MOHPA
Could not make out last 2 digits of Mastering SID even with Loupe

    Contents: (OPTIONAL)

Version and Editions:
    Version: 
    Edition/Release: EA Value Games

Extras:
    Primary Volume Descriptor (PVD):

0320 : 20 20 20 20 20 20 20 20  20 20 20 20 20 32 30 30                200
0330 : 35 30 31 31 39 31 31 34  34 31 34 30 30 00 32 30   5011911441400.20
0340 : 30 35 30 31 31 39 31 31  34 34 31 34 30 30 00 31   05011911441400.1
0350 : 39 38 31 30 31 31 39 31  31 34 34 31 34 30 30 00   981011911441400.
0360 : 32 30 30 35 30 31 31 39  31 31 34 34 31 34 30 30   2005011911441400
0370 : 00 01 00 00 00 00 00 00  00 00 00 00 00 00 00 00   ................

Copy Protection:
    Copy Protection: EA CdKey Registration Module 1.4.1.000, EA CdKey Registration Module 1.4.3.000, SafeDisc 3+ (DVD)
    SubIntention Data (SecuROM/LibCrypt): 

Size & Checksum:
    Size: 3500802048
    CRC32: 013732d1
    MD5: fe5eee7ad733962303d28c7bd5a34589
    SHA1: a50214f6673ce521cf3571b6cea4e645037080d7

Dumping Info:
    Dumping Program: Redumper v2024.01.08 build_311
    Date: 2024-03-02 01:42:58
    Manufacturer: SONY
    Model: DVD RW DRU-830A
    Firmware: SS20 (Sep02 ,2006)
    Reported Disc Type: DVD-ROM

http://redump.org/disc/68217/
https://www.mediafire.com/file/r1ujf2tq … s.zip/file

3

(0 replies, posted in Verifications)

Common Disc Info:
    Title: TMNT
    Foreign Title (Non-latin): TMNT: Teenage Mutant Ninja Turtles
    Disc Number / Letter: 
    Disc Title: 
    System: Sony PlayStation 2
    Media Type: DVD-ROM-5
    Category: Games
    Fully Matching ID: 7380
    Region: Europe
    Languages: 
    Language Selection Via: Bios settings, Language selector, Options menu
    Disc Serial: SLES-54478

    Ringcode Information:

Data Side Mastering Code (laser branded/etched): Sony DADC    A0100781497-A511    17
Data Side Mastering SID Code: IFPI L557
Data Side Toolstamp or Mastering Code (engraved/stamped): A6
Data Side Mould SID Code: IFPI 946V
Data Side Additional Mould: 
Label Side Mould SID Code: 

    Barcode: 3 307210 234025
    EXE/Build Date: 2007-01-21
    Comments:

[T:ISN] SLES-54478
[T:VOL] TMNT
(OPTIONAL)

    Contents: (OPTIONAL)

Version and Editions:
    Version: 1.00
    Edition/Release: 

Extras:
    Primary Volume Descriptor (PVD):

0320 : 20 20 20 20 20 20 20 20  20 20 20 20 20 32 30 30                200
0330 : 37 30 31 32 32 30 39 35  37 35 37 30 30 24 30 30   7012209575700$00
0340 : 30 30 30 30 30 30 30 30  30 30 30 30 30 30 00 30   00000000000000.0
0350 : 30 30 30 30 30 30 30 30  30 30 30 30 30 30 30 00   000000000000000.
0360 : 30 30 30 30 30 30 30 30  30 30 30 30 30 30 30 30   0000000000000000
0370 : 00 01 00 00 00 00 00 00  00 00 00 00 00 00 00 00   ................

Size & Checksum:
    Size: 4677795840
    CRC32: 82e10aac
    MD5: 29ca2f6175c776409e4ac794779174ba
    SHA1: 9c4e2f7ea5687c9959a180ff2399f19c2f059eac

Dumping Info:
    Dumping Program: Redumper v2024.01.08 build_311
    Date: 2024-03-02 01:02:44
    Manufacturer: SONY
    Model: DVD RW DRU-830A
    Firmware: SS20 (Sep02 ,2006)
    Reported Disc Type: DVD-ROM

https://www.mediafire.com/file/0wtoadu4 … s.zip/file
http://redump.org/disc/7380/

Common Disc Info:
    Title: Sims 2:, ThePets
    Disc Number / Letter: (OPTIONAL)
    Disc Title: Expansion Pack
    System: IBM PC compatible
    Media Type: DVD-ROM-5
    Category: Add-Ons
    Fully Matching ID: 48349
    Region: Australia
    Languages: 
    Disc Serial: MXJ07705412D

    Ringcode Information:

Data Side Mastering Code (laser branded/etched): sonopress arvato www.sonopress.com.au  MXX07705412DNA  030807-160527
Data Side Mastering SID Code: IFPI LP71
Data Side Toolstamp or Mastering Code (engraved/stamped): (REQUIRED, IF EXISTS)
Data Side Mould SID Code: IFPI 5V08
Data Side Additional Mould: (REQUIRED, IF EXISTS)
Label Side Mould SID Code: IFPI 5V09

    Barcode: 0 014633 152630
    Comments:

[T:VOL] Sims2_EP4_1
(OPTIONAL)

    Contents: (OPTIONAL)

Version and Editions:
    Version: 
    Edition/Release: 

Extras:
    Primary Volume Descriptor (PVD):

0320 : 20 20 20 20 20 20 20 20  20 20 20 20 20 32 30 30                200
0330 : 36 30 39 30 39 30 38 30  37 30 36 30 30 E4 32 30   6090908070600.20
0340 : 30 36 30 39 30 39 30 38  30 37 30 36 30 30 E4 31   06090908070600.1
0350 : 39 38 32 30 39 30 39 30  38 30 37 30 36 30 30 E4   982090908070600.
0360 : 32 30 30 36 30 39 30 39  30 38 30 37 30 36 30 30   2006090908070600
0370 : E4 01 00 00 00 00 00 00  00 00 00 00 00 00 00 00   ................

Copy Protection:
    Copy Protection: EA CdKey Registration Module 1.05.02.01, SafeDisc 3+ (DVD)
    SubIntention Data (SecuROM/LibCrypt): 

Size & Checksum:
    Size: 719683584
    CRC32: bdae36cf
    MD5: 4d593064ba4ba836b5cb42a6bb20d6d9
    SHA1: 3b9e18721a4b194d92b23ac3703569874594a36c

Dumping Info:
    Dumping Program: Redumper v2024.01.08 build_311
    Date: 2024-02-28 22:57:50
    Manufacturer: SONY
    Model: DVD RW DRU-830A
    Firmware: SS20 (Sep02 ,2006)
    Reported Disc Type: DVD-ROM

https://www.mediafire.com/file/kynwbue6 … s.zip/file
http://redump.org/disc/48349/

Common Disc Info:
    Title: Farming Simulator 2011: Platinum Edition
    Disc Number / Letter: (OPTIONAL)
    Disc Title: (OPTIONAL)
    System: IBM PC compatible
    Media Type: DVD-ROM-5
    Category: Games
    Fully Matching ID: 87050
    Region: Europe
    Languages: 
    Disc Serial: (REQUIRED, IF EXISTS)

    Ringcode Information:

Data Side Mastering Code (laser branded/etched): Farming Sim 2011 Platinum
Data Side Mastering SID Code: (REQUIRED, IF EXISTS)
Data Side Toolstamp or Mastering Code (engraved/stamped): (REQUIRED, IF EXISTS)
Data Side Mould SID Code: 
Data Side Additional Mould: (REQUIRED, IF EXISTS)
Label Side Mould SID Code: IFPI AAZ77

    Barcode: (OPTIONAL)
    Comments:

[T:VOL] EXCPLT10
(OPTIONAL)

    Contents: (OPTIONAL)

Version and Editions:
    Version: 
    Edition/Release: 

Extras:
    Primary Volume Descriptor (PVD):

0320 : 20 20 20 20 20 20 20 20  20 20 20 20 20 32 30 31                201
0330 : 31 30 39 32 31 31 30 31  38 30 30 30 00 04 32 30   109211018000..20
0340 : 31 31 30 39 32 31 31 30  31 38 30 30 30 00 04 30   1109211018000..0
0350 : 30 30 30 30 30 30 30 30  30 30 30 30 30 30 30 00   000000000000000.
0360 : 30 30 30 30 30 30 30 30  30 30 30 30 30 30 30 30   0000000000000000
0370 : 00 01 00 00 00 00 00 00  00 00 00 00 00 00 00 00   ................

Copy Protection:
    Copy Protection: None found [OMIT FROM SUBMISSION]
    SubIntention Data (SecuROM/LibCrypt): 

Size & Checksum:
    Size: 1024917504
    CRC32: e62df755
    MD5: 07f46bbee67834e8a465e96aa7f6d28d
    SHA1: 2e41014894d984ba8c2140484a918c18e6fe2329

Dumping Info:
    Dumping Program: Redumper v2024.01.08 build_311
    Date: 2024-02-28 22:37:45
    Manufacturer: SONY
    Model: DVD RW DRU-830A
    Firmware: SS20 (Sep02 ,2006)
    Reported Disc Type: DVD-ROM

https://www.mediafire.com/file/zszz78xj … s.zip/file
http://redump.org/disc/87050/

6

(0 replies, posted in Verifications)

Common Disc Info:
    Title: Spider-Man
    Disc Number / Letter: Disc 2
    Disc Title: Bonus Disc
    System: DVD-Video
    Media Type: DVD-ROM-9
    Category: Bonus Discs
    Fully Matching ID: 107186
    Region: Australia
    Languages: 
    Disc Serial: D32161

    Ringcode Information:

Layer 0 (Inner) Mastering Code (laser branded/etched): Sony DADC        A0100428846-B911    17
Layer 0 (Inner) Mastering SID Code: IFPI L557
Layer 0 (Inner) Toolstamp or Mastering Code (engraved/stamped): D00
Data Side Mould SID Code: IFPI 6Z20
Data Side Additional Mould: (REQUIRED, IF EXISTS)
Layer 1 (Outer) Mastering Code (laser branded/etched): Sony DADC        A0100428846-A911    17
Layer 1 (Outer) Mastering SID Code: IFPI L557
Layer 1 (Outer) Toolstamp or Mastering Code (engraved/stamped): D00
Label Side Mould SID Code: (REQUIRED, IF EXISTS)

    Barcode: 9 317731 010552
    Comments:

[T:VOL] SPIDERMAN
(OPTIONAL)

    Contents: Spiderman PC demo

Version and Editions:
    Version: (REQUIRED, IF EXISTS)
    Edition/Release: Collector's Edition

Extras:
    Primary Volume Descriptor (PVD):

0320 : 20 20 20 20 20 20 20 20  20 20 20 20 20 32 30 30                200
0330 : 32 30 38 33 31 31 37 31  31 31 35 30 30 E0 30 30   2083117111500.00
0340 : 30 30 30 30 30 30 30 30  30 30 30 30 30 30 00 30   00000000000000.0
0350 : 30 30 30 30 30 30 30 30  30 30 30 30 30 30 30 00   000000000000000.
0360 : 30 30 30 30 30 30 30 30  30 30 30 30 30 30 30 30   0000000000000000
0370 : 00 01 00 00 00 00 00 00  00 00 00 00 00 00 00 00   ................

Copy Protection:
    Copy Protection:

Region: 2 4 5
Copyright Protection System Type: CSS/CPPM
VIDEO_TS.VOB Title Key: D0 1C CD 78 51
VTS_01_0.VOB Title Key: D0 1C CD 78 51
VTS_01_1.VOB Title Key: D0 1C CD 78 51
VTS_02_0.VOB Title Key: D0 1C CD 78 51
VTS_02_1.VOB Title Key: D0 1C CD 78 51
VTS_03_0.VOB Title Key: D0 1C CD 78 51
VTS_03_1.VOB Title Key: D0 1C CD 78 51
VTS_04_0.VOB Title Key: D0 1C CD 78 51
VTS_04_1.VOB Title Key: D0 1C CD 78 51
VTS_04_2.VOB Title Key: D0 1C CD 78 51
VTS_05_0.VOB Title Key: D0 1C CD 78 51
VTS_05_1.VOB Title Key: D0 1C CD 78 51
VTS_06_0.VOB Title Key: D0 1C CD 78 51
VTS_06_1.VOB Title Key: D0 1C CD 78 51
VTS_07_0.VOB Title Key: D0 1C CD 78 51
VTS_07_1.VOB Title Key: D0 1C CD 78 51
VTS_08_0.VOB Title Key: D0 1C CD 78 51
VTS_08_1.VOB Title Key: D0 1C CD 78 51
VTS_09_0.VOB Title Key: D0 1C CD 78 51
VTS_09_1.VOB Title Key: D0 1C CD 78 51
VTS_10_0.VOB Title Key: D0 1C CD 78 51
VTS_10_1.VOB Title Key: D0 1C CD 78 51
VTS_11_0.VOB Title Key: D0 1C CD 78 51
VTS_11_1.VOB Title Key: D0 1C CD 78 51
VTS_12_0.VOB Title Key: D0 1C CD 78 51
VTS_12_1.VOB Title Key: D0 1C CD 78 51
VTS_13_0.VOB Title Key: D0 1C CD 78 51
VTS_13_1.VOB Title Key: D0 1C CD 78 51
VTS_14_0.VOB Title Key: D0 1C CD 78 51
VTS_14_1.VOB Title Key: D0 1C CD 78 51
VTS_15_0.VOB Title Key: D0 1C CD 78 51
VTS_15_1.VOB Title Key: D0 1C CD 78 51
Decrypted Disc Key: 26 CF B5 E4 6E

Size & Checksum:
    Layerbreak: 1739616
    Size: 7564558336
    CRC32: cd6f5f6e
    MD5: 67c8a7400d85ee10d82d638de2db894e
    SHA1: e1bd994407e5715acd0600b96f6dc6a0e805cc8e

Dumping Info:
    Dumping Program: Redumper v2024.01.10 build_313
    Date: 2024-01-13 02:47:11
    Manufacturer: TSSTcorp
    Model: CDDVDW TS-L633F
    Firmware: TF01 (0311 .......)
    Reported Disc Type: DVD-ROM

http://redump.org/disc/107186/
https://www.mediafire.com/file/dtilq9u8 … s.zip/file
If Logs expire they can be found on the wayback machine

Disc came inside wrong case so unsure of version or edition

Common Disc Info:
    Title: Sid Meier's Civilization V: Brave New World
    Foreign Title (Non-latin): 
    Disc Number / Letter: (OPTIONAL)
    Disc Title: (OPTIONAL)
    System: IBM PC compatible
    Media Type: DVD-ROM-5
    Category: Add-Ons
    Fully Matching ID: 84878
    Region: Australia
    Languages: 
    Disc Serial: 5061834/DVD

    Ringcode Information:

Data Side Mastering Code (laser branded/etched): A0101010503-A511    13
Data Side Mastering SID Code: IFPI LV88
Data Side Toolstamp or Mastering Code (engraved/stamped): (REQUIRED, IF EXISTS)
Data Side Mould SID Code: IFPI 6532
Data Side Additional Mould: (REQUIRED, IF EXISTS)
Label Side Mould SID Code: (REQUIRED, IF EXISTS)

    Barcode: (OPTIONAL)
    Comments:

[T:VOL] Civilization V Brave New World
(OPTIONAL)

    Contents: (OPTIONAL)

Version and Editions:
    Version: 
    Edition/Release: 

Extras:
    Primary Volume Descriptor (PVD):

0320 : 20 20 20 20 20 20 20 20  20 20 20 20 20 32 30 31                201
0330 : 33 30 35 32 39 31 31 33  31 35 37 30 30 F0 32 30   3052911315700.20
0340 : 31 33 30 35 32 39 31 31  33 31 35 37 30 30 F0 30   13052911315700.0
0350 : 30 30 30 30 30 30 30 30  30 30 30 30 30 30 30 00   000000000000000.
0360 : 30 30 30 30 30 30 30 30  30 30 30 30 30 30 30 30   0000000000000000
0370 : 00 01 00 49 6D 67 42 75  72 6E 20 76 32 2E 35 2E   ...ImgBurn v2.5.

Copy Protection:
    Copy Protection:

Region: 1 2 3 4 5 6 7 8
Copyright Protection System Type: No
Steam

    SubIntention Data (SecuROM/LibCrypt): 

Size & Checksum:
    Size: 1240137728
    CRC32: 321cbdc5
    MD5: f2982c30ddcffd494849793ec96ccdbc
    SHA1: d6e8d8b3b78377ec1b625c89c3ee9f1b9e26dd98

Dumping Info:
    Dumping Program: Redumper v2024.01.10 build_313
    Date: 2024-01-11 00:28:07
    Manufacturer: TSSTcorp
    Model: CDDVDW TS-L633F
    Firmware: TF01 (0311 .......)
    Reported Disc Type: DVD-ROM

http://redump.org/disc/84878/
https://www.mediafire.com/file/uaxuufon … s.zip/file
https://www.mediafire.com/file/yagewis1 … .hash/file
https://www.mediafire.com/file/swfgxe9i … leton/file

9

(0 replies, posted in Verifications)

Common Disc Info:
    Title: Warzone 2100
    Disc Number / Letter: 1
    Disc Title: (OPTIONAL)
    System: IBM PC compatible
    Media Type: CD-ROM
    Category: Games
    Fully Matching ID: 106255
    Region: USA
    Languages:
    Disc Serial: (REQUIRED, IF EXISTS)

    Ringcode Information:

Data Side Mastering Code (laser branded/etched): AD/CA VDMS/CA * 378838-1 34811 1 7 <8122>
Data Side Mastering SID Code: IFPI L871    
Data Side Toolstamp or Mastering Code (engraved/stamped): (REQUIRED, IF EXISTS)
Data Side Mould SID Code: ifpi 4Q02    
Data Side Additional Mould: VDms/CA
Label Side Mould SID Code: (REQUIRED, IF EXISTS)

    Barcode: (OPTIONAL)
    Error Count: 0
    Comments:

[T:VOL] WZ2100
(OPTIONAL)

    Contents: (OPTIONAL)

Version and Editions:
    Version: (REQUIRED, IF EXISTS)
    Edition/Release: (VERIFY THIS) Original

Extras:
    Primary Volume Descriptor (PVD):

0320 : 20 20 20 20 20 20 20 20  20 20 20 20 20 31 39 39                199
0330 : 39 30 33 31 33 30 30 35  32 35 35 30 30 00 31 39   9031300525500.19
0340 : 39 39 30 33 31 33 30 30  35 32 35 35 30 30 00 30   99031300525500.0
0350 : 30 30 30 30 30 30 30 30  30 30 30 30 30 30 30 00   000000000000000.
0360 : 30 30 30 30 30 30 30 30  30 30 30 30 30 30 30 30   0000000000000000
0370 : 00 01 00 00 00 00 00 00  00 00 00 00 00 00 00 00   ................

Copy Protection:
    Copy Protection: None found [OMIT FROM SUBMISSION]
    SubIntention Data (SecuROM/LibCrypt): 

Tracks and Write Offsets:
    DAT:

<rom name="WZ2100 (Track 1).bin" size="514071936" crc="9eec4e83" md5="60777694d976a1c6584941b574416656" sha1="80a10222695a48c700af9ff0853611636cd6648e" />
<rom name="WZ2100 (Track 2).bin" size="74565456" crc="4d26f732" md5="638ebe5fdf7318447072570a2b31b72d" sha1="68cfda77dd308bbd48b806dcfa51f0257e04e6b5" />
<rom name="WZ2100 (Track 3).bin" size="31752000" crc="1e26a75b" md5="2729ba29249111edd661434397bf821f" sha1="4d53e3abc0c7d4cb62660a9fc903af12b664d5e8" />

    Cuesheet:

FILE "WZ2100 (Track 1).bin" BINARY
  TRACK 01 MODE1/2352
    INDEX 01 00:00:00
FILE "WZ2100 (Track 2).bin" BINARY
  TRACK 02 AUDIO
    INDEX 00 00:00:00
    INDEX 01 00:02:00
FILE "WZ2100 (Track 3).bin" BINARY
  TRACK 03 AUDIO
    INDEX 01 00:00:00

    Write Offset: 0

Dumping Info:
    Dumping Program: Redumper v2023.11.30 build_271
    Date: 2023-12-11 01:59:14
    Manufacturer: PLEXTOR
    Model: DVDR PX-716AL
    Firmware: 1.02 (12/01/05 10:00)
    Reported Disc Type: CD-ROM

https://www.mediafire.com/file/eynr0q7h … s.zip/file
http://redump.org/disc/106255/

Common Disc Info:
    Title: Killer Cuts
    Disc Number / Letter: (OPTIONAL)
    Disc Title: (OPTIONAL)
    System: Audio CD
    Media Type: CD-ROM
    Category: Bonus Discs
    Fully Matching ID: 22367
    Partially Matching IDs: 28738, 28739, 32194, 40353, 42753, 51126, 51127, 61738, 61739, 64000, 64771, 71270, 89944, 90111, 100927, 101348, 109125
    Region: USA
    Languages: 
    Disc Serial:

    Ringcode Information:

Data Side Mastering Code (laser branded/etched): 1948-1-1   HMG   *KILLER CUTS*    
Data Side Mastering SID Code: IFPI L451
Data Side Toolstamp or Mastering Code (engraved/stamped): (REQUIRED, IF EXISTS)
Data Side Mould SID Code: (REQUIRED, IF EXISTS)
Data Side Additional Mould: (REQUIRED, IF EXISTS)
Label Side Mould SID Code: (REQUIRED, IF EXISTS)

    Barcode: (OPTIONAL)
    Error Count: 0
    Comments:

<b>Universal Hash (SHA-1)</b>: 6685814cc41038c359b653deaa305edfbf555dd4
<b>Ring non-zero data start</b>: +17952
(OPTIONAL)

    Contents: (OPTIONAL)

Version and Editions:
    Version: (REQUIRED, IF EXISTS)
    Edition/Release: (VERIFY THIS) Original

Extras:
    Primary Volume Descriptor (PVD): Disc has no PVD

Tracks and Write Offsets:
    DAT:

<rom name="Audio CD (Track 01).bin" size="39788784" crc="b8696622" md5="c568bc4fd6d6e7d0e0f2b77b98869aa9" sha1="5d268fdef0a9e5bffb1d49477a165e5e9941dc78" />
<rom name="Audio CD (Track 02).bin" size="42100800" crc="d635ba47" md5="a3582a78c46872b96e4288b3cdc195b0" sha1="9096bbb57aa51e792116c7b5da8be066b476cb5d" />
<rom name="Audio CD (Track 03).bin" size="41700960" crc="aed99bc5" md5="a61bf1c69e41cffcb6a4902eda2006aa" sha1="464e6ab327eb26ea7e416c108032c0c912a0d98b" />
<rom name="Audio CD (Track 04).bin" size="35832720" crc="4f06e713" md5="c26ff428f3007189789ec5f20403a76d" sha1="07d2bea0c2eeabd98d9bd4f3c9f28c6d6f42c855" />
<rom name="Audio CD (Track 05).bin" size="32570496" crc="959fef03" md5="7a4b0372ab201e247d0e20ffecd1057b" sha1="9933418f3f6d8a2775a1550a742ff69a071af0f7" />
<rom name="Audio CD (Track 06).bin" size="41559840" crc="f71345db" md5="dcf3e7a1431546de3ea5bdd32da8d072" sha1="383e9419999e40917f75c311cc55c853f9dc610b" />
<rom name="Audio CD (Track 07).bin" size="34574400" crc="ea1808b6" md5="72fea6615672e4ea932806a0f7944c6d" sha1="caca27f5755f2d8cca4b691e3746032ac63d2790" />
<rom name="Audio CD (Track 08).bin" size="51807504" crc="b58ff6e8" md5="4a8814072f8c580c60a13950b3cd9b09" sha1="b9ffca96b7a082fd09acca0110b898a08c95147e" />
<rom name="Audio CD (Track 09).bin" size="16988496" crc="1552caca" md5="dd78854e7d00c80a8446e1cdb24bbf3e" sha1="d76cfa9dc2a12475563088e7472432c95e1983ad" />
<rom name="Audio CD (Track 10).bin" size="23136624" crc="e7edb860" md5="3d8661b188878b2df5cbc58a809cbb9b" sha1="387f4b807bdf7371273a63f8acc4f6a87cfb6257" />
<rom name="Audio CD (Track 11).bin" size="19552176" crc="0b676720" md5="04bee63b11735867e3cd87ae8dc1b7ff" sha1="604a6ccdea93205c204365e7c0b0f3f72b4b8cc1" />
<rom name="Audio CD (Track 12).bin" size="33391344" crc="d058c131" md5="4e3aa223e426c916d1b5f408bcfa8f5e" sha1="718445c2e0bdcc61931de3c8e6736eb8d6cc9cbb" />
<rom name="Audio CD (Track 13).bin" size="31923696" crc="e5bb69aa" md5="8b5e2496c3adbef70f1a961c43b68986" sha1="18e82b37898b1cafef05b428010ed58ddebba511" />
<rom name="Audio CD (Track 14).bin" size="23178960" crc="d979dd2f" md5="844f59a46a9fbd06d0587057204fedc3" sha1="a39144083620c8fd76a9b4706bfcebdb4f22e0d4" />
<rom name="Audio CD (Track 15).bin" size="27048000" crc="60466105" md5="0232e03016a53e4e84085fa545b582aa" sha1="b152d12ac08c145fdc20f01d6e14fcf42c71262d" />
<rom name="Audio CD (Track 16).bin" size="705600" crc="02864c0e" md5="1234dd57f3af7775d57493b54d59bceb" sha1="aa64beff052e53741bba9c2f10aa781d05c96e38" />
<rom name="Audio CD (Track 17).bin" size="705600" crc="02864c0e" md5="1234dd57f3af7775d57493b54d59bceb" sha1="aa64beff052e53741bba9c2f10aa781d05c96e38" />
<rom name="Audio CD (Track 18).bin" size="705600" crc="02864c0e" md5="1234dd57f3af7775d57493b54d59bceb" sha1="aa64beff052e53741bba9c2f10aa781d05c96e38" />
<rom name="Audio CD (Track 19).bin" size="705600" crc="02864c0e" md5="1234dd57f3af7775d57493b54d59bceb" sha1="aa64beff052e53741bba9c2f10aa781d05c96e38" />
<rom name="Audio CD (Track 20).bin" size="705600" crc="02864c0e" md5="1234dd57f3af7775d57493b54d59bceb" sha1="aa64beff052e53741bba9c2f10aa781d05c96e38" />
<rom name="Audio CD (Track 21).bin" size="705600" crc="02864c0e" md5="1234dd57f3af7775d57493b54d59bceb" sha1="aa64beff052e53741bba9c2f10aa781d05c96e38" />
<rom name="Audio CD (Track 22).bin" size="705600" crc="02864c0e" md5="1234dd57f3af7775d57493b54d59bceb" sha1="aa64beff052e53741bba9c2f10aa781d05c96e38" />
<rom name="Audio CD (Track 23).bin" size="705600" crc="02864c0e" md5="1234dd57f3af7775d57493b54d59bceb" sha1="aa64beff052e53741bba9c2f10aa781d05c96e38" />
<rom name="Audio CD (Track 24).bin" size="705600" crc="02864c0e" md5="1234dd57f3af7775d57493b54d59bceb" sha1="aa64beff052e53741bba9c2f10aa781d05c96e38" />
<rom name="Audio CD (Track 25).bin" size="705600" crc="02864c0e" md5="1234dd57f3af7775d57493b54d59bceb" sha1="aa64beff052e53741bba9c2f10aa781d05c96e38" />
<rom name="Audio CD (Track 26).bin" size="705600" crc="02864c0e" md5="1234dd57f3af7775d57493b54d59bceb" sha1="aa64beff052e53741bba9c2f10aa781d05c96e38" />
<rom name="Audio CD (Track 27).bin" size="705600" crc="02864c0e" md5="1234dd57f3af7775d57493b54d59bceb" sha1="aa64beff052e53741bba9c2f10aa781d05c96e38" />
<rom name="Audio CD (Track 28).bin" size="705600" crc="02864c0e" md5="1234dd57f3af7775d57493b54d59bceb" sha1="aa64beff052e53741bba9c2f10aa781d05c96e38" />
<rom name="Audio CD (Track 29).bin" size="1004304" crc="3d4041b6" md5="e3770afaef2b8be8eb9900d87fff916a" sha1="d5551dabaa777724a0f2992fc2a7f23790003e0e" />
<rom name="Audio CD (Track 30).bin" size="7081872" crc="5bee751b" md5="fb1637bb61d7100016a96f7293beaa9c" sha1="931e0b7846e0295eec0cbfa00b93ca7b62869c5b" />

    Cuesheet:

FILE "Audio CD (Track 01).bin" BINARY
  TRACK 01 AUDIO
    INDEX 01 00:00:00
FILE "Audio CD (Track 02).bin" BINARY
  TRACK 02 AUDIO
    INDEX 01 00:00:00
FILE "Audio CD (Track 03).bin" BINARY
  TRACK 03 AUDIO
    INDEX 01 00:00:00
FILE "Audio CD (Track 04).bin" BINARY
  TRACK 04 AUDIO
    INDEX 01 00:00:00
FILE "Audio CD (Track 05).bin" BINARY
  TRACK 05 AUDIO
    INDEX 01 00:00:00
FILE "Audio CD (Track 06).bin" BINARY
  TRACK 06 AUDIO
    INDEX 01 00:00:00
FILE "Audio CD (Track 07).bin" BINARY
  TRACK 07 AUDIO
    INDEX 01 00:00:00
FILE "Audio CD (Track 08).bin" BINARY
  TRACK 08 AUDIO
    INDEX 01 00:00:00
FILE "Audio CD (Track 09).bin" BINARY
  TRACK 09 AUDIO
    INDEX 01 00:00:00
FILE "Audio CD (Track 10).bin" BINARY
  TRACK 10 AUDIO
    INDEX 01 00:00:00
FILE "Audio CD (Track 11).bin" BINARY
  TRACK 11 AUDIO
    INDEX 01 00:00:00
FILE "Audio CD (Track 12).bin" BINARY
  TRACK 12 AUDIO
    INDEX 01 00:00:00
FILE "Audio CD (Track 13).bin" BINARY
  TRACK 13 AUDIO
    INDEX 01 00:00:00
FILE "Audio CD (Track 14).bin" BINARY
  TRACK 14 AUDIO
    INDEX 01 00:00:00
FILE "Audio CD (Track 15).bin" BINARY
  TRACK 15 AUDIO
    INDEX 01 00:00:00
FILE "Audio CD (Track 16).bin" BINARY
  TRACK 16 AUDIO
    INDEX 01 00:00:00
FILE "Audio CD (Track 17).bin" BINARY
  TRACK 17 AUDIO
    INDEX 01 00:00:00
FILE "Audio CD (Track 18).bin" BINARY
  TRACK 18 AUDIO
    INDEX 01 00:00:00
FILE "Audio CD (Track 19).bin" BINARY
  TRACK 19 AUDIO
    INDEX 01 00:00:00
FILE "Audio CD (Track 20).bin" BINARY
  TRACK 20 AUDIO
    INDEX 01 00:00:00
FILE "Audio CD (Track 21).bin" BINARY
  TRACK 21 AUDIO
    INDEX 01 00:00:00
FILE "Audio CD (Track 22).bin" BINARY
  TRACK 22 AUDIO
    INDEX 01 00:00:00
FILE "Audio CD (Track 23).bin" BINARY
  TRACK 23 AUDIO
    INDEX 01 00:00:00
FILE "Audio CD (Track 24).bin" BINARY
  TRACK 24 AUDIO
    INDEX 01 00:00:00
FILE "Audio CD (Track 25).bin" BINARY
  TRACK 25 AUDIO
    INDEX 01 00:00:00
FILE "Audio CD (Track 26).bin" BINARY
  TRACK 26 AUDIO
    INDEX 01 00:00:00
FILE "Audio CD (Track 27).bin" BINARY
  TRACK 27 AUDIO
    INDEX 01 00:00:00
FILE "Audio CD (Track 28).bin" BINARY
  TRACK 28 AUDIO
    INDEX 01 00:00:00
FILE "Audio CD (Track 29).bin" BINARY
  TRACK 29 AUDIO
    INDEX 01 00:00:00
FILE "Audio CD (Track 30).bin" BINARY
  TRACK 30 AUDIO
    INDEX 01 00:00:00

    Write Offset: 0

Dumping Info:
    Dumping Program: Redumper v2023.11.30 build_271
    Date: 2023-12-11 01:18:28
    Manufacturer: PLEXTOR
    Model: DVDR PX-716AL
    Firmware: 1.02 (12/01/05 10:00)
    Reported Disc Type: CD-ROM


https://www.mediafire.com/file/z1v1cfi2 … s.zip/file
http://redump.org/disc/22367/

Common Disc Info:
    Title: The Sims: Deluxe Edition
    Disc Number / Letter: 2
    Disc Title: (OPTIONAL)
    System: IBM PC compatible
    Media Type: CD-ROM
    Category: Games
    Fully Matching ID: 105523
    Region: Australia
    Languages: 
    Disc Serial: 

    Ringcode Information:

Data Side Mastering Code (laser branded/etched): 5014576CD2    (DH291C)
Data Side Mastering SID Code: IFPI LB22
Data Side Toolstamp or Mastering Code (engraved/stamped): (REQUIRED, IF EXISTS)
Data Side Mould SID Code: (REQUIRED, IF EXISTS)
Data Side Additional Mould: (REQUIRED, IF EXISTS)
Label Side Mould SID Code: (REQUIRED, IF EXISTS)

    Barcode: (OPTIONAL)
    Error Count: 0
    Comments:

[T:VOL] SIMSDELUXE2
(OPTIONAL)

    Contents: (OPTIONAL)

Version and Editions:
    Version: 1.6
    Edition/Release: (VERIFY THIS) Original

Extras:
    Primary Volume Descriptor (PVD):

0320 : 20 20 20 20 20 20 20 20  20 20 20 20 20 32 30 30                200
0330 : 32 30 38 30 31 31 39 32  34 34 37 30 30 00 32 30   2080119244700.20
0340 : 30 32 30 38 30 31 31 39  32 34 34 37 30 30 00 30   02080119244700.0
0350 : 30 30 30 30 30 30 30 30  30 30 30 30 30 30 30 00   000000000000000.
0360 : 30 30 30 30 30 30 30 30  30 30 30 30 30 30 30 30   0000000000000000
0370 : 00 01 00 00 00 00 00 00  00 00 00 00 00 00 00 00   ................

Copy Protection:
    Copy Protection: None found [OMIT FROM SUBMISSION]
    SubIntention Data (SecuROM/LibCrypt): 

Tracks and Write Offsets:
    DAT:

<rom name="SIMSDELUXE2.bin" size="669783744" crc="c8b30ce7" md5="4e51c2e320c387a2e1d938e882ac2515" sha1="5e2a74642ec9645fbffb6305da7cf963e3d31ba1" />

    Cuesheet:

FILE "SIMSDELUXE2.bin" BINARY
  TRACK 01 MODE1/2352
    INDEX 01 00:00:00

    Write Offset: -12

Dumping Info:
    Dumping Program: Redumper v2023.11.30 build_271
    Date: 2023-12-11 00:29:11
    Manufacturer: PLEXTOR
    Model: DVDR PX-716AL
    Firmware: 1.02 (12/01/05 10:00)
    Reported Disc Type: CD-ROM

https://www.mediafire.com/file/0olbdm3v … s.zip/file
http://redump.org/disc/105523/

12

(1 replies, posted in Verifications)

http://redump.org/disc/105522/

Common Disc Info:
    Title: The Sims: Deluxe Edition
    Disc Number / Letter: 1
    Disc Title: (OPTIONAL)
    System: IBM PC compatible
    Media Type: CD-ROM
    Category: Games
    Fully Matching ID: 105522
    Region: Australia
    Languages: 
    Disc Serial: 

    Ringcode Information:

Data Side Mastering Code (laser branded/etched): 5014576CD1    (EA091D)
Data Side Mastering SID Code: IFPI LB22
Data Side Toolstamp or Mastering Code (engraved/stamped): (REQUIRED, IF EXISTS)
Data Side Mould SID Code: (REQUIRED, IF EXISTS)
Data Side Additional Mould: (REQUIRED, IF EXISTS)
Label Side Mould SID Code: (REQUIRED, IF EXISTS)

    Barcode: (OPTIONAL)
    Error Count: 575
    Comments:

[T:VOL] The Sims Deluxe
(OPTIONAL)

    Contents: (OPTIONAL)

Version and Editions:
    Version: 1.6
    Edition/Release: (VERIFY THIS) Original

Extras:
    Primary Volume Descriptor (PVD):

0320 : 20 20 20 20 20 20 20 20  20 20 20 20 20 32 30 30                200
0330 : 32 30 38 30 31 31 39 31  35 35 31 30 30 00 32 30   2080119155100.20
0340 : 30 32 30 38 30 31 31 39  31 35 35 31 30 30 00 30   02080119155100.0
0350 : 30 30 30 30 30 30 30 30  30 30 30 30 30 30 30 00   000000000000000.
0360 : 30 30 30 30 30 30 30 30  30 30 30 30 30 30 30 30   0000000000000000
0370 : 00 01 00 00 00 00 00 00  00 00 00 00 00 00 00 00   ................

Copy Protection:
    Copy Protection: EA CdKey Registration Module 3.0.0.0, Macrovision Protection File [Likely indicates either SafeDisc 1.45.011+ (CD) or CDS-300]
    SubIntention Data (SecuROM/LibCrypt): 

Tracks and Write Offsets:
    DAT:

<rom name="The Sims Deluxe (Track 0).bin" size="178752" crc="f0a1c398" md5="5a26c54c45fded7dea2534c21bf65078" sha1="26502d35cdc7afa0ea45cd894a6651ca4e66ff99" />
<rom name="The Sims Deluxe.bin" size="714704592" crc="02adae75" md5="af60f44ef9319167835105fa16714d0c" sha1="fea4d89cfff00d387d019e2aa1fe1f0c94ae8843" />

    Cuesheet:

FILE "The Sims Deluxe.bin" BINARY
  TRACK 01 MODE1/2352
    INDEX 01 00:00:00

    Write Offset: -12

Dumping Info:
    Dumping Program: Redumper v2023.11.30 build_271
    Date: 2023-12-11 00:06:17
    Manufacturer: PLEXTOR
    Model: DVDR PX-716AL
    Firmware: 1.02 (12/01/05 10:00)
    Reported Disc Type: CD-ROM

https://www.mediafire.com/file/qhfkwkr5 … s.zip/file

14

(3,488 replies, posted in General discussion)

Dumping Info:
    Dumping Program: DiscImageCreator 20230413
    Manufacturer: ASUS
    Model: BC-12D2HT
    Firmware: 3.01
    Reported Disc Type: DVD-ROM

Unsure if this is drive damage or a DIC issue or both but I have recently discovered my drive has been producing bad dumps with DIC reporting 0 issues in any of the logs. Its only thanks to the due diligence of other community members I discovered this. May be worth looking into if you have this model drive and to remember to always double dump.

zuma king com swf

16

(2 replies, posted in Guests & account requests)

I will elaborate a bit to better my chances. I love looking for missing serials and I would like to be able to better organise the missing lists so that they are neat tidy and have more missing serials added to them.

I would like to request a wiki account with the same username as my account here so I can add more Serials to a few of the missing lists.