The UK MAC release matches with the US release.

https://mega.nz/folder/pMBAxB6Y#__DURe3V-gdeIhkpvjSUYg

Common Disc Info:
    Title: The Legend of Kyrandia: Book One
    Disc Number / Letter: 
    Disc Title: 
    System: Apple Macintosh
    Media Type: CD-ROM
    Category: Games
    Matching IDs: 87625
    Region: UK
    Languages: English
    Disc Serial: CDRM1100920

    Ringcode Information:
        Data Side Mastering Code (laser branded/etched): CDRM-1100920    1
        Data Side Mastering SID Code: 
        Data Side Toolstamp or Mastering Code (engraved/stamped): 
        Data Side Mould SID Code: 
        Data Side Additional Mould: 
        Label Side Mould SID Code: 
    Barcode: 
    Error Count: 0
    Comments: 
    Contents: 

Version and Editions:
    Version: 
    Edition/Release: Original

Extras:
    Primary Volume Descriptor (PVD): Disc has no PVD

Copy Protection:
    Copy Protection: None found

Tracks and Write Offsets:
    DAT:

<rom name="Kyrandia_MAC_UK.bin" size="771058512" crc="0c7e85ee" md5="5131901c312c51a03fe276a33808004f" sha1="dbe7c177b9774c935dced3a8834e27ef458b6cbf" />

    Cuesheet:

CATALOG 0000000000000
FILE "Kyrandia_MAC_UK.bin" BINARY
  TRACK 01 MODE1/2352
    INDEX 01 00:00:00

    Write Offset: 0

https://mega.nz/folder/1QQwUDiQ#AV-Y6NEXW-nLpA9SrNNgWg

Common Disc Info:
    Title: La Peugeot 406 en Val de Loire
    Foreign Title (Non-latin): 
    Disc Number / Letter: 
    Disc Title: 
    System: Philips CD-i
    Media Type: CD-ROM
    Category: Multimedia
    Matching IDs: 75531
    Region: France
    Languages: French
    Disc Serial: 

    Ringcode Information:
        Data Side Mastering Code (laser branded/etched): PMDC FRANCE    6111    20 L7
        Data Side Mastering SID Code: IFPI L004
        Data Side Toolstamp or Mastering Code (engraved/stamped): 1-J
        Data Side Mould SID Code: IFPI 0233
        Data Side Additional Mould: 
        Label Side Mould SID Code: 
        Label Side Additional Mould: 
    Barcode: 
    Error Count: 0
    Comments: Philips CD-i / PC / Mac hybrid with Red Book audio tracks.
    Contents:

Version and Editions:
    Version: 
    Edition/Release: Original

Extras:
    Primary Volume Descriptor (PVD):

0320 : 20 20 20 20 20 20 20 20  20 20 20 20 20 31 39 39                199
0330 : 35 30 39 32 38 31 38 33  35 32 36 30 30 00 30 30   5092818352600.00
0340 : 30 30 30 30 30 30 30 30  30 30 30 30 30 30 00 30   00000000000000.0
0350 : 30 30 30 30 30 30 30 30  30 30 30 30 30 30 30 00   000000000000000.
0360 : 30 30 30 30 30 30 30 30  30 30 30 30 30 30 30 30   0000000000000000
0370 : 00 01 00 00 00 00 00 00  00 00 00 00 00 00 00 00   ................

Tracks and Write Offsets:
    DAT:

<rom name="La_peugot_406_en_val_de_loire (Track 1).bin" size="477162000" crc="89f0c82d" md5="831c6ed8291542f1f1ab85bfd18f9f27" sha1="b66af658690bfcd963730c755629cf045760acba" />
<rom name="La_peugot_406_en_val_de_loire (Track 2).bin" size="28701456" crc="f27697b8" md5="d4f7dbeb57f65071b3d67f5c850b45e6" sha1="d9de433cf5ea36b2132fb0b0638f763cd622924e" />
<rom name="La_peugot_406_en_val_de_loire (Track 3).bin" size="40731936" crc="ee72deaf" md5="2177a84f366675d6f5ab94efe8347df1" sha1="becae9d5f374e89dc2355bf58c8989b0f88c47af" />
<rom name="La_peugot_406_en_val_de_loire (Track 4).bin" size="40433232" crc="10d91a39" md5="8c12317656391e7965ff411674da2349" sha1="ddba4f1c42f205880a7e47cb144d7d36815a840e" />
<rom name="La_peugot_406_en_val_de_loire (Track 5).bin" size="43147440" crc="b53c7d9a" md5="d580689328fe0426238134e03303f480" sha1="934271155f29fa6d760c0dc86e5e05ff993789cd" />
<rom name="La_peugot_406_en_val_de_loire (Track 6).bin" size="31401552" crc="8459c99b" md5="75c635a721c5adab6396e81744be09e2" sha1="a1118a1213cdd514aae00747f9c6e57152311dc5" />
<rom name="La_peugot_406_en_val_de_loire (Track 7).bin" size="45337152" crc="d9e8a0b1" md5="b6f1d8ab7b79c18fd4328e0861cbaf09" sha1="99a162a67c13772d98f63caae62f351180d686b2" />

    Cuesheet:

CATALOG 0000000000000
FILE "La_peugot_406_en_val_de_loire (Track 1).bin" BINARY
  TRACK 01 MODE2/2352
    INDEX 01 00:00:00
FILE "La_peugot_406_en_val_de_loire (Track 2).bin" BINARY
  TRACK 02 AUDIO
    INDEX 00 00:00:00
    INDEX 01 00:03:02
FILE "La_peugot_406_en_val_de_loire (Track 3).bin" BINARY
  TRACK 03 AUDIO
    INDEX 00 00:00:00
    INDEX 01 00:01:74
FILE "La_peugot_406_en_val_de_loire (Track 4).bin" BINARY
  TRACK 04 AUDIO
    INDEX 00 00:00:00
    INDEX 01 00:01:74
FILE "La_peugot_406_en_val_de_loire (Track 5).bin" BINARY
  TRACK 05 AUDIO
    INDEX 00 00:00:00
    INDEX 01 00:01:74
FILE "La_peugot_406_en_val_de_loire (Track 6).bin" BINARY
  TRACK 06 AUDIO
    INDEX 00 00:00:00
    INDEX 01 00:01:74
FILE "La_peugot_406_en_val_de_loire (Track 7).bin" BINARY
  TRACK 07 AUDIO
    INDEX 00 00:00:00
    INDEX 01 00:01:74

    Write Offset: 0

https://mega.nz/folder/YYx3gSCC#9g_I6UDjlAAm9C0L7Kifzw

Common Disc Info:
    Title: Exit 7: The Harley-Davidson Experience on CD-i
    Foreign Title (Non-latin): 
    Disc Number / Letter: 
    Disc Title: 
    System: Philips CD-i
    Media Type: CD-ROM
    Category: Multimedia
    Matching IDs: 75527
    Region: USA
    Languages: English
    Disc Serial:

    Ringcode Information:
        Data Side Mastering Code (laser branded/etched): PDO PROF.MEDIA/EXIT 7-P+O/CD-I/0342-A2
        Data Side Mastering SID Code: 
        Data Side Toolstamp or Mastering Code (engraved/stamped): 
        Data Side Mould SID Code: 
        Data Side Additional Mould: 
        Label Side Mould SID Code: 
        Label Side Additional Mould: 
    Barcode: 
    Error Count: 0
    Comments: "Limited Digital Video demo-version 1993. Not for sale."
    Contents: 

Version and Editions:
    Version: 
    Edition/Release: Original

Extras:
    Primary Volume Descriptor (PVD):

0320 : 20 20 20 20 20 20 20 20  20 20 20 20 20 31 39 39                199
0330 : 33 31 32 30 38 31 37 31  36 30 35 30 30 00 30 30   3120817160500.00
0340 : 30 30 30 30 30 30 30 30  30 30 30 30 30 30 00 30   00000000000000.0
0350 : 30 30 30 30 30 30 30 30  30 30 30 30 30 30 30 00   000000000000000.
0360 : 30 30 30 30 30 30 30 30  30 30 30 30 30 30 30 30   0000000000000000
0370 : 00 01 00 00 00 00 00 00  00 00 00 00 00 00 00 00   ................

Tracks and Write Offsets:
    DAT:

<rom name="Exit_7_the_harley_davidson_experience.bin" size="141296400" crc="79663d17" md5="61358edc4c6fd68095979b27d1ba9d10" sha1="4ccc9fb25c9d7f196db38ec1602d18d587ab901f" />

    Cuesheet:

CATALOG 0000000000000
FILE "Exit_7_the_harley_davidson_experience.bin" BINARY
  TRACK 01 CDI/2352
    INDEX 01 00:00:00

    Write Offset: 0

https://mega.nz/folder/Zc5kgJzC#yE-VCHIJFHOKLlNWBKa1FQ

Common Disc Info:
    Title: Bose: Home Cinema Sound System: Demonstration Disc
    Foreign Title (Non-latin): 
    Disc Number / Letter: 
    Disc Title: 
    System: Philips CD-i
    Media Type: CD-ROM
    Category: Multimedia
    Matching IDs: 82244
    Region: Europe
    Languages: 
    Disc Serial: 

    Ringcode Information:
        Data Side Mastering Code (laser branded/etched): 50423 807 01 >
        Data Side Mastering SID Code: 
        Data Side Toolstamp or Mastering Code (engraved/stamped): A
        Data Side Mould SID Code: IFPI 0148
        Data Side Additional Mould: MADE IN GERMANY BY PMDC
        Label Side Mould SID Code: 
        Label Side Additional Mould: 
    Barcode: 
    Error Count: 0
    Comments: 
    Contents: 

Version and Editions:
    Version: 
    Edition/Release: Demonstration 

Extras:
    Primary Volume Descriptor (PVD):

0320 : 20 20 20 20 20 20 20 20  20 20 20 20 20 31 39 39                199
0330 : 34 30 37 32 39 31 38 35  32 35 32 30 30 00 30 30   4072918525200.00
0340 : 30 30 30 30 30 30 30 30  30 30 30 30 30 30 00 30   00000000000000.0
0350 : 30 30 30 30 30 30 30 30  30 30 30 30 30 30 30 00   000000000000000.
0360 : 30 30 30 30 30 30 30 30  30 30 30 30 30 30 30 30   0000000000000000
0370 : 00 01 00 00 00 00 00 00  00 00 00 00 00 00 00 00   ................

Tracks and Write Offsets:
    DAT:

<rom name="Communider_disque_n_002_04_03_1994_CDR.bin" size="534492000" crc="31e6768c" md5="0ea6d932e6ed8eb5f43fa51f0ac68007" sha1="9ae6336afc0cd0b76b1b929c0e5a17d626a41763" />

    Cuesheet:

CATALOG 0000000000000
FILE "Communider_disque_n_002_04_03_1994_CDR.bin" BINARY
  TRACK 01 CDI/2352
    INDEX 01 00:00:00

    Write Offset: -954

To be removed from the missing list smile

https://mega.nz/folder/hBJRQYqL#AT_pMcJUf_Ogwx5_-EHG7Q

Common Disc Info:
    Title: Jigsaw: The Ultimate Electronic Puzzle
    Disc Number / Letter: 
    Disc Title: 
    System: Philips CD-i
    Media Type: CD-ROM
    Category: Games
    Matching IDs: 64163
    Region: France
    Languages: English
    Disc Serial: 812 0013

    Ringcode Information:
        Data Side Mastering Code (laser branded/etched): 3106900292    50239 125 01    +
        Data Side Mastering SID Code: 
        Data Side Toolstamp or Mastering Code (engraved/stamped): P
        Data Side Mould SID Code: 
        Data Side Additional Mould: MADE IN GERMANY
        Label Side Mould SID Code: 
    Barcode: 8 712581 200138
    Error Count: 0
    Comments: 
    Contents: 

Version and Editions:
    Version: 
    Edition/Release: Original

Extras:
    Primary Volume Descriptor (PVD):

0320 : 20 20 20 20 20 20 20 20  00 00 00 00 00 31 39 39           .....199
0330 : 32 30 32 31 31 31 31 31  32 34 31 30 30 00 31 39   2021111124100.19
0340 : 39 32 30 32 31 31 31 31  31 32 34 31 30 30 00 30   92021111124100.0
0350 : 30 30 30 30 30 30 30 30  30 30 30 30 30 30 30 00   000000000000000.
0360 : 31 39 39 32 30 32 31 31  31 31 31 32 34 31 30 30   1992021111124100
0370 : 00 01 00 00 00 00 00 00  00 00 00 00 00 00 00 00   ................

Copy Protection:

Tracks and Write Offsets:
    DAT:

<rom name="Jigsaw_FR.bin" size="320471760" crc="2296936f" md5="de83d65412361cb0c9ce565fa1c4dd24" sha1="fde923b2c30f348ff014dc08e18588f86cd19efe" />

    Cuesheet:

FILE "Jigsaw_FR.bin" BINARY
  TRACK 01 CDI/2352
    INDEX 01 00:00:00

    Write Offset: 615

https://mega.nz/folder/INJi3RqY#K8i8H8meoFMDyIBPz_N0kw

Common Disc Info:
    Title: Volvo 960: Product Information: 1995
    Foreign Title (Non-latin): 
    Disc Number / Letter: 1
    Disc Title: (OPTIONAL)
    System: Philips CD-i
    Media Type: CD-ROM
    Category: Games
    Region: Netherlands
    Languages: 
    Disc Serial: 

    Ringcode Information:
        Data Side Mastering Code (laser branded/etched): MADE IN U.K. BY PDO    MSPV 527-7150 ENG  10325081 02 &
        Data Side Mastering SID Code: 
        Data Side Toolstamp or Mastering Code (engraved/stamped): 
        Data Side Mould SID Code: IFPI 0453
        Data Side Additional Mould: 
        Label Side Mould SID Code: 
        Label Side Additional Mould: 
    Barcode: 
    Error Count: 0
    Comments: Dutch title: "Product-informatie: CD-I Modeljaar 95"
    Contents: 

Version and Editions:
    Version: 
    Edition/Release: Original

Extras:
    Primary Volume Descriptor (PVD):

0320 : 20 20 20 20 20 20 20 20  20 20 20 20 20 31 39 39                199
0330 : 34 31 30 30 33 32 31 35  31 34 36 30 30 00 30 30   4100321514600.00
0340 : 30 30 30 30 30 30 30 30  30 30 30 30 30 30 00 30   00000000000000.0
0350 : 30 30 30 30 30 30 30 30  30 30 30 30 30 30 30 00   000000000000000.
0360 : 30 30 30 30 30 30 30 30  30 30 30 30 30 30 30 30   0000000000000000
0370 : 00 01 00 00 00 00 00 00  00 00 00 00 00 00 00 00   ................

Tracks and Write Offsets:
    DAT:

<rom name="Volvo_960_1995_1_Product_information.bin" size="484046304" crc="701d2947" md5="774fffde6d3b7a9a79c01d79b9955105" sha1="b3b631b3261c72a83f0176d2dfd70f2f65ac2923" />

    Cuesheet:

CATALOG 0000000000000
FILE "Volvo_960_1995_1_Product_information.bin" BINARY
  TRACK 01 CDI/2352
    INDEX 01 00:00:00

    Write Offset: 222

https://mega.nz/folder/hY5AGSjA#ee2pCwMj09zeGiGRdN6-Hg

Common Disc Info:
    Title: Volvo 850: Farben & Bezüge
    Foreign Title (Non-latin): 
    Disc Number / Letter: 
    Disc Title: 
    System: Philips CD-i
    Media Type: CD-ROM
    Category: Multimedia
    Matching IDs: 82069
    Region: Germany
    Languages: German
    Disc Serial: 

    Ringcode Information:
        Data Side Mastering Code (laser branded/etched): CD PLANT MFG    MS/PV 527-7141    CDM01
        Data Side Mastering SID Code: 
        Data Side Toolstamp or Mastering Code (engraved/stamped): 
        Data Side Mould SID Code: 
        Data Side Additional Mould: 
        Label Side Mould SID Code: 
        Label Side Additional Mould: 
    Barcode: 
    Error Count: 0
    Comments:

Volvo 850 colour and upholstery configuration/demonstration disc that was used in kiosk/POS systems by Volvo retailers world-wide.

Requires Digital Video Cartridge.

Further information on the label: "1995"

This disc was distributed by Philips as demonstration disc in a cardboard sleeve.

    Contents: [+]Contains commercials that were shown in German TV.

Version and Editions:
    Version: 
    Edition/Release: Original

Extras:
    Primary Volume Descriptor (PVD):

0320 : 20 20 20 20 20 20 20 20  20 20 20 20 20 31 39 39                199
0330 : 35 30 32 32 31 31 33 33  32 35 36 30 30 00 30 30   5022113325600.00
0340 : 30 30 30 30 30 30 30 30  30 30 30 30 30 30 00 30   00000000000000.0
0350 : 30 30 30 30 30 30 30 30  30 30 30 30 30 30 30 00   000000000000000.
0360 : 30 30 30 30 30 30 30 30  30 30 30 30 30 30 30 30   0000000000000000
0370 : 00 01 00 00 00 00 00 00  00 00 00 00 00 00 00 00   ................

Tracks and Write Offsets:
    DAT:

<rom name="Volvo_850_95_farben_bezuge.bin" size="588646800" crc="4105838a" md5="90491bfcb073c57ffcb62764d6e308bf" sha1="a16ec766f3c20c8946ba3b9282ed8ce635127ac5" />

    Cuesheet:

FILE "Volvo_850_95_farben_bezuge.bin" BINARY
  TRACK 01 CDI/2352
    INDEX 01 00:00:00

    Write Offset: -20

https://mega.nz/folder/QJ5QxS7B#haf4EMTR5ikdw8F2cQE8yw

Common Disc Info:
    Title: Volvo 850: Colour & Upholstery: 1995
    Foreign Title (Non-latin): 
    Disc Number / Letter: 
    Disc Title: 
    System: Philips CD-i
    Media Type: CD-ROM
    Category: Multimedia
    Matching IDs: 77616
    Region: Europe
    Languages: English
    Disc Serial: 

    Ringcode Information:
        Data Side Mastering Code (laser branded/etched): MADE IN U.K. BY PDO    MS/PV 527-7140 10319441 02&
        Data Side Mastering SID Code: 
        Data Side Toolstamp or Mastering Code (engraved/stamped): 
        Data Side Mould SID Code: IFPI 0451
        Data Side Additional Mould: 
        Label Side Mould SID Code: 
        Label Side Additional Mould: 
    Barcode: 
    Error Count: 0
    Comments: French title : Teintes et garnitures: CD-i Millesime 1995
    Contents:

Version and Editions:
    Version: 
    Edition/Release: Original

Extras:
    Primary Volume Descriptor (PVD):

0320 : 20 20 20 20 20 20 20 20  20 20 20 20 20 31 39 39                199
0330 : 34 30 39 30 39 31 38 32  32 34 32 30 30 00 30 30   4090918224200.00
0340 : 30 30 30 30 30 30 30 30  30 30 30 30 30 30 00 30   00000000000000.0
0350 : 30 30 30 30 30 30 30 30  30 30 30 30 30 30 30 00   000000000000000.
0360 : 30 30 30 30 30 30 30 30  30 30 30 30 30 30 30 30   0000000000000000
0370 : 00 01 00 00 00 00 00 00  00 00 00 00 00 00 00 00   ................

Tracks and Write Offsets:
    DAT:

<rom name="Volvo_850_95_Colour_upholstery.bin" size="317348304" crc="a1e5894c" md5="9df99457fb6b39c6feddc10172bdc96d" sha1="d7b1cf5aff552ccc558f3fef8063f385844c1893" />

    Cuesheet:

CATALOG 0000000000000
FILE "Volvo_850_95_Colour_upholstery.bin" BINARY
  TRACK 01 CDI/2352
    INDEX 01 00:00:00

    Write Offset: 222

https://mega.nz/folder/pUJVxAKA#2S-eudbbo4hGFQdIeTDN6g

Common Disc Info:
    Title: Free Record Shop Holding: Jaarbericht 1992 / 1993: Annual Report 1992 / 1993
    Foreign Title (Non-latin): 
    Disc Number / Letter: 
    Disc Title: 
    System: Philips CD-i
    Media Type: CD-ROM
    Category: Multimedia
    Matching IDs: 78648
    Region: Netherlands
    Languages: Dutch, English
    Disc Serial: 

    Ringcode Information:
        Data Side Mastering Code (laser branded/etched): EOD FREE 1992/1993 01 !
        Data Side Mastering SID Code: 
        Data Side Toolstamp or Mastering Code (engraved/stamped): 
        Data Side Mould SID Code: 
        Data Side Additional Mould: 1
        Label Side Mould SID Code: 
        Label Side Additional Mould: 
    Barcode: 
    Error Count: 0
    Comments: 
    Contents: 

Version and Editions:
    Version: 
    Edition/Release: Original

Extras:
    Primary Volume Descriptor (PVD):

0320 : 20 20 20 20 20 20 20 20  20 20 20 20 20 31 39 39                199
0330 : 34 30 32 30 31 31 36 30  39 30 36 30 30 00 30 30   4020116090600.00
0340 : 30 30 30 30 30 30 30 30  30 30 30 30 30 30 00 30   00000000000000.0
0350 : 30 30 30 30 30 30 30 30  30 30 30 30 30 30 30 00   000000000000000.
0360 : 30 30 30 30 30 30 30 30  30 30 30 30 30 30 30 30   0000000000000000
0370 : 00 01 00 00 00 00 00 00  00 00 00 00 00 00 00 00   ................

Tracks and Write Offsets:
    DAT:

<rom name="Jaarbericht_1992_1993_annual_report_SPC_vision.bin" size="558482400" crc="c984c7f5" md5="0e192ca6bab939a2d51956d16f010298" sha1="f5266a86cc357e8be78e31b0a3fabb03ac3ed596" />

    Cuesheet:

FILE "Jaarbericht_1992_1993_annual_report_SPC_vision.bin" BINARY
  TRACK 01 CDI/2352
    INDEX 01 00:00:00

    Write Offset: -22

10

(0 replies, posted in Verifications)

https://mega.nz/folder/cIwEDJbb#WqICXKz2oYvCTkRBpyLwmA

Common Disc Info:
    Title: DISCover Belgium
    Foreign Title (Non-latin): 
    Disc Number / Letter: 
    Disc Title: 
    System: Philips CD-i
    Media Type: CD-ROM
    Category: Multimedia
    Matching IDs: 79452
    Region: Belgium
    Languages: English
    Disc Serial: 

    Ringcode Information:
        Data Side Mastering Code (laser branded/etched): 50267 495 01 +
        Data Side Mastering SID Code: 
        Data Side Toolstamp or Mastering Code (engraved/stamped): A
        Data Side Mould SID Code: 
        Data Side Additional Mould: MADE IN GERMANY
        Label Side Mould SID Code: 
        Label Side Additional Mould: 
    Barcode: 
    Error Count: 0
    Comments: "Demo version free of charge" "not for sale"
    Contents:

Version and Editions:
    Version: 
    Edition/Release: Original

Extras:
    Primary Volume Descriptor (PVD):

0320 : 20 20 20 20 20 20 20 20  00 00 00 00 00 31 39 39           .....199
0330 : 32 30 38 32 35 30 37 32  31 34 37 30 30 00 30 30   2082507214700.00
0340 : 30 30 30 30 30 30 30 30  30 30 30 30 30 30 00 30   00000000000000.0
0350 : 30 30 30 30 30 30 30 30  30 30 30 30 30 30 30 00   000000000000000.
0360 : 30 30 30 30 30 30 30 30  30 30 30 30 30 30 30 30   0000000000000000
0370 : 00 01 00 00 00 00 00 00  00 00 00 00 00 00 00 00   ................

Tracks and Write Offsets:
    DAT:

<rom name="DISCover_Belgium_NFR.bin" size="605757600" crc="dea56c9e" md5="dc0f4c9cf61be5b89f9799b71868abcf" sha1="094db221531f704eb94d172d94d0f8ca7abfab57" />

    Cuesheet:

FILE "DISCover_Belgium_NFR.bin" BINARY
  TRACK 01 CDI/2352
    INDEX 01 00:00:00

    Write Offset: 639

11

(3,175 replies, posted in General discussion)

KailoKyra wrote:

I'm trying to dump one of the missing XBOX games ("Scarface") that DIC seems to have an issue with right at the start.
I have two copies of the game and both are doing the same thing.

LBA[1913770, 0x1d33aa]: [F:ReadXBOXDirectoryRecord][L:1180]
    Opcode: 0xa8
    ScsiStatus: 0x02 = CHECK_CONDITION
    SenseData Key-Asc-Ascq: 03-02-00 = MEDIUM_ERROR - NO SEEK COMPLETE

Follow up on that : I managed to grab another copy, same ringcode and all... and this time it worked without issues.
So likely something bad going on with the discs themselves even if they don't look visually bad.

12

(0 replies, posted in Verifications)

https://mega.nz/folder/1EAG3bLJ#_xSMPKIy7rHWhL6Ia8-ZDA

Common Disc Info:
    Title: Bugs Bunny: Lost in Time
    Foreign Title (Non-latin): 
    Disc Number / Letter: 
    Disc Title: 
    System: IBM PC Compatible
    Media Type: CD-ROM
    Category: Games
    Matching IDs: 76181
    Region: Europe
    Languages: Dutch, English, French, German, Italian, Spanish
    Disc Serial: 

    Ringcode Information:
        Data Side Mastering Code (laser branded/etched): DADC    A0100298147-0101    13
        Data Side Mastering SID Code: IFPI L553
        Data Side Toolstamp or Mastering Code (engraved/stamped): A3
        Data Side Mould SID Code: IFPI 942R
        Data Side Additional Mould: 
        Label Side Mould SID Code: 
        Label Side Additional Mould: 
    Barcode: 3 546430 004906
    Error Count: 0
    Comments:

<b>Alternative Foreign Title</b>:

Dutch: Bugs Bunny: Reis door de Tijd

French: Bugs Bunny: Voyage à travers le temps

German: Bugs Bunny auf Zeitreise

Spanish: Bugs Bunny Perdido en el tiempo

    Contents: 

Version and Editions:
    Version: 1.0
    Edition/Release: Original

Extras:
    Primary Volume Descriptor (PVD):

0320 : 20 20 20 20 20 20 20 20  20 20 20 20 20 31 39 39                199
0330 : 39 31 30 32 30 31 31 34  39 30 39 37 39 08 31 39   9102011490979.19
0340 : 39 39 31 30 32 30 31 31  34 39 35 30 32 31 FC 00   99102011495021..
0350 : 00 00 00 00 00 00 00 00  00 00 00 00 00 00 00 00   ................
0360 : 00 00 00 00 00 00 00 00  00 00 00 00 00 00 00 00   ................
0370 : 00 01 00 00 00 00 00 00  00 00 00 00 00 00 00 00   ................

Copy Protection:
    Copy Protection: None found

Tracks and Write Offsets:
    DAT:

<rom name="BBLIT.bin" size="786410016" crc="d86d2359" md5="900c89b5414757ca34909597a5bda8a1" sha1="c59cb99c097f18bf144d7064031cac0d9822f38f" />

    Cuesheet:

FILE "BBLIT.bin" BINARY
  TRACK 01 MODE2/2352
    INDEX 01 00:00:00

    Write Offset: -647

Another variant of the box (this time with a controller included instead of the game Rayman 100 niveaux)

https://mega.nz/folder/4dg2iQSY#q1wuWMfupYO8xXi6Ebq0Hg

Common Disc Info:
    Title: Rayman: Jeu d'Action pour Réviser: College: Espagnol: 11-15 Ans
    Foreign Title (Non-latin): 
    Disc Number / Letter: 
    Disc Title: 
    System: IBM PC Compatible
    Media Type: CD-ROM
    Category: Educational
    Matching IDs: 72014
    Region: France
    Languages: French
    Disc Serial: 

    Ringcode Information:
        Data Side Mastering Code (laser branded/etched): SONOPRESS ROMM T-0701 A
        Data Side Mastering SID Code: IFPI L030
        Data Side Toolstamp or Mastering Code (engraved/stamped): 
        Data Side Mould SID Code: IPFI 0784
        Data Side Additional Mould: 
        Label Side Mould SID Code: (REQUIRED, IF EXISTS)
        Label Side Additional Mould: 
    Barcode: 3 307212 278447
    Error Count: 0
    Comments: Bundled with a joypad
    Contents: 

Version and Editions:
    Version: 
    Edition/Release: Rerelease

Extras:
    Primary Volume Descriptor (PVD):

0320 : 20 20 20 20 20 20 20 20  20 20 20 20 20 31 39 39                199
0330 : 37 30 37 33 30 31 30 34  33 31 31 30 30 00 31 39   7073010431100.19
0340 : 39 37 30 37 33 30 31 30  34 33 31 31 30 30 00 32   97073010431100.2
0350 : 30 30 37 30 37 32 38 31  30 34 33 31 31 30 30 00   007072810431100.
0360 : 31 39 39 37 30 37 33 30  31 30 34 33 31 31 30 30   1997073010431100
0370 : 00 01 00 00 00 00 00 00  00 00 00 00 00 00 00 00   ................

Copy Protection:
    Copy Protection: None found

Tracks and Write Offsets:
    DAT:

<rom name="QUIZZ_FE (Track 01).bin" size="174864144" crc="8157743f" md5="c01f2b96d6047606a388ed76e1284769" sha1="f832fab1dcae70b54692112c25ba6012353d6867" />
<rom name="QUIZZ_FE (Track 02).bin" size="19128816" crc="15bfda57" md5="f290ffd9736a7378edb050b7d84fb29c" sha1="9b3c5ed371326bfe21b1452c67649e7e11eec846" />
<rom name="QUIZZ_FE (Track 03).bin" size="21692496" crc="7c224ced" md5="b736fbe0af985782030ab9f859a63726" sha1="a5d239c2dc684b44adee166f9a60a0bab6b88831" />
<rom name="QUIZZ_FE (Track 04).bin" size="22012368" crc="8bb1c95b" md5="1da09d4be5e379b3b4110e9e28172d47" sha1="ddbb4a6e8e5b368c49748e8b44263562a78c9a55" />
<rom name="QUIZZ_FE (Track 05).bin" size="20984544" crc="89bc8932" md5="754ea78523c25c24eb5ab0c67a1bfc14" sha1="7048ae8bdedbdc7572b6a09355b7286337c6b77d" />
<rom name="QUIZZ_FE (Track 06).bin" size="22209936" crc="55040f1f" md5="ef27b3ae1ea7c2a0ca7d2f1237032a49" sha1="ff651f468337a592f2a251271aa29dd5c16be952" />
<rom name="QUIZZ_FE (Track 07).bin" size="22122912" crc="7ed3f4f5" md5="0e3c07db1bea3b3789d5670247a93baf" sha1="a411d9e9489620679077dd37b8f64ca13b361943" />
<rom name="QUIZZ_FE (Track 08).bin" size="19105296" crc="87d9d349" md5="91179a350b8a7d497123a70683e96f17" sha1="c8f6140b3987f79aa8785993a961d4cf6ac964b3" />
<rom name="QUIZZ_FE (Track 09).bin" size="21295008" crc="05da8dd4" md5="2399145c726829042b0ffe65ea1343ba" sha1="ebe4cdbaefb5ccc97e56f14c3e96e94a5795896c" />
<rom name="QUIZZ_FE (Track 10).bin" size="19389888" crc="ce0cd4ac" md5="4a1b7eb71257a31635857fe46b3a7e77" sha1="7e501b2737e94e3268221ff1ab80b4a448244adb" />
<rom name="QUIZZ_FE (Track 11).bin" size="22245216" crc="018870de" md5="a62c41351bc8edc52ee0b4b5b4c41100" sha1="36c02fa1fa0863e3d5ce4e8e5702ff64355750b3" />
<rom name="QUIZZ_FE (Track 12).bin" size="20330688" crc="fb7fca52" md5="d2b638636857c57b5db7a2ab91bbf398" sha1="f2f136a18423a2836b9c4c1bf0d72dcfcab0e4cb" />
<rom name="QUIZZ_FE (Track 13).bin" size="21172704" crc="c08f6e05" md5="521239089b38d38004879ce9b2684697" sha1="131c60c55489f781bae396492ee8b9c430d1a719" />
<rom name="QUIZZ_FE (Track 14).bin" size="15212736" crc="9de5ead2" md5="540429e7380addfcf10c67789f7ba983" sha1="d5e219a1b00d89c044cc100674d63f7b46b93528" />
<rom name="QUIZZ_FE (Track 15).bin" size="21024528" crc="89c92866" md5="5da57248dcd56a29d330400a5b53d2e6" sha1="8db5eacfdde02b3a0917ac169205a8818b81e057" />
<rom name="QUIZZ_FE (Track 16).bin" size="25204032" crc="fb4c2117" md5="0fe013ecb442c43bbb9bb1c62a2cfd00" sha1="d42d86597a0815509650843cdeca17ad7a9b4570" />
<rom name="QUIZZ_FE (Track 17).bin" size="1517040" crc="1b15a360" md5="f2c112e6f3680df1be754266dadda20a" sha1="7733b7069fd5db3b07a2d74208b6796580a28cea" />
<rom name="QUIZZ_FE (Track 18).bin" size="10221792" crc="bbe7ac9c" md5="20a2f79527f0fc60c9c756bacf05d329" sha1="037e9a1a7a8a1f9af001329eae36d04cb77f27f5" />
<rom name="QUIZZ_FE (Track 19).bin" size="19857936" crc="5038ae62" md5="762600dd2037cd3ff1daa474479fbf05" sha1="47858aa59b05543359f60ba977c8f3978ff9d5c1" />
<rom name="QUIZZ_FE (Track 20).bin" size="8408400" crc="147aa415" md5="374ecf925d652edf81c20516b01bff5f" sha1="570c851364143f851cf60756b397b74dcf6bbf19" />
<rom name="QUIZZ_FE (Track 21).bin" size="6766704" crc="efef0b09" md5="b873973cd540cd3c4b74b550b3e12049" sha1="1563f7af30187c85034d5bcef3b74863b4297094" />
<rom name="QUIZZ_FE (Track 22).bin" size="5800032" crc="91dbe1dc" md5="c6851b46a9112e7b8486999eec40375b" sha1="304463f961626f9083887737297f8e38f16bd418" />

    Cuesheet:

CATALOG 0000000000000
FILE "QUIZZ_FE (Track 01).bin" BINARY
  TRACK 01 MODE1/2352
    INDEX 01 00:00:00
FILE "QUIZZ_FE (Track 02).bin" BINARY
  TRACK 02 AUDIO
    INDEX 00 00:00:00
    INDEX 01 00:02:00
FILE "QUIZZ_FE (Track 03).bin" BINARY
  TRACK 03 AUDIO
    INDEX 01 00:00:00
FILE "QUIZZ_FE (Track 04).bin" BINARY
  TRACK 04 AUDIO
    INDEX 01 00:00:00
FILE "QUIZZ_FE (Track 05).bin" BINARY
  TRACK 05 AUDIO
    INDEX 01 00:00:00
FILE "QUIZZ_FE (Track 06).bin" BINARY
  TRACK 06 AUDIO
    INDEX 01 00:00:00
FILE "QUIZZ_FE (Track 07).bin" BINARY
  TRACK 07 AUDIO
    INDEX 01 00:00:00
FILE "QUIZZ_FE (Track 08).bin" BINARY
  TRACK 08 AUDIO
    INDEX 01 00:00:00
FILE "QUIZZ_FE (Track 09).bin" BINARY
  TRACK 09 AUDIO
    INDEX 01 00:00:00
FILE "QUIZZ_FE (Track 10).bin" BINARY
  TRACK 10 AUDIO
    INDEX 01 00:00:00
FILE "QUIZZ_FE (Track 11).bin" BINARY
  TRACK 11 AUDIO
    INDEX 01 00:00:00
FILE "QUIZZ_FE (Track 12).bin" BINARY
  TRACK 12 AUDIO
    INDEX 01 00:00:00
FILE "QUIZZ_FE (Track 13).bin" BINARY
  TRACK 13 AUDIO
    INDEX 01 00:00:00
FILE "QUIZZ_FE (Track 14).bin" BINARY
  TRACK 14 AUDIO
    INDEX 01 00:00:00
FILE "QUIZZ_FE (Track 15).bin" BINARY
  TRACK 15 AUDIO
    INDEX 01 00:00:00
FILE "QUIZZ_FE (Track 16).bin" BINARY
  TRACK 16 AUDIO
    INDEX 01 00:00:00
FILE "QUIZZ_FE (Track 17).bin" BINARY
  TRACK 17 AUDIO
    INDEX 01 00:00:00
FILE "QUIZZ_FE (Track 18).bin" BINARY
  TRACK 18 AUDIO
    INDEX 01 00:00:00
FILE "QUIZZ_FE (Track 19).bin" BINARY
  TRACK 19 AUDIO
    INDEX 01 00:00:00
FILE "QUIZZ_FE (Track 20).bin" BINARY
  TRACK 20 AUDIO
    INDEX 01 00:00:00
FILE "QUIZZ_FE (Track 21).bin" BINARY
  TRACK 21 AUDIO
    INDEX 01 00:00:00
FILE "QUIZZ_FE (Track 22).bin" BINARY
  TRACK 22 AUDIO
    INDEX 01 00:00:00

    Write Offset: 0

14

(3,175 replies, posted in General discussion)

Probably the later, but maybe it's different than the regular english/european release.
It's the one listed in the PAL missing list (with the french cover which has a "Contenu Explicite" warning at the top left)

Here's an ebay listing, it's a pretty uncommon one: https://www.ebay.fr/itm/203694810733?ha … SwzNJhjYSA
Though not sure if it isn't just a stock picture, might be a good idea to ask the seller first.

Otherwise, as I have two copies, I can always send one your way.

15

(0 replies, posted in Verifications)

https://mega.nz/folder/JNRwCJbL#jMMzjikpmEW1o_ULS589DA

Common Disc Info:
    Title: Frogger 2: Swampy's Revenge
    Foreign Title (Non-latin): 
    Disc Number / Letter: 
    Disc Title: 
    System: IBM PC Compatible
    Media Type: CD-ROM
    Category: Games
    Matching IDs: 35413
    Region: Europe
    Languages: English, French, German, Italian
    Disc Serial: 99220.DL

    Ringcode Information:
        Data Side Mastering Code (laser branded/etched): SONOPRESS    ROMM A-34760/ 99220-100 A
        Data Side Mastering SID Code: IFPI L0 30
        Data Side Toolstamp or Mastering Code (engraved/stamped): 
        Data Side Mould SID Code: IFPI 0728
        Data Side Additional Mould: 
        Label Side Mould SID Code: (REQUIRED, IF EXISTS)
        Label Side Additional Mould: 
    Barcode: 5 023117 596117 >
    Error Count: 0
    Comments: 
    Contents: 

Version and Editions:
    Version: 
    Edition/Release: Original

Extras:
    Primary Volume Descriptor (PVD):

0320 : 20 20 20 20 20 20 20 20  20 20 20 20 20 32 30 30                200
0330 : 30 30 39 30 39 31 31 34  34 34 33 36 32 04 32 30   0090911444362.20
0340 : 30 30 30 39 30 39 31 31  34 37 31 30 39 33 00 00   00090911471093..
0350 : 00 00 00 00 00 00 00 00  00 00 00 00 00 00 00 00   ................
0360 : 00 00 00 00 00 00 00 00  00 00 00 00 00 00 00 00   ................
0370 : 00 01 00 00 00 00 00 00  00 00 00 00 00 00 00 00   ................

Copy Protection:
    Copy Protection: None found

Tracks and Write Offsets:
    DAT:

<rom name="FROGGER2 (Track 01).bin" size="217630560" crc="7768d1df" md5="7aa7d9db28217dae374ad16837e095e6" sha1="66b2157b62bffe43d89143a26572b98f4ddbd3a3" />
<rom name="FROGGER2 (Track 02).bin" size="29997408" crc="fd8c7e05" md5="31a62623da098544a62c2009a7a12573" sha1="9f8a44abfd00ddee8dbd9ca560b058e0987ca109" />
<rom name="FROGGER2 (Track 03).bin" size="35327040" crc="037d1b3c" md5="4a15f541a290275adbf56d7975803897" sha1="2ff6256ab13f1e6396895e57bde67342698dc9a5" />
<rom name="FROGGER2 (Track 04).bin" size="35195328" crc="6fee98a5" md5="f06b6b6b420887f4407dbcfed87c21a7" sha1="0a4e54983d64a875dfc2b1ea38d2b83f4ddbc242" />
<rom name="FROGGER2 (Track 05).bin" size="32387040" crc="a480516e" md5="b288824bb69e56e97f2952cf63358be8" sha1="3b4d36b7975b184fe96c250d487ea3a0b639613f" />
<rom name="FROGGER2 (Track 06).bin" size="34847232" crc="700dc742" md5="5ffd7f6f7a9d5d37f1eb5f5beeffdec1" sha1="58b6629c091d35f27f0a7ee12782e6a231e6bc53" />
<rom name="FROGGER2 (Track 07).bin" size="32699856" crc="b1260875" md5="4bd9419782749dc24a658d52e1e40a16" sha1="507c1df240e85b609d389d1dacd42d19dda80dfa" />
<rom name="FROGGER2 (Track 08).bin" size="31834320" crc="ba6521bb" md5="20aac8f9e0a2b14b695effe166a2a425" sha1="ad7ae219563db42a5d894f5629508fb74be77198" />
<rom name="FROGGER2 (Track 09).bin" size="32372928" crc="bfcd3cd8" md5="f278355f0f30776792fba68587e13f3a" sha1="23bcd63becea718bc205ba26929be5025dffeb44" />
<rom name="FROGGER2 (Track 10).bin" size="2344944" crc="6a15f271" md5="7998791fccafc60285e1c419dc0fc567" sha1="cd0f1ad197d0cb8571994b7ae8ef89cabbfaacfd" />
<rom name="FROGGER2 (Track 11).bin" size="1853376" crc="5268e8c4" md5="ae56f7c2f086bb6fd835f1c0d90728c6" sha1="213935faccb0028cc614190d7ea5bdae97d3a31c" />
<rom name="FROGGER2 (Track 12).bin" size="3184608" crc="16477a95" md5="a8f333d64324aa555dba8076fd1cb806" sha1="212cbcadfa6ed4a1cb444a443897c8d6258cba42" />

    Cuesheet:

FILE "FROGGER2 (Track 01).bin" BINARY
  TRACK 01 MODE1/2352
    INDEX 01 00:00:00
FILE "FROGGER2 (Track 02).bin" BINARY
  TRACK 02 AUDIO
    INDEX 00 00:00:00
    INDEX 01 00:01:74
FILE "FROGGER2 (Track 03).bin" BINARY
  TRACK 03 AUDIO
    INDEX 00 00:00:00
    INDEX 01 00:01:74
FILE "FROGGER2 (Track 04).bin" BINARY
  TRACK 04 AUDIO
    INDEX 00 00:00:00
    INDEX 01 00:01:74
FILE "FROGGER2 (Track 05).bin" BINARY
  TRACK 05 AUDIO
    INDEX 00 00:00:00
    INDEX 01 00:01:74
FILE "FROGGER2 (Track 06).bin" BINARY
  TRACK 06 AUDIO
    INDEX 00 00:00:00
    INDEX 01 00:01:74
FILE "FROGGER2 (Track 07).bin" BINARY
  TRACK 07 AUDIO
    INDEX 00 00:00:00
    INDEX 01 00:01:74
FILE "FROGGER2 (Track 08).bin" BINARY
  TRACK 08 AUDIO
    INDEX 00 00:00:00
    INDEX 01 00:01:74
FILE "FROGGER2 (Track 09).bin" BINARY
  TRACK 09 AUDIO
    INDEX 00 00:00:00
    INDEX 01 00:01:74
FILE "FROGGER2 (Track 10).bin" BINARY
  TRACK 10 AUDIO
    INDEX 00 00:00:00
    INDEX 01 00:01:74
FILE "FROGGER2 (Track 11).bin" BINARY
  TRACK 11 AUDIO
    INDEX 00 00:00:00
    INDEX 01 00:01:74
FILE "FROGGER2 (Track 12).bin" BINARY
  TRACK 12 AUDIO
    INDEX 00 00:00:00
    INDEX 01 00:01:74

    Write Offset: -12

16

(3,175 replies, posted in General discussion)

I'm trying to dump one of the missing XBOX games ("Scarface") that DIC seems to have an issue with right at the start.
I have two copies of the game and both are doing the same thing.

LBA[1913770, 0x1d33aa]: [F:ReadXBOXDirectoryRecord][L:1180]
    Opcode: 0xa8
    ScsiStatus: 0x02 = CHECK_CONDITION
    SenseData Key-Asc-Ascq: 03-02-00 = MEDIUM_ERROR - NO SEEK COMPLETE

Here are the other logs : https://mega.nz/file/pA4E0aSa#QlvW1odUt … pZRyaoaT8o

I tried with XBC and Freecell, which are dumping it fine...up to a certain point.

Any idea of what could be happening ? smile

https://mega.nz/folder/cdxRXQZY#2coAjQ8dG0kXd1hvpfxqNg

Common Disc Info:
    Title: Dungeon Master II: The Legend of Skullkeep
    Foreign Title (Non-latin): 
    Disc Number / Letter: 
    Disc Title: 
    System: Apple Macintosh
    Media Type: CD-ROM
    Category: Games
    Matching IDs: 64056
    Region: USA
    Languages: English
    Disc Serial: CD-MCR-046-0

    Ringcode Information:
        Data Side Mastering Code (laser branded/etched): FM10581    (CDR-MCR-046-0/INTERPLAY)    C2    107457-01
        Data Side Mastering SID Code: IFPI L892
        Data Side Toolstamp or Mastering Code (engraved/stamped): 
        Data Side Mould SID Code: 
        Data Side Additional Mould: 
        Label Side Mould SID Code: 
        Label Side Additional Mould: 
    Barcode: 0 40421 27046 0
    Error Count: 0
    Comments: 
    Contents: 

Version and Editions:
    Version: 1.0
    Edition/Release: MacPlay

Extras:
    Primary Volume Descriptor (PVD): Disc has no PVD

Copy Protection:
    Copy Protection: None found

Tracks and Write Offsets:
    DAT:

<rom name="Dungeon_Master_II_the_legend_of_skullskeep.bin" size="758851632" crc="1540868a" md5="0973ce6dcbac03ba5f03c2288eda0837" sha1="b4c131261888021d9ad53b20fe8b1a4adf8b4a32" />

    Cuesheet:

FILE "Dungeon_Master_II_the_legend_of_skullskeep.bin" BINARY
  TRACK 01 MODE1/2352
    INDEX 01 00:00:00

    Write Offset: -22

https://mega.nz/folder/9VwwnCoT#Pilc9fv8xvapJ3NUby5BSg

Common Disc Info:
    Title: CD-i Demonstration Disc
    Foreign Title (Non-latin): 
    Disc Number / Letter: 
    Disc Title: 
    System: Philips CD-i
    Media Type: CD-ROM
    Category: Multimedia
    Matching IDs: 73313
    Region: USA
    Languages: English
    Disc Serial: 

    Ringcode Information:
        Data Side Mastering Code (laser branded/etched): KIOSK 01!
        Data Side Mastering SID Code: 
        Data Side Toolstamp or Mastering Code (engraved/stamped): E
        Data Side Mould SID Code: 
        Data Side Additional Mould: 
        Label Side Mould SID Code: 
        Label Side Additional Mould: 
    Barcode: 
    Error Count: 0
    Comments: Demonstration disc "Not for sale - for demonstration only"
    Contents: 

Version and Editions:
    Version: 
    Edition/Release: Demonstration

Extras:
    Primary Volume Descriptor (PVD):

0320 : 20 20 20 20 20 20 20 20  00 00 00 00 00 31 39 39           .....199
0330 : 32 31 32 31 34 31 32 32  38 35 38 30 30 00 30 30   2121412285800.00
0340 : 30 30 30 30 30 30 30 30  30 30 30 30 30 30 00 30   00000000000000.0
0350 : 30 30 30 30 30 30 30 30  30 30 30 30 30 30 30 00   000000000000000.
0360 : 30 30 30 30 30 30 30 30  30 30 30 30 30 30 30 30   0000000000000000
0370 : 00 01 00 00 00 00 00 00  00 00 00 00 00 00 00 00   ................

Tracks and Write Offsets:
    DAT:

<rom name="PIMA_CDI_DEMO.bin" size="196862400" crc="51ab4e30" md5="af6052b148017d9722855fa969367c78" sha1="fd50de1b74f34660886090b7a916ff146f1462bc" />

    Cuesheet:

CATALOG 0000000000000
FILE "PIMA_CDI_DEMO.bin" BINARY
  TRACK 01 CDI/2352
    INDEX 01 00:00:00

    Write Offset: 0

This was in a case with a "The vision factory bundle" homemade sticker on the side.
To remove from the missing list on the wiki

https://mega.nz/folder/YA4wnJbB#DNyFUp65yLK5GIyspPOuMQ



This is the correct disc for "The Vision factory bundle", see the "Game Facts" there : http://www.blackmoonproject.co.uk/archi … e_disk.php

Common Disc Info:
    Title: Free Gold Club Disk
    Foreign Title (Non-latin): 
    Disc Number / Letter: 
    Disc Title:
    System: Philips CD-i
    Media Type: CD-ROM
    Category: Demos
    Matching IDs: 78219
    Region: Netherlands
    Languages: 
    Disc Serial: 

    Ringcode Information:
        Data Side Mastering Code (laser branded/etched): EOD ERS  CDI 1094    02
        Data Side Mastering SID Code: IFPI L292
        Data Side Toolstamp or Mastering Code (engraved/stamped): 
        Data Side Mould SID Code: 
        Data Side Additional Mould: 5
        Label Side Mould SID Code: 
        Label Side Additional Mould: 
    Barcode: 
    Error Count: 0
    Comments:

CD-i Ready

Distributed by Free Record Shop

    Contents: 

Version and Editions:
    Version: 
    Edition/Release: Original

Extras:
    Primary Volume Descriptor (PVD): Disc has no PVD

Tracks and Write Offsets:
    DAT:

<rom name="The_Vision_factory_bundle (Track 1).bin" size="132652800" crc="977c2f1e" md5="4660ccea18b64c07698db968588cb75f" sha1="34fef5d46138f79dc716fea8dc03c0fb1fc571d5" />
<rom name="The_Vision_factory_bundle (Track 2).bin" size="37573200" crc="bb2a9fe8" md5="d3bf2eb48c75c2114543ff6ee2c71d3f" sha1="1d8c793f7e7ffe13a7b88aa82bf90aac7410af8e" />
<rom name="The_Vision_factory_bundle (Track 3).bin" size="4233600" crc="2913b64f" md5="9c16d6f49c6a71852eb935ff486f3dfa" sha1="17e4c819dc88704ac57806f9dd40ae3542fc5d5a" />
<rom name="The_Vision_factory_bundle (Track 4).bin" size="44276400" crc="295e28c6" md5="63b7c14c0da57e7ed4c2f77904ed1e2f" sha1="fe10e48eaf7ee1c064e709fdad379dc658864856" />
<rom name="The_Vision_factory_bundle (Track 5).bin" size="37926000" crc="b5bef670" md5="feb39d1caf125062eeeaf43202953aa1" sha1="d67665ac9bbdb6d858aeaf9f8a0b942a6a879811" />
<rom name="The_Vision_factory_bundle (Track 6).bin" size="16228800" crc="f676cf7a" md5="27d6d87502f1967d19916d7df4ddf059" sha1="279f09fee24b9fc720a1acb8a5a505f99f3275f5" />
<rom name="The_Vision_factory_bundle (Track 7).bin" size="58564800" crc="44958df6" md5="a9d40af786b30e586cff0851a772155f" sha1="65214cd89088c017eea7e80648f001095f0fd35f" />
<rom name="The_Vision_factory_bundle (Track 8).bin" size="32634000" crc="245a1bc0" md5="528cd90bcdf667276998869d04ff09bd" sha1="6b17cf15b1dbc417fb0328279a1a86cb21b2c9be" />
<rom name="The_Vision_factory_bundle (Track 9).bin" size="31399200" crc="8732976c" md5="f10377a762ca29b5efaf656f4faca047" sha1="2b2e4a9d5a6322efd03063e2a9697fa0d16dcc89" />

    Cuesheet:

FILE "The_Vision_factory_bundle (Track 1).bin" BINARY
  TRACK 01 AUDIO
    INDEX 00 00:00:00
    INDEX 01 08:37:00
FILE "The_Vision_factory_bundle (Track 2).bin" BINARY
  TRACK 02 AUDIO
    INDEX 00 00:00:00
    INDEX 01 00:02:00
FILE "The_Vision_factory_bundle (Track 3).bin" BINARY
  TRACK 03 AUDIO
    INDEX 00 00:00:00
    INDEX 01 00:02:00
FILE "The_Vision_factory_bundle (Track 4).bin" BINARY
  TRACK 04 AUDIO
    INDEX 00 00:00:00
    INDEX 01 00:02:00
FILE "The_Vision_factory_bundle (Track 5).bin" BINARY
  TRACK 05 AUDIO
    INDEX 00 00:00:00
    INDEX 01 00:02:00
FILE "The_Vision_factory_bundle (Track 6).bin" BINARY
  TRACK 06 AUDIO
    INDEX 00 00:00:00
    INDEX 01 00:02:00
FILE "The_Vision_factory_bundle (Track 7).bin" BINARY
  TRACK 07 AUDIO
    INDEX 00 00:00:00
    INDEX 01 00:02:00
FILE "The_Vision_factory_bundle (Track 8).bin" BINARY
  TRACK 08 AUDIO
    INDEX 00 00:00:00
    INDEX 01 00:02:00
FILE "The_Vision_factory_bundle (Track 9).bin" BINARY
  TRACK 09 AUDIO
    INDEX 00 00:00:00
    INDEX 01 00:02:00

    Write Offset: -22

https://mega.nz/folder/tYpAQDAA#Oyov0WqYX5QYfUoQsmFoiw

Common Disc Info:
    Title: The Philips Partner Programme: Paris, June 24th 1992
    Foreign Title (Non-latin): 
    Disc Number / Letter: 
    Disc Title: 
    System: Philips CD-i
    Media Type: CD-ROM
    Category: Multimedia
    Matching IDs: 81800
    Region: Europe
    Languages: 
    Disc Serial: 

    Ringcode Information:
        Data Side Mastering Code (laser branded/etched): 920062    50252 913 02 >
        Data Side Mastering SID Code: 
        Data Side Toolstamp or Mastering Code (engraved/stamped): X
        Data Side Mould SID Code: 
        Data Side Additional Mould: MADE IN GERMANY
        Label Side Mould SID Code: 
        Label Side Additional Mould: 
    Barcode: 
    Error Count: 0
    Comments: 
    Contents: 

Version and Editions:
    Version: 
    Edition/Release: Original

Extras:
    Primary Volume Descriptor (PVD):

0320 : 20 20 20 20 20 20 20 20  00 00 00 00 00 31 39 39           .....199
0330 : 32 30 36 31 36 31 37 31  31 30 34 30 30 00 30 30   2061617110400.00
0340 : 30 30 30 30 30 30 30 30  30 30 30 30 30 30 00 30   00000000000000.0
0350 : 30 30 30 30 30 30 30 30  30 30 30 30 30 30 30 00   000000000000000.
0360 : 30 30 30 30 30 30 30 30  30 30 30 30 30 30 30 30   0000000000000000
0370 : 00 01 00 00 00 00 00 00  00 00 00 00 00 00 00 00   ................

Tracks and Write Offsets:
    DAT:

<rom name="The_Philips_partner_program_paris_june_24th_1992.bin" size="122950800" crc="5ac465bb" md5="95c47d66c3014b675054f6b4882b8805" sha1="c6c0254d1bb7cd32e00b7fbbba956d21a2a1f501" />

    Cuesheet:

FILE "The_Philips_partner_program_paris_june_24th_1992.bin" BINARY
  TRACK 01 CDI/2352
    INDEX 01 00:00:00

    Write Offset: 633

https://mega.nz/folder/QAYQwbZJ#8FjnoIWpAcw1DD1lmF8s1g

Common Disc Info:
    Title: Sailing
    Foreign Title (Non-latin): 
    Disc Number / Letter: 
    Disc Title: 
    System: Philips CD-i
    Media Type: CD-ROM
    Category: Preproduction
    Matching IDs: 73818
    Region: USA
    Languages: English
    Disc Serial: 310-690-101-2

    Ringcode Information:
        Data Side Mastering Code (laser branded/etched): 10120224 01!
        Data Side Mastering SID Code: 
        Data Side Toolstamp or Mastering Code (engraved/stamped): A
        Data Side Mould SID Code: 
        Data Side Additional Mould: 
        Label Side Mould SID Code: 
        Label Side Additional Mould: 
    Barcode: 
    Error Count: 0
    Comments: Demonstration Disc "Not for resale"
    Contents: 

Version and Editions:
    Version: 
    Edition/Release: Original

Extras:
    Primary Volume Descriptor (PVD):

0320 : 20 20 20 20 20 20 20 20  00 00 00 00 00 31 39 39           .....199
0330 : 33 30 32 30 36 31 38 35  33 35 33 30 30 00 31 39   3020618535300.19
0340 : 39 33 30 32 30 36 31 38  35 33 35 33 30 30 00 30   93020618535300.0
0350 : 30 30 30 30 30 30 30 30  30 30 30 30 30 30 30 00   000000000000000.
0360 : 31 39 39 33 30 32 30 36  31 38 35 33 35 33 30 30   1993020618535300
0370 : 00 01 00 00 00 00 00 00  00 00 00 00 00 00 00 00   ................

Tracks and Write Offsets:
    DAT:

<rom name="Sailing_demonstration_disc.bin" size="646517760" crc="82cb60b2" md5="250a3cadf3a251a3deb9704806cdb519" sha1="9c9c1b7ed4fe6112f3e4da203c338dadcb31cc4b" />

    Cuesheet:

CATALOG 0000000000000
FILE "Sailing_demonstration_disc.bin" BINARY
  TRACK 01 CDI/2352
    INDEX 01 00:00:00

    Write Offset: 0

https://mega.nz/folder/8QY2FByJ#DOoQHADxrLjT0gUzhV4-yA

Common Disc Info:
    Title: Philip Morris: Follow Your Dreams
    Foreign Title (Non-latin): 
    Disc Number / Letter: 
    Disc Title: 
    System: Philips CD-i
    Media Type: CD-ROM
    Category: Games
    Matching IDs: 81376
    Region: Germany
    Languages: 
    Disc Serial: 

    Ringcode Information:
        Data Side Mastering Code (laser branded/etched): MATGAME 930122
        Data Side Mastering SID Code: 
        Data Side Toolstamp or Mastering Code (engraved/stamped): 
        Data Side Mould SID Code: 
        Data Side Additional Mould: 
        Label Side Mould SID Code: 
        Label Side Additional Mould: 
    Barcode: 
    Error Count: 0
    Comments: 
    Contents:

[+]1. Marlboro Abenteuer CDI Routing Game

2. The Dream (Raft Ravenscraft)

3. Dreams Are All Around Us (Raft Ravenscraft)

4. Great Wide Land (Papst, Slavik Sieber, Rohmuller)

5. Don't Look Back (Zimmer, Rifkin)

6. Original Movie Soundtrack (Raft Ravenscraft)

Version and Editions:
    Version: 
    Edition/Release: Original 

Extras:
    Primary Volume Descriptor (PVD):

0320 : 20 20 20 20 20 20 20 20  00 00 00 00 00 31 39 39           .....199
0330 : 33 30 31 32 30 31 39 34  33 34 34 30 30 00 30 30   3012019434400.00
0340 : 30 30 30 30 30 30 30 30  30 30 30 30 30 30 00 30   00000000000000.0
0350 : 30 30 30 30 30 30 30 30  30 30 30 30 30 30 30 00   000000000000000.
0360 : 30 30 30 30 30 30 30 30  30 30 30 30 30 30 30 30   0000000000000000
0370 : 00 01 00 00 00 00 00 00  00 00 00 00 00 00 00 00   ................

Tracks and Write Offsets:
    DAT:

<rom name="Philips_Morris (Track 1).bin" size="154883904" crc="55a2530d" md5="c9667bae31e21aa93504704672a47433" sha1="db6b72727863d97db795db723aa6863b179e1099" />
<rom name="Philips_Morris (Track 2).bin" size="35635152" crc="ba981b55" md5="3ae0cf3e33aa4c2ffb0c2939589e9242" sha1="aea18cecdd3784e048edf35e80893958f2ec46a3" />
<rom name="Philips_Morris (Track 3).bin" size="30997008" crc="aeb5508c" md5="6f388d665d774a7333c0cc0a83da1b52" sha1="db082f8c3e4124f5ca9adc204bdcd142ccffc275" />
<rom name="Philips_Morris (Track 4).bin" size="34990704" crc="9ecf85dd" md5="58af07d934bfca9accb85b2d77cfe5f1" sha1="1f7c991fb425e1725def04ca03762a0d380f0f60" />
<rom name="Philips_Morris (Track 5).bin" size="41651568" crc="6c4db7d9" md5="89fa04de0d3cdda76d02df21732134a4" sha1="a405f525a70c5edb04fafd6d9aa2751aac0143b4" />
<rom name="Philips_Morris (Track 6).bin" size="17303664" crc="aa791a5d" md5="d582719317286b750fc58ad712fa810a" sha1="42687f28bd6eeff106bcd176ac5b66364ae2de05" />

    Cuesheet:

CATALOG 0000000000000
FILE "Philips_Morris (Track 1).bin" BINARY
  TRACK 01 CDI/2352
    INDEX 01 00:00:00
FILE "Philips_Morris (Track 2).bin" BINARY
  TRACK 02 AUDIO
    INDEX 00 00:00:00
    INDEX 01 00:02:00
FILE "Philips_Morris (Track 3).bin" BINARY
  TRACK 03 AUDIO
    INDEX 01 00:00:00
FILE "Philips_Morris (Track 4).bin" BINARY
  TRACK 04 AUDIO
    INDEX 01 00:00:00
FILE "Philips_Morris (Track 5).bin" BINARY
  TRACK 05 AUDIO
    INDEX 01 00:00:00
FILE "Philips_Morris (Track 6).bin" BINARY
  TRACK 06 AUDIO
    INDEX 01 00:00:00

    Write Offset: 0

https://mega.nz/folder/ZMpgRDza#55cBcadtjgdO3sEIse69JA

Common Disc Info:
    Title: Free Record Shop Holding: Jaarbericht 1992 / 1993: Annual Report 1992 / 1993
    Foreign Title (Non-latin): 
    Disc Number / Letter: 
    Disc Title: 
    System: Philips CD-i
    Media Type: CD-ROM
    Category: Multimedia
    Matching IDs: 78648
    Region: Netherlands
    Languages: Dutch, English
    Disc Serial: 

    Ringcode Information:
        Data Side Mastering Code (laser branded/etched): EOD FREE 1992/1993 01!
        Data Side Mastering SID Code: 
        Data Side Toolstamp or Mastering Code (engraved/stamped): 
        Data Side Mould SID Code: 
        Data Side Additional Mould: 
        Label Side Mould SID Code: 
        Label Side Additional Mould: 
    Barcode: 
    Error Count: 0
    Comments: 
    Contents: 

Version and Editions:
    Version: 
    Edition/Release: Original

Extras:
    Primary Volume Descriptor (PVD):

0320 : 20 20 20 20 20 20 20 20  20 20 20 20 20 31 39 39                199
0330 : 34 30 32 30 31 31 36 30  39 30 36 30 30 00 30 30   4020116090600.00
0340 : 30 30 30 30 30 30 30 30  30 30 30 30 30 30 00 30   00000000000000.0
0350 : 30 30 30 30 30 30 30 30  30 30 30 30 30 30 30 00   000000000000000.
0360 : 30 30 30 30 30 30 30 30  30 30 30 30 30 30 30 30   0000000000000000
0370 : 00 01 00 00 00 00 00 00  00 00 00 00 00 00 00 00   ................

Tracks and Write Offsets:
    DAT:

<rom name="Jaarbericht_1992_1993_annual_report_SPC.bin" size="558482400" crc="c984c7f5" md5="0e192ca6bab939a2d51956d16f010298" sha1="f5266a86cc357e8be78e31b0a3fabb03ac3ed596" />

    Cuesheet:

FILE "Jaarbericht_1992_1993_annual_report_SPC.bin" BINARY
  TRACK 01 CDI/2352
    INDEX 01 00:00:00

    Write Offset: -22

https://mega.nz/folder/ZMpgRDza#55cBcadtjgdO3sEIse69JA

Common Disc Info:
    Title: Free Record Shop Holding: Jaarbericht 1992 / 1993: Annual Report 1992 / 1993
    Foreign Title (Non-latin): 
    Disc Number / Letter: 
    Disc Title: 
    System: Philips CD-i
    Media Type: CD-ROM
    Category: Multimedia
    Matching IDs: 78648
    Region: Netherlands
    Languages: Dutch, English
    Disc Serial: 

    Ringcode Information:
        Data Side Mastering Code (laser branded/etched): EOD FREE 1992/1993 01!
        Data Side Mastering SID Code: 
        Data Side Toolstamp or Mastering Code (engraved/stamped): 
        Data Side Mould SID Code: 
        Data Side Additional Mould: 
        Label Side Mould SID Code: 
        Label Side Additional Mould: 
    Barcode: 
    Error Count: 0
    Comments: 
    Contents: 

Version and Editions:
    Version: 
    Edition/Release: Original

Extras:
    Primary Volume Descriptor (PVD):

0320 : 20 20 20 20 20 20 20 20  20 20 20 20 20 31 39 39                199
0330 : 34 30 32 30 31 31 36 30  39 30 36 30 30 00 30 30   4020116090600.00
0340 : 30 30 30 30 30 30 30 30  30 30 30 30 30 30 00 30   00000000000000.0
0350 : 30 30 30 30 30 30 30 30  30 30 30 30 30 30 30 00   000000000000000.
0360 : 30 30 30 30 30 30 30 30  30 30 30 30 30 30 30 30   0000000000000000
0370 : 00 01 00 00 00 00 00 00  00 00 00 00 00 00 00 00   ................

Tracks and Write Offsets:
    DAT:

<rom name="Jaarbericht_1992_1993_annual_report_SPC.bin" size="558482400" crc="c984c7f5" md5="0e192ca6bab939a2d51956d16f010298" sha1="f5266a86cc357e8be78e31b0a3fabb03ac3ed596" />

    Cuesheet:

FILE "Jaarbericht_1992_1993_annual_report_SPC.bin" BINARY
  TRACK 01 CDI/2352
    INDEX 01 00:00:00

    Write Offset: -22

https://mega.nz/folder/8NhGRDrB#kIrGAgWszoULSFLMLP5fLw

Common Disc Info:
    Title: Gateshead 1900: A Guide to Tyneside 100 Years Ago
    Foreign Title (Non-latin): 
    Disc Number / Letter: 
    Disc Title: 
    System: Philips CD-i
    Media Type: CD-ROM
    Category: Multimedia
    Matching IDs: 84642
    Region: UK
    Languages: English
    Disc Serial: 

    Ringcode Information:
        Data Side Mastering Code (laser branded/etched): DISCTRONICS    S GATESHEAD 19 01
        Data Side Mastering SID Code: 
        Data Side Toolstamp or Mastering Code (engraved/stamped): 
        Data Side Mould SID Code: 
        Data Side Additional Mould: 8
        Label Side Mould SID Code: 
        Label Side Additional Mould: 
    Barcode: 
    Error Count: 0
    Comments: 
    Contents: 

Version and Editions:
    Version: 
    Edition/Release: Original

Extras:
    Primary Volume Descriptor (PVD):

0320 : 20 20 20 20 20 20 20 20  20 20 20 20 20 31 39 39                199
0330 : 35 31 30 32 34 31 35 34  32 34 32 30 30 00 30 30   5102415424200.00
0340 : 30 30 30 30 30 30 30 30  30 30 30 30 30 30 00 30   00000000000000.0
0350 : 30 30 30 30 30 30 30 30  30 30 30 30 30 30 30 00   000000000000000.
0360 : 30 30 30 30 30 30 30 30  30 30 30 30 30 30 30 30   0000000000000000
0370 : 00 01 00 00 00 00 00 00  00 00 00 00 00 00 00 00   ................

Tracks and Write Offsets:
    DAT:

<rom name="Gateshead_1900.bin" size="637161504" crc="0402b86e" md5="c894ce07f4b8c0848d84fa82316b284a" sha1="c58642357e8eccaf6f7104179fe849542103e667" />

    Cuesheet:

CATALOG 0000000000000
FILE "Gateshead_1900.bin" BINARY
  TRACK 01 CDI/2352
    INDEX 01 00:00:00

    Write Offset: 222