1

(1 replies, posted in Verifications)

Common Disc Info:
    Title: Fuujin Ryouiki Eretzvaju
    Foreign Title (Non-latin): 封神領域エルツヴァーユ
    Disc Number / Letter:
    Disc Title:
    System: Sony PlayStation
    Media Type: CD-ROM
    Category: Games
    Matching IDs: 16956
    Region: Asia
    Languages: Japanese
    Disc Serial: SCPS 45373

    Ringcode Information:
        Mastering Code (laser branded/etched):
        Mastering SID Code:
        Data-Side Mould SID Code: IFPI 457C
        Label-Side Mould SID Code:
        Additional Mould:
        Toolstamp or Mastering Code (engraved/stamped):
    Barcode:
    Error Count: 0
    Comments: Asia release has no barcode attached. Brings two manuals, one written in
          Japanese and the other in Chinese / English.
    Contents:

Version and Editions:
    Version:
    Edition/Release: Original

EDC:
    EDC: Yes

Extras:
    Primary Volume Descriptor (PVD):

0320 : 20 20 20 20 20 20 20 20  20 20 20 20 20 31 39 39                199
0330 : 37 30 38 31 36 31 39 33  33 32 35 30 30 24 30 30   7081619332500$00
0340 : 30 30 30 30 30 30 30 30  30 30 30 30 30 30 00 30   00000000000000.0
0350 : 30 30 30 30 30 30 30 30  30 30 30 30 30 30 30 00   000000000000000.
0360 : 30 30 30 30 30 30 30 30  30 30 30 30 30 30 30 30   0000000000000000
0370 : 00 01 00 00 00 00 00 00  00 00 00 00 00 00 00 00   ................

Copy Protection:
    Anti-modchip: No
    LibCrypt: No

Tracks and Write Offsets:
    DAT:

<rom name="Fuujin Ryouiki Eretzvaju (Japan).bin" size="734324976" crc="ab7b9428" md5="373fd51b43990650c47e6ce5649deed4" sha1="4cacc015c8244bf6a2f9243bd925d50f19fed1df" />

    Cuesheet:

FILE "Fuujin Ryouiki Eretzvaju (Japan).bin" BINARY
  TRACK 01 MODE2/2352
    INDEX 01 00:00:00

    Write Offset: 2

https://cdn.discordapp.com/attachments/ … u_Japan.7z

Common Disc Info:
    Title: Puyo Puyo 25th Anniversary CD
    Foreign Title (Non-latin): ぷよぷよ 25周年アニバーサリーCD
    Disc Number / Letter: 3
    Disc Title:
    System: Audio CD
    Media Type: CD-ROM
    Category: Audio
    Region: Japan
    Disc Serial:  HCV-1015

    Ringcode Information:
        Mastering Code (laser branded/etched): HCV-1015-02887  MT J01
        Mastering SID Code: IFPI LT40
        Data-Side Mould SID Code: IFPI 4471
        Label-Side Mould SID Code:
        Additional Mould:
        Toolstamp or Mastering Code (engraved/stamped):
    Barcode: 4974365911171
    Error Count: 0
    Comments:
    Contents:

Version and Editions:
    Version:
    Edition/Release: Original

Extras:
    Primary Volume Descriptor (PVD): Disc has no PVD

Tracks and Write Offsets:
    DAT:

<rom name="Puyo Puyo 25th Anniversary CD (Disc 3) (Japan) (Track 01).bin" size="75282816" crc="10859c09" md5="7afda49cacd9dc70cf5803b470027072" sha1="ecffd3a983151efdcd941a037cb22b8911f155d0" />
<rom name="Puyo Puyo 25th Anniversary CD (Disc 3) (Japan) (Track 02).bin" size="83098512" crc="3d3878bd" md5="6c01b9cfef21fc7273dc3eba5b61a234" sha1="8bb4a7b7b017e6af4582077aa74731de530c081c" />
<rom name="Puyo Puyo 25th Anniversary CD (Disc 3) (Japan) (Track 03).bin" size="112458528" crc="7aac7c7c" md5="0316ce4ffae6de9229f5a676514b8963" sha1="ec9cc025a2084431c1d76820429136f9201a3586" />
<rom name="Puyo Puyo 25th Anniversary CD (Disc 3) (Japan) (Track 04).bin" size="108196704" crc="04b7c66b" md5="f1d4a1ba828fb74fed53e009179f6629" sha1="475ea4357c57c0cc095c84a7ab0210822cde71a7" />
<rom name="Puyo Puyo 25th Anniversary CD (Disc 3) (Japan) (Track 05).bin" size="13246464" crc="6cee1526" md5="4010bfc1e5279439cfd2cd075e06588e" sha1="fe6ee32fbd1db8a7baf33eca2c2ab420e7b84385" />
<rom name="Puyo Puyo 25th Anniversary CD (Disc 3) (Japan) (Track 06).bin" size="13128864" crc="6e1ec7c5" md5="f154a67e2c900ad9611bcd808ad32e50" sha1="db1f115b7f65ec4cf0fcddfd3e00beb63017eafe" />
<rom name="Puyo Puyo 25th Anniversary CD (Disc 3) (Japan) (Track 07).bin" size="13128864" crc="5f2f6336" md5="dcf2b7fa314aa4c2cb95d0b828145d6d" sha1="97f0b1edb895770e82588daa8b9802a893307a60" />
<rom name="Puyo Puyo 25th Anniversary CD (Disc 3) (Japan) (Track 08).bin" size="13248816" crc="6f5c89d8" md5="f164d2920c6df755e4973a7702746651" sha1="3d0615c6b08868b5847c8be3f28f2672ca0cf221" />
<rom name="Puyo Puyo 25th Anniversary CD (Disc 3) (Japan) (Track 09).bin" size="13502832" crc="89ac737a" md5="ce79afb7be22c23b672ed9ec5327b78b" sha1="f26b548640b4e7cb27d51a0ae17b6adba897c1f8" />
<rom name="Puyo Puyo 25th Anniversary CD (Disc 3) (Japan) (Track 10).bin" size="13752144" crc="7667dce0" md5="894a15d6f5427d54d9ad5cf0955985a5" sha1="ffb3bc576e8bdd3f84f346bcf8ac9129ce3f25bc" />
<rom name="Puyo Puyo 25th Anniversary CD (Disc 3) (Japan) (Track 11).bin" size="13613376" crc="a46d2c40" md5="00d199b82ee25833a1c439c1e672ce29" sha1="323b05b51cbe99576cb35f17d36f74fa5c684b27" />
<rom name="Puyo Puyo 25th Anniversary CD (Disc 3) (Japan) (Track 12).bin" size="14862288" crc="90cb60d7" md5="2c7c40d3cb8e6f9ce224cc06ec53e04c" sha1="02de41e716be9e84d7dfa48f3005c09c340c2932" />
<rom name="Puyo Puyo 25th Anniversary CD (Disc 3) (Japan) (Track 13).bin" size="15191568" crc="7f186c37" md5="c1b2716696f216c96b1c558407a4bd97" sha1="65c4d0c0d82d0d5c76a8e2da4709bf6ff19481f6" />
<rom name="Puyo Puyo 25th Anniversary CD (Disc 3) (Japan) (Track 14).bin" size="14650608" crc="cbfd81fb" md5="52f617f4419a004cd67a44e60841ade9" sha1="6f50742300f055b3318487396e53e0467dd139dc" />
<rom name="Puyo Puyo 25th Anniversary CD (Disc 3) (Japan) (Track 15).bin" size="14612976" crc="ac9b8c35" md5="383e4e6b1568b9d74f5ed2c1c67cbb5e" sha1="e09b8f9a20d0230b6b632085dbf59af5e5eb6b0f" />
<rom name="Puyo Puyo 25th Anniversary CD (Disc 3) (Japan) (Track 16).bin" size="15539664" crc="3fa2cbc1" md5="040137d1f02f292f3ae21b00b8152376" sha1="3e1644838b5b766fd250c1a4e1ce47d4ccba6fc5" />
<rom name="Puyo Puyo 25th Anniversary CD (Disc 3) (Japan) (Track 17).bin" size="14970480" crc="82799c2f" md5="4b95e5acc43d87a02ef63da0664a3cb6" sha1="90b4552b3da75c722e8ae07188cd5cda06a8a460" />
<rom name="Puyo Puyo 25th Anniversary CD (Disc 3) (Japan) (Track 18).bin" size="13895616" crc="c22e39af" md5="1cf65b079bb53d449b3879bcaf371b8e" sha1="fb2da12decaf12f1d7a18650de7f84c286723b5f" />
<rom name="Puyo Puyo 25th Anniversary CD (Disc 3) (Japan) (Track 19).bin" size="15478512" crc="310e4180" md5="6d71147ef2917a5be9ec38d94be7e30c" sha1="848e765a72c46f8f6169972afa20faf1d083289e" />
<rom name="Puyo Puyo 25th Anniversary CD (Disc 3) (Japan) (Track 20).bin" size="14119056" crc="716bb7d1" md5="88ae79bb0d9f09f39f52ff75dc62c9fc" sha1="1445966fc2e9eddaaf042e740b46652b815291f1" />
<rom name="Puyo Puyo 25th Anniversary CD (Disc 3) (Japan) (Track 21).bin" size="14086128" crc="aeaa3fc2" md5="2df5d0c8ded6f97f64bceb3c5d34e043" sha1="fdc465f22468e8e5592b479e7c8a8521122ca58e" />
<rom name="Puyo Puyo 25th Anniversary CD (Disc 3) (Japan) (Track 22).bin" size="13453440" crc="fac0d2ab" md5="685a116d56941c69b8b39b8695802042" sha1="eb633069441f36b4f9ccc029e56ae286bd849522" />
<rom name="Puyo Puyo 25th Anniversary CD (Disc 3) (Japan) (Track 23).bin" size="16746240" crc="26778fb3" md5="8a32f95ca64840f7ff826ab536160dc1" sha1="6d1b723b5a617d9635bab316e3c4a95789e944ac" />
<rom name="Puyo Puyo 25th Anniversary CD (Disc 3) (Japan) (Track 24).bin" size="14370720" crc="59b39387" md5="acf3cc055a63a105dadcc1036900b0e7" sha1="015aff9a997dc30c8fc48fb8dd3d734205af9154" />
<rom name="Puyo Puyo 25th Anniversary CD (Disc 3) (Japan) (Track 25).bin" size="14239008" crc="504f1e8a" md5="97a786c449fe928715597664fe49fce0" sha1="9f15ae53acd6f2bac076ba06ea6696ccb1c791d9" />
<rom name="Puyo Puyo 25th Anniversary CD (Disc 3) (Japan) (Track 26).bin" size="14629440" crc="0a46276a" md5="82580f95fd4a959d92457816a234d84d" sha1="8e8ebf02fe898d68ac53eef7473d3ab80ed969ef" />
<rom name="Puyo Puyo 25th Anniversary CD (Disc 3) (Japan) (Track 27).bin" size="15057504" crc="f757d4d5" md5="c015cf4cb58b1ccbc67f145f0e385e74" sha1="48a73ec634615a8ae1635de5267c3064a3ec0f2c" />
<rom name="Puyo Puyo 25th Anniversary CD (Disc 3) (Japan) (Track 28).bin" size="16863840" crc="32110650" md5="5e4b9237d139800fec7f2290a4842c43" sha1="dc2a6c157d3374010219757c445d52929b40fb5c" />

    Cuesheet:

FILE "Puyo Puyo 25th Anniversary CD (Disc 3) (Japan) (Track 01).bin" BINARY
  TRACK 01 AUDIO
    INDEX 01 00:00:00
FILE "Puyo Puyo 25th Anniversary CD (Disc 3) (Japan) (Track 02).bin" BINARY
  TRACK 02 AUDIO
    INDEX 01 00:00:00
FILE "Puyo Puyo 25th Anniversary CD (Disc 3) (Japan) (Track 03).bin" BINARY
  TRACK 03 AUDIO
    INDEX 01 00:00:00
FILE "Puyo Puyo 25th Anniversary CD (Disc 3) (Japan) (Track 04).bin" BINARY
  TRACK 04 AUDIO
    INDEX 01 00:00:00
FILE "Puyo Puyo 25th Anniversary CD (Disc 3) (Japan) (Track 05).bin" BINARY
  TRACK 05 AUDIO
    INDEX 01 00:00:00
FILE "Puyo Puyo 25th Anniversary CD (Disc 3) (Japan) (Track 06).bin" BINARY
  TRACK 06 AUDIO
    INDEX 01 00:00:00
FILE "Puyo Puyo 25th Anniversary CD (Disc 3) (Japan) (Track 07).bin" BINARY
  TRACK 07 AUDIO
    INDEX 01 00:00:00
FILE "Puyo Puyo 25th Anniversary CD (Disc 3) (Japan) (Track 08).bin" BINARY
  TRACK 08 AUDIO
    INDEX 01 00:00:00
FILE "Puyo Puyo 25th Anniversary CD (Disc 3) (Japan) (Track 09).bin" BINARY
  TRACK 09 AUDIO
    INDEX 01 00:00:00
FILE "Puyo Puyo 25th Anniversary CD (Disc 3) (Japan) (Track 10).bin" BINARY
  TRACK 10 AUDIO
    INDEX 01 00:00:00
FILE "Puyo Puyo 25th Anniversary CD (Disc 3) (Japan) (Track 11).bin" BINARY
  TRACK 11 AUDIO
    INDEX 01 00:00:00
FILE "Puyo Puyo 25th Anniversary CD (Disc 3) (Japan) (Track 12).bin" BINARY
  TRACK 12 AUDIO
    INDEX 01 00:00:00
FILE "Puyo Puyo 25th Anniversary CD (Disc 3) (Japan) (Track 13).bin" BINARY
  TRACK 13 AUDIO
    INDEX 01 00:00:00
FILE "Puyo Puyo 25th Anniversary CD (Disc 3) (Japan) (Track 14).bin" BINARY
  TRACK 14 AUDIO
    INDEX 01 00:00:00
FILE "Puyo Puyo 25th Anniversary CD (Disc 3) (Japan) (Track 15).bin" BINARY
  TRACK 15 AUDIO
    INDEX 01 00:00:00
FILE "Puyo Puyo 25th Anniversary CD (Disc 3) (Japan) (Track 16).bin" BINARY
  TRACK 16 AUDIO
    INDEX 01 00:00:00
FILE "Puyo Puyo 25th Anniversary CD (Disc 3) (Japan) (Track 17).bin" BINARY
  TRACK 17 AUDIO
    INDEX 01 00:00:00
FILE "Puyo Puyo 25th Anniversary CD (Disc 3) (Japan) (Track 18).bin" BINARY
  TRACK 18 AUDIO
    INDEX 01 00:00:00
FILE "Puyo Puyo 25th Anniversary CD (Disc 3) (Japan) (Track 19).bin" BINARY
  TRACK 19 AUDIO
    INDEX 01 00:00:00
FILE "Puyo Puyo 25th Anniversary CD (Disc 3) (Japan) (Track 20).bin" BINARY
  TRACK 20 AUDIO
    INDEX 01 00:00:00
FILE "Puyo Puyo 25th Anniversary CD (Disc 3) (Japan) (Track 21).bin" BINARY
  TRACK 21 AUDIO
    INDEX 01 00:00:00
FILE "Puyo Puyo 25th Anniversary CD (Disc 3) (Japan) (Track 22).bin" BINARY
  TRACK 22 AUDIO
    INDEX 01 00:00:00
FILE "Puyo Puyo 25th Anniversary CD (Disc 3) (Japan) (Track 23).bin" BINARY
  TRACK 23 AUDIO
    INDEX 01 00:00:00
FILE "Puyo Puyo 25th Anniversary CD (Disc 3) (Japan) (Track 24).bin" BINARY
  TRACK 24 AUDIO
    INDEX 01 00:00:00
FILE "Puyo Puyo 25th Anniversary CD (Disc 3) (Japan) (Track 25).bin" BINARY
  TRACK 25 AUDIO
    INDEX 01 00:00:00
FILE "Puyo Puyo 25th Anniversary CD (Disc 3) (Japan) (Track 26).bin" BINARY
  TRACK 26 AUDIO
    INDEX 01 00:00:00
FILE "Puyo Puyo 25th Anniversary CD (Disc 3) (Japan) (Track 27).bin" BINARY
  TRACK 27 AUDIO
    INDEX 01 00:00:00
FILE "Puyo Puyo 25th Anniversary CD (Disc 3) (Japan) (Track 28).bin" BINARY
  TRACK 28 AUDIO
    INDEX 01 00:00:00

    Write Offset: 0

https://cdn.discordapp.com/attachments/ … 3_Japan.7z

Common Disc Info:
    Title: Puyo Puyo 25th Anniversary CD
    Foreign Title (Non-latin): ぷよぷよ 25周年アニバーサリーCD
    Disc Number / Letter: 2
    Disc Title:
    System: Audio CD
    Media Type: CD-ROM
    Category: Audio
    Region: Japan
    Disc Serial:  HCV-1015

    Ringcode Information:
        Mastering Code (laser branded/etched): HCV-1015-02886  MT H01
        Mastering SID Code: IFPI L287
        Data-Side Mould SID Code: IFPI 4431
        Label-Side Mould SID Code:
        Additional Mould:
        Toolstamp or Mastering Code (engraved/stamped):
    Barcode: 4974365911171
    Error Count: 0
    Comments:
    Contents:

Version and Editions:
    Version:
    Edition/Release: Original

Extras:
    Primary Volume Descriptor (PVD): Disc has no PVD

Tracks and Write Offsets:
    DAT:

<rom name="Puyo Puyo 25th Anniversary CD (Disc 2) (Japan) (Track 1).bin" size="33167904" crc="286aa23b" md5="a74926f778edde90d9ffc132d78024d6" sha1="92a504931fd0bdd35c0a9b4055c010b7d4eaa81f" />
<rom name="Puyo Puyo 25th Anniversary CD (Disc 2) (Japan) (Track 2).bin" size="43984752" crc="47ea0836" md5="6bf68e3e6e2b4649234d5915d6da5985" sha1="e782e831b0e8517fb0634f96fb340dee143a31fb" />
<rom name="Puyo Puyo 25th Anniversary CD (Disc 2) (Japan) (Track 3).bin" size="38735088" crc="dfd5c53c" md5="1754debc41508b8028251d67a46b7f82" sha1="909db4d54c8c20ab77d5d472383ade4d442b6c20" />
<rom name="Puyo Puyo 25th Anniversary CD (Disc 2) (Japan) (Track 4).bin" size="46179168" crc="df0a0066" md5="d951be6b764dbcd9ec00a574a42e4dd9" sha1="c2f75554f4d17439c4ed87f8c69e35e4ff511f87" />
<rom name="Puyo Puyo 25th Anniversary CD (Disc 2) (Japan) (Track 5).bin" size="42284256" crc="455d67c3" md5="e1714d0f57644e403a6376e7de022300" sha1="8fa82a24c4693b853b1456d277d0ec8f03255438" />
<rom name="Puyo Puyo 25th Anniversary CD (Disc 2) (Japan) (Track 6).bin" size="44767968" crc="e3d5bb5a" md5="f3d72764d5774a34b1f2bbd92c712d19" sha1="4b35aabfced426d2890564cb378f5903436e9b58" />
<rom name="Puyo Puyo 25th Anniversary CD (Disc 2) (Japan) (Track 7).bin" size="48625248" crc="b0894439" md5="63284ac6e34b0cac0be45107a93f26f6" sha1="ac2e89b912db30970ddadad619b48354a5ec98cc" />
<rom name="Puyo Puyo 25th Anniversary CD (Disc 2) (Japan) (Track 8).bin" size="43742496" crc="6103292d" md5="234e9cf8c0c80f87f72e7c2d115edbf7" sha1="5934c856825a7a8b34eae900b7b0555f35817f08" />

    Cuesheet:

FILE "Puyo Puyo 25th Anniversary CD (Disc 2) (Japan) (Track 1).bin" BINARY
  TRACK 01 AUDIO
    INDEX 01 00:00:00
FILE "Puyo Puyo 25th Anniversary CD (Disc 2) (Japan) (Track 2).bin" BINARY
  TRACK 02 AUDIO
    INDEX 01 00:00:00
FILE "Puyo Puyo 25th Anniversary CD (Disc 2) (Japan) (Track 3).bin" BINARY
  TRACK 03 AUDIO
    INDEX 01 00:00:00
FILE "Puyo Puyo 25th Anniversary CD (Disc 2) (Japan) (Track 4).bin" BINARY
  TRACK 04 AUDIO
    INDEX 01 00:00:00
FILE "Puyo Puyo 25th Anniversary CD (Disc 2) (Japan) (Track 5).bin" BINARY
  TRACK 05 AUDIO
    INDEX 01 00:00:00
FILE "Puyo Puyo 25th Anniversary CD (Disc 2) (Japan) (Track 6).bin" BINARY
  TRACK 06 AUDIO
    INDEX 01 00:00:00
FILE "Puyo Puyo 25th Anniversary CD (Disc 2) (Japan) (Track 7).bin" BINARY
  TRACK 07 AUDIO
    INDEX 01 00:00:00
FILE "Puyo Puyo 25th Anniversary CD (Disc 2) (Japan) (Track 8).bin" BINARY
  TRACK 08 AUDIO
    INDEX 01 00:00:00

    Write Offset: 0

https://cdn.discordapp.com/attachments/ … 2_Japan.7z

Common Disc Info:
    Title: Puyo Puyo 25th Anniversary CD
    Foreign Title (Non-latin): ぷよぷよ 25周年アニバーサリーCD
    Disc Number / Letter: 1
    Disc Title:
    System: Audio CD
    Media Type: CD-ROM
    Category: Audio
    Region: Japan
    Disc Serial:  HCV-1015

    Ringcode Information:
        Mastering Code (laser branded/etched): HCV-1015-02885  MT J01
        Mastering SID Code: IFPI LT40
        Data-Side Mould SID Code: IFPI 4400
        Label-Side Mould SID Code:
        Additional Mould:
        Toolstamp or Mastering Code (engraved/stamped):
    Barcode: 4974365911171
    Error Count: 0
    Comments:
    Contents:

Version and Editions:
    Version:
    Edition/Release: Original

Extras:
    Primary Volume Descriptor (PVD): Disc has no PVD

Tracks and Write Offsets:
    DAT:

<rom name="Puyo Puyo 25th Anniversary CD (Disc 1) (Japan) (Track 01).bin" size="5675376" crc="89898791" md5="1d038a5088ddae94be35dc26b1cac6d2" sha1="6edb1d97901d1103d1ceac8ad1733850e77aa490" />
<rom name="Puyo Puyo 25th Anniversary CD (Disc 1) (Japan) (Track 02).bin" size="20497680" crc="5032e679" md5="dc4ec8b560074c4239c73c6d1659f12a" sha1="7cbd0b1ab740a0ba925622efe20bbaff430a36fc" />
<rom name="Puyo Puyo 25th Anniversary CD (Disc 1) (Japan) (Track 03).bin" size="21207984" crc="9b2d2c8d" md5="59811554024cc55846d5e54ce1ebc992" sha1="6d583af61e8bc13daba2a1a7b48226cead9756da" />
<rom name="Puyo Puyo 25th Anniversary CD (Disc 1) (Japan) (Track 04).bin" size="26236560" crc="61bf34a2" md5="7fc77a703b9409c3e41ca02f548c7c01" sha1="2927fed1760b7ac45df4b495d04d9a540e1463ca" />
<rom name="Puyo Puyo 25th Anniversary CD (Disc 1) (Japan) (Track 05).bin" size="5409600" crc="e50c8287" md5="119925b20b4fc812a2dc418148c5489b" sha1="74aeb0337af08aead83c3331d67dbe8d12c23322" />
<rom name="Puyo Puyo 25th Anniversary CD (Disc 1) (Japan) (Track 06).bin" size="26149536" crc="4b03e51f" md5="3ace3f3a211ec63809e5729cac57dacd" sha1="3a598a0be4ce1668f361f56b67aec216b04118a1" />
<rom name="Puyo Puyo 25th Anniversary CD (Disc 1) (Japan) (Track 07).bin" size="20126064" crc="d327f16f" md5="9713749c69ff0ff66d878814140785bf" sha1="42085518dda106dcab5f74ec46b819a321cca815" />
<rom name="Puyo Puyo 25th Anniversary CD (Disc 1) (Japan) (Track 08).bin" size="30521904" crc="acb062cb" md5="a27522c7b44bb10881b2b60d96a718e9" sha1="a50146a476177e9bd4c1f13d9cf2ae834ae3e6ec" />
<rom name="Puyo Puyo 25th Anniversary CD (Disc 1) (Japan) (Track 09).bin" size="3368064" crc="a8e3eb84" md5="5ccd877b56dff8a65f387b8b96f9cf3d" sha1="ca12e71de7d36646c38969d0e1480918427230a2" />
<rom name="Puyo Puyo 25th Anniversary CD (Disc 1) (Japan) (Track 10).bin" size="19375776" crc="7865d19a" md5="9794cd39fcb4e66259ab79de564d1684" sha1="2470973dea0efdc73adbb7a8e1276251c7193b90" />
<rom name="Puyo Puyo 25th Anniversary CD (Disc 1) (Japan) (Track 11).bin" size="33179664" crc="46a106d0" md5="c0860e0a4e9f92f8d3d27fa2c9c58513" sha1="94783c80fcbba29d5c450698afb056c703b8425b" />
<rom name="Puyo Puyo 25th Anniversary CD (Disc 1) (Japan) (Track 12).bin" size="18552576" crc="30118e57" md5="18107df20ce6e3e701fa1ef16dd81010" sha1="05b2fa39c915c4ccd5f7b5ced0dd900958d03167" />
<rom name="Puyo Puyo 25th Anniversary CD (Disc 1) (Japan) (Track 13).bin" size="20739936" crc="3cd1f11e" md5="e0da4bab66bedfc197e8dd48ecf68532" sha1="d938778ea0fb32bbb29ff759f51cb84591a3ba4a" />
<rom name="Puyo Puyo 25th Anniversary CD (Disc 1) (Japan) (Track 14).bin" size="24806544" crc="778a1a12" md5="bfdd414fabbd70d9437ef5e7b92461c0" sha1="55fa460609c2718f5a95e52cb12f1c233616f594" />
<rom name="Puyo Puyo 25th Anniversary CD (Disc 1) (Japan) (Track 15).bin" size="21048048" crc="5aa6bed2" md5="2c9e040ac8545b738398762f4520fbda" sha1="71a2628fbe3ba8494531538bafb485aa829ab96e" />
<rom name="Puyo Puyo 25th Anniversary CD (Disc 1) (Japan) (Track 16).bin" size="17926944" crc="830b7b6c" md5="4903b25c3a8e4caad2e3b27289c363de" sha1="94d3b8febdad96b31e74761507da36e9360e1d1f" />
<rom name="Puyo Puyo 25th Anniversary CD (Disc 1) (Japan) (Track 17).bin" size="29632848" crc="25948d8a" md5="6a89e321c64e4cf731b940b7f5e20840" sha1="1e55b8a6ef4ea314c215b96a0ee794d64b84de1e" />
<rom name="Puyo Puyo 25th Anniversary CD (Disc 1) (Japan) (Track 18).bin" size="25321632" crc="3cd28ead" md5="a4a499edb0b7fdff817c24f4a2d56d86" sha1="0c6ce264f4f06427bdcd8a344c2c59f39ea77510" />
<rom name="Puyo Puyo 25th Anniversary CD (Disc 1) (Japan) (Track 19).bin" size="28837872" crc="72cf3921" md5="eeb73cd729e59dc95dd7174b5ff52279" sha1="40205d6b5ca6f432436e6fbe6201b9c8192a00c3" />
<rom name="Puyo Puyo 25th Anniversary CD (Disc 1) (Japan) (Track 20).bin" size="27885312" crc="853a638d" md5="97f6e084c8cddbe702dfc2c33004f2a2" sha1="309738eeb8c521f70308ed4bbd7cd38867a8b491" />
<rom name="Puyo Puyo 25th Anniversary CD (Disc 1) (Japan) (Track 21).bin" size="3598560" crc="9940dd8f" md5="a7f27047b1f7620bbb1cede85ca24219" sha1="aa4f94bbfe3f5343db80cde4a85bb42737333ad3" />
<rom name="Puyo Puyo 25th Anniversary CD (Disc 1) (Japan) (Track 22).bin" size="22214640" crc="b5bb0cf2" md5="d64283c72451cf0d7fe129c25b446e8b" sha1="c02aa205097ddd665441b06b69d77a1688de532a" />
<rom name="Puyo Puyo 25th Anniversary CD (Disc 1) (Japan) (Track 23).bin" size="21024528" crc="7ce67da7" md5="bd664843960ca8614fd3a163c1cad9a1" sha1="2d9644969b990b91c54f60abc5e70ade952b35a1" />
<rom name="Puyo Puyo 25th Anniversary CD (Disc 1) (Japan) (Track 24).bin" size="24282048" crc="9696eee5" md5="9120ad647e7329a3dacb790a8d16cd78" sha1="a8d24bea5dd238d7a083b43df2182f86b013e33e" />
<rom name="Puyo Puyo 25th Anniversary CD (Disc 1) (Japan) (Track 25).bin" size="22193472" crc="5c496106" md5="faa6693471d70665c912ddb39c4775a7" sha1="0279c55ca86ff626d367e1c1e88b8e2ad12e9321" />
<rom name="Puyo Puyo 25th Anniversary CD (Disc 1) (Japan) (Track 26).bin" size="25542720" crc="47b49268" md5="a125f1bb20dab457fea99317f0f9deda" sha1="035cd6ebb492254f7f97bdf1ba27f79e6030ac9e" />
<rom name="Puyo Puyo 25th Anniversary CD (Disc 1) (Japan) (Track 27).bin" size="3899616" crc="3fbdd689" md5="f445c781afc7893e9b5360e020f72fc9" sha1="2cfaf383f3b27037eb57e297bc520e632ea6f6e9" />
<rom name="Puyo Puyo 25th Anniversary CD (Disc 1) (Japan) (Track 28).bin" size="23162496" crc="4067e967" md5="ee414f5f5f4496841c10b995864c6558" sha1="03bf667deb862cabf1437136bdf900d0d802c3e7" />
<rom name="Puyo Puyo 25th Anniversary CD (Disc 1) (Japan) (Track 29).bin" size="23080176" crc="ad397584" md5="482d659a9fb89f5dbd31af9aa2c86339" sha1="a78118d4ec1eeb4b123cb52e077dfed0defef3f6" />
<rom name="Puyo Puyo 25th Anniversary CD (Disc 1) (Japan) (Track 30).bin" size="21165648" crc="c7c7db32" md5="5edd5b375973fd967447c3ac574b7f95" sha1="fd4b04f161ff9a3d37c2e3f2d7102ae021bdf3df" />
<rom name="Puyo Puyo 25th Anniversary CD (Disc 1) (Japan) (Track 31).bin" size="23348304" crc="2cb47076" md5="0565c7e408156fb642df4582848f7b00" sha1="edb72820f83b91edc4146697827610cb9c666480" />
<rom name="Puyo Puyo 25th Anniversary CD (Disc 1) (Japan) (Track 32).bin" size="21302064" crc="9345f9d2" md5="461bf8f25295a3e4eb93a630bcfe8c21" sha1="968c1fd6b6641c2de8f24a206ad8ebd4668fe8cd" />
<rom name="Puyo Puyo 25th Anniversary CD (Disc 1) (Japan) (Track 33).bin" size="29343552" crc="5e9b101c" md5="973d39e2569c42e0ce31ea0e3c7ccc9a" sha1="7276a85288ce5a4fb3127dc6f46b76206fc0c82a" />
<rom name="Puyo Puyo 25th Anniversary CD (Disc 1) (Japan) (Track 34).bin" size="70091952" crc="1d76474c" md5="626042638e60fed1c6901b768b9df501" sha1="434347304cf61f1ee93a43ee5683d6601803ea11" />
<rom name="Puyo Puyo 25th Anniversary CD (Disc 1) (Japan) (Track 35).bin" size="23750496" crc="d6f52d6e" md5="01565a1d6e5ebfa3eedc8e0db628cb82" sha1="e4d924fcb3fb3c2774b2126c716d5f47d25bdea5" />

    Cuesheet:

FILE "Puyo Puyo 25th Anniversary CD (Disc 1) (Japan) (Track 01).bin" BINARY
  TRACK 01 AUDIO
    INDEX 01 00:00:00
FILE "Puyo Puyo 25th Anniversary CD (Disc 1) (Japan) (Track 02).bin" BINARY
  TRACK 02 AUDIO
    INDEX 01 00:00:00
FILE "Puyo Puyo 25th Anniversary CD (Disc 1) (Japan) (Track 03).bin" BINARY
  TRACK 03 AUDIO
    INDEX 01 00:00:00
FILE "Puyo Puyo 25th Anniversary CD (Disc 1) (Japan) (Track 04).bin" BINARY
  TRACK 04 AUDIO
    INDEX 01 00:00:00
FILE "Puyo Puyo 25th Anniversary CD (Disc 1) (Japan) (Track 05).bin" BINARY
  TRACK 05 AUDIO
    INDEX 01 00:00:00
FILE "Puyo Puyo 25th Anniversary CD (Disc 1) (Japan) (Track 06).bin" BINARY
  TRACK 06 AUDIO
    INDEX 01 00:00:00
FILE "Puyo Puyo 25th Anniversary CD (Disc 1) (Japan) (Track 07).bin" BINARY
  TRACK 07 AUDIO
    INDEX 01 00:00:00
FILE "Puyo Puyo 25th Anniversary CD (Disc 1) (Japan) (Track 08).bin" BINARY
  TRACK 08 AUDIO
    INDEX 01 00:00:00
FILE "Puyo Puyo 25th Anniversary CD (Disc 1) (Japan) (Track 09).bin" BINARY
  TRACK 09 AUDIO
    INDEX 01 00:00:00
FILE "Puyo Puyo 25th Anniversary CD (Disc 1) (Japan) (Track 10).bin" BINARY
  TRACK 10 AUDIO
    INDEX 01 00:00:00
FILE "Puyo Puyo 25th Anniversary CD (Disc 1) (Japan) (Track 11).bin" BINARY
  TRACK 11 AUDIO
    INDEX 01 00:00:00
FILE "Puyo Puyo 25th Anniversary CD (Disc 1) (Japan) (Track 12).bin" BINARY
  TRACK 12 AUDIO
    INDEX 01 00:00:00
FILE "Puyo Puyo 25th Anniversary CD (Disc 1) (Japan) (Track 13).bin" BINARY
  TRACK 13 AUDIO
    INDEX 01 00:00:00
FILE "Puyo Puyo 25th Anniversary CD (Disc 1) (Japan) (Track 14).bin" BINARY
  TRACK 14 AUDIO
    INDEX 01 00:00:00
FILE "Puyo Puyo 25th Anniversary CD (Disc 1) (Japan) (Track 15).bin" BINARY
  TRACK 15 AUDIO
    INDEX 01 00:00:00
FILE "Puyo Puyo 25th Anniversary CD (Disc 1) (Japan) (Track 16).bin" BINARY
  TRACK 16 AUDIO
    INDEX 01 00:00:00
FILE "Puyo Puyo 25th Anniversary CD (Disc 1) (Japan) (Track 17).bin" BINARY
  TRACK 17 AUDIO
    INDEX 01 00:00:00
FILE "Puyo Puyo 25th Anniversary CD (Disc 1) (Japan) (Track 18).bin" BINARY
  TRACK 18 AUDIO
    INDEX 01 00:00:00
FILE "Puyo Puyo 25th Anniversary CD (Disc 1) (Japan) (Track 19).bin" BINARY
  TRACK 19 AUDIO
    INDEX 01 00:00:00
FILE "Puyo Puyo 25th Anniversary CD (Disc 1) (Japan) (Track 20).bin" BINARY
  TRACK 20 AUDIO
    INDEX 01 00:00:00
FILE "Puyo Puyo 25th Anniversary CD (Disc 1) (Japan) (Track 21).bin" BINARY
  TRACK 21 AUDIO
    INDEX 01 00:00:00
FILE "Puyo Puyo 25th Anniversary CD (Disc 1) (Japan) (Track 22).bin" BINARY
  TRACK 22 AUDIO
    INDEX 01 00:00:00
FILE "Puyo Puyo 25th Anniversary CD (Disc 1) (Japan) (Track 23).bin" BINARY
  TRACK 23 AUDIO
    INDEX 01 00:00:00
FILE "Puyo Puyo 25th Anniversary CD (Disc 1) (Japan) (Track 24).bin" BINARY
  TRACK 24 AUDIO
    INDEX 01 00:00:00
FILE "Puyo Puyo 25th Anniversary CD (Disc 1) (Japan) (Track 25).bin" BINARY
  TRACK 25 AUDIO
    INDEX 01 00:00:00
FILE "Puyo Puyo 25th Anniversary CD (Disc 1) (Japan) (Track 26).bin" BINARY
  TRACK 26 AUDIO
    INDEX 01 00:00:00
FILE "Puyo Puyo 25th Anniversary CD (Disc 1) (Japan) (Track 27).bin" BINARY
  TRACK 27 AUDIO
    INDEX 01 00:00:00
FILE "Puyo Puyo 25th Anniversary CD (Disc 1) (Japan) (Track 28).bin" BINARY
  TRACK 28 AUDIO
    INDEX 01 00:00:00
FILE "Puyo Puyo 25th Anniversary CD (Disc 1) (Japan) (Track 29).bin" BINARY
  TRACK 29 AUDIO
    INDEX 01 00:00:00
FILE "Puyo Puyo 25th Anniversary CD (Disc 1) (Japan) (Track 30).bin" BINARY
  TRACK 30 AUDIO
    INDEX 01 00:00:00
FILE "Puyo Puyo 25th Anniversary CD (Disc 1) (Japan) (Track 31).bin" BINARY
  TRACK 31 AUDIO
    INDEX 01 00:00:00
FILE "Puyo Puyo 25th Anniversary CD (Disc 1) (Japan) (Track 32).bin" BINARY
  TRACK 32 AUDIO
    INDEX 01 00:00:00
FILE "Puyo Puyo 25th Anniversary CD (Disc 1) (Japan) (Track 33).bin" BINARY
  TRACK 33 AUDIO
    INDEX 01 00:00:00
FILE "Puyo Puyo 25th Anniversary CD (Disc 1) (Japan) (Track 34).bin" BINARY
  TRACK 34 AUDIO
    INDEX 01 00:00:00
FILE "Puyo Puyo 25th Anniversary CD (Disc 1) (Japan) (Track 35).bin" BINARY
  TRACK 35 AUDIO
    INDEX 01 00:00:00

    Write Offset: 0

https://cdn.discordapp.com/attachments/ … 1_Japan.7z

Common Disc Info:
    Title: SUPER MARIO 3D WORLD ORIGINAL SOUND TRACK
    Foreign Title (Non-latin): スーパーマリオ 3Dワールド オリジナル サウンドトラック
    Disc Number / Letter: 2
    Disc Title:
    System: Audio CD
    Media Type: CD-ROM
    Category: Audio
    Region: Japan
    Disc Serial: NTDT-17290

    Ringcode Information:
        Mastering Code (laser branded/etched): NTDT-17290  MT  B01
        Mastering SID Code: IFPI L262
        Data-Side Mould SID Code: IFPI 4459
        Label-Side Mould SID Code:
        Additional Mould:
        Toolstamp or Mastering Code (engraved/stamped):
    Barcode:
    Error Count: 0
    Comments:
    Contents:

Version and Editions:
    Version:
    Edition/Release: Original

Extras:
    Primary Volume Descriptor (PVD): Disc has no PVD

Tracks and Write Offsets:
    DAT:

<rom name="Super Mario World 3D Original Soundtrack (Disc 2) (Japan) (Track 01).bin" size="6373920" crc="5a0a9fc0" md5="439107573a9619152a94c5875e409a16" sha1="81fa0846fb84fc6de39ffaa5d6692142ae90485b" />
<rom name="Super Mario World 3D Original Soundtrack (Disc 2) (Japan) (Track 02).bin" size="15798384" crc="50d7ce35" md5="1704d68dea7560a1a3ef9a79f79fe00e" sha1="35b8d607e664a09bf331900d92ccb9bb802be907" />
<rom name="Super Mario World 3D Original Soundtrack (Disc 2) (Japan) (Track 03).bin" size="24540768" crc="e92ab04d" md5="f677e9ed76368ddfde857ba3a270069d" sha1="37151e3438b5a74c03cd43576a30477362f3fee9" />
<rom name="Super Mario World 3D Original Soundtrack (Disc 2) (Japan) (Track 04).bin" size="14925792" crc="568770fb" md5="1d14345184464788ed08ccda2a2e5e1d" sha1="60c901d53ed8e89925d8b08b8e39ec91095b51cb" />
<rom name="Super Mario World 3D Original Soundtrack (Disc 2) (Japan) (Track 05).bin" size="3683232" crc="a74ee216" md5="fe5bf1bae7b18cb6549c360c949473c2" sha1="a20575cde5247e6c3de656e18b16273263fcfe39" />
<rom name="Super Mario World 3D Original Soundtrack (Disc 2) (Japan) (Track 06).bin" size="17080224" crc="87b9e883" md5="080c4dc1db15416bdd351684eaaabed8" sha1="13206dedaecf66a28ab96515a14695ce4a6b34b6" />
<rom name="Super Mario World 3D Original Soundtrack (Disc 2) (Japan) (Track 07).bin" size="21626640" crc="2928b9d0" md5="087911f3f73be3f40b49a162d82753af" sha1="805cf59fce83c302bcd3a20462a318e26734b2ff" />
<rom name="Super Mario World 3D Original Soundtrack (Disc 2) (Japan) (Track 08).bin" size="8159088" crc="0ec0a9f9" md5="f2a54bb28fa2e63ab0c797532ce3557e" sha1="d8eabf81b00617770fed611c784364fdae56981d" />
<rom name="Super Mario World 3D Original Soundtrack (Disc 2) (Japan) (Track 09).bin" size="24543120" crc="c9116ee2" md5="da17b240f22ee3d91a473873b95ff3ce" sha1="7b4a77e8a1c2a88db3f50785e9ff002db3b9b0dd" />
<rom name="Super Mario World 3D Original Soundtrack (Disc 2) (Japan) (Track 10).bin" size="12133968" crc="16910f90" md5="554ad41ae4638d42d1c48f42e4cc6ed5" sha1="32c730168d4c55cc3fa795691a9ad4343a568a88" />
<rom name="Super Mario World 3D Original Soundtrack (Disc 2) (Japan) (Track 11).bin" size="954912" crc="89f4b5b1" md5="751ec4b8f0fe7b5423fd10df2f9130b1" sha1="77382ee54bce88a2ce9d9106634fef934deb4a70" />
<rom name="Super Mario World 3D Original Soundtrack (Disc 2) (Japan) (Track 12).bin" size="36484224" crc="3e90b6d4" md5="398a02e18fd1d15701d812e0ca96f8aa" sha1="62010c50baedfa62abd257eb06c06398ee6b021a" />
<rom name="Super Mario World 3D Original Soundtrack (Disc 2) (Japan) (Track 13).bin" size="13627488" crc="c0ce0736" md5="bb9c25ac591ef317746fe139091b9bdc" sha1="b55ca436e83782319c7ea3d16d6b0b6655fb29c1" />
<rom name="Super Mario World 3D Original Soundtrack (Disc 2) (Japan) (Track 14).bin" size="12300960" crc="80c046e5" md5="e29b3016aa9f07c87be736f51a85f901" sha1="47da5af895d148f604408b632b1cae6c04802395" />
<rom name="Super Mario World 3D Original Soundtrack (Disc 2) (Japan) (Track 15).bin" size="26507040" crc="3c4df027" md5="d591d4cb7f5bf7cad218626057396e5f" sha1="a1c7fbdaf2c631f6cd03d449e1d8731b0ef91545" />
<rom name="Super Mario World 3D Original Soundtrack (Disc 2) (Japan) (Track 16).bin" size="22158192" crc="4546ed80" md5="3b7eeefcd6c19fdafc9119ad1e25398d" sha1="d68d8b118366f9368d20c5d6d758581e42c8cc9b" />
<rom name="Super Mario World 3D Original Soundtrack (Disc 2) (Japan) (Track 17).bin" size="32236512" crc="aa396b17" md5="e420a7896857019b0ab8df6dfff4616f" sha1="a1417a709942670dea5369a18de72c5fb24e26d2" />
<rom name="Super Mario World 3D Original Soundtrack (Disc 2) (Japan) (Track 18).bin" size="4134816" crc="44c6ce02" md5="58c8718d8c0ace13a2f5b271c467c0c1" sha1="9a750bb3b69dfd768690f30e28278d934c10579b" />
<rom name="Super Mario World 3D Original Soundtrack (Disc 2) (Japan) (Track 19).bin" size="12806640" crc="7da97dc9" md5="59839707c9b283ffbe82a1f0c0fa9a07" sha1="50e42453b004af37d0d85254bfda5e17f04e3a3b" />
<rom name="Super Mario World 3D Original Soundtrack (Disc 2) (Japan) (Track 20).bin" size="30049152" crc="14438a06" md5="71d636de6eb84e2e9a018dfadb8c67a8" sha1="4a3b60e9a2de62dbc9d62a2f41caaa55e05769c8" />
<rom name="Super Mario World 3D Original Soundtrack (Disc 2) (Japan) (Track 21).bin" size="7728672" crc="2fe22754" md5="2c4920a5e03d373e60d0ac1821a74b51" sha1="51f335fa64a0c19ff6b067e1599a71174037b065" />
<rom name="Super Mario World 3D Original Soundtrack (Disc 2) (Japan) (Track 22).bin" size="14488320" crc="85d5b275" md5="3b8c95e848f749d0283a3be1368668e9" sha1="ff80b51c6812dba02884845dc302991b3c0c7e5b" />
<rom name="Super Mario World 3D Original Soundtrack (Disc 2) (Japan) (Track 23).bin" size="28118160" crc="eceb3d65" md5="67f79a7ff3eaec923184e67ff716c54b" sha1="68300d620c0ee947d7b68d4a29e21b4d5429cb84" />
<rom name="Super Mario World 3D Original Soundtrack (Disc 2) (Japan) (Track 24).bin" size="18554928" crc="63b90f72" md5="c3383186b65e737ff122d83ddc8c4ab0" sha1="808f41f15eaf17db9b827f6809b84e0c65d267be" />
<rom name="Super Mario World 3D Original Soundtrack (Disc 2) (Japan) (Track 25).bin" size="7883904" crc="9b0b0591" md5="a38609e7f72605104539025e8d810b10" sha1="0da05b7983d41d0b2b8d965f73ad741d58033bf3" />
<rom name="Super Mario World 3D Original Soundtrack (Disc 2) (Japan) (Track 26).bin" size="16623936" crc="42bcfa19" md5="1ef67a4f52336158ff7997ebd5705500" sha1="8576ef45a94f86a2270966ff13214b5381eab8f2" />
<rom name="Super Mario World 3D Original Soundtrack (Disc 2) (Japan) (Track 27).bin" size="1112496" crc="b1faf1b6" md5="2e024bd1d78a53226cb5a79de9e2be4f" sha1="c91c8f26abd607556c5ee5b6c7bb5e042b8a8b86" />
<rom name="Super Mario World 3D Original Soundtrack (Disc 2) (Japan) (Track 28).bin" size="22924944" crc="fd299861" md5="3e28af6b72b18d70789488d536f76213" sha1="7715a84a711702eb6264f556bdc79a40f7792651" />
<rom name="Super Mario World 3D Original Soundtrack (Disc 2) (Japan) (Track 29).bin" size="8747088" crc="bd6ae54d" md5="30903042384afdfa65313206ec90ce2f" sha1="f0d7c5f3e2fc34b698a95243800b17c35941e8d8" />
<rom name="Super Mario World 3D Original Soundtrack (Disc 2) (Japan) (Track 30).bin" size="1307712" crc="8d0a85eb" md5="a838f4efbd50f5de399e0664b07e73be" sha1="bb46dd7247dabf42ae0aca27c4391e00831c921d" />
<rom name="Super Mario World 3D Original Soundtrack (Disc 2) (Japan) (Track 31).bin" size="3909024" crc="d5fedd67" md5="4f758d8ce4fff41dc156746ae67a1cee" sha1="e2187c3b5293f81a224561ab9a0cb4a912b578f6" />
<rom name="Super Mario World 3D Original Soundtrack (Disc 2) (Japan) (Track 32).bin" size="14596512" crc="a5092c28" md5="7488ec84a88169f9582d38373fc1764f" sha1="dceaf9753d598b5aeefc3c460099447f9e14c545" />
<rom name="Super Mario World 3D Original Soundtrack (Disc 2) (Japan) (Track 33).bin" size="14422464" crc="14ccfb8e" md5="21344394fd7e6174803e80d28405d135" sha1="c11a4620ad5d97863d8faa38b1a049ba0f8c2a93" />
<rom name="Super Mario World 3D Original Soundtrack (Disc 2) (Japan) (Track 34).bin" size="6453888" crc="5951b4c1" md5="b13c29f1c770fe3efdb65680af95cc94" sha1="cc82aa4e83a895254a1ac9ad5a9497d9036b25a3" />
<rom name="Super Mario World 3D Original Soundtrack (Disc 2) (Japan) (Track 35).bin" size="15765456" crc="b1712036" md5="21f7a074a48576ec058dca1db0eaa25b" sha1="1707d3f5d5ed85d45c8528c4982137792a605560" />
<rom name="Super Mario World 3D Original Soundtrack (Disc 2) (Japan) (Track 36).bin" size="25131120" crc="9567be13" md5="449f1ba51d7a38c126d35b4b56eb2167" sha1="b8fe9e7e518b8aba9c7a9ce4f082f63e22d35da3" />
<rom name="Super Mario World 3D Original Soundtrack (Disc 2) (Japan) (Track 37).bin" size="23033136" crc="04bf91b2" md5="09432d21fc011282affabfb1dd988f75" sha1="301d5c0633fd154c6322ea3ed5083e4d32d1d463" />
<rom name="Super Mario World 3D Original Soundtrack (Disc 2) (Japan) (Track 38).bin" size="42493584" crc="3165f938" md5="44a761cb4e6dcf628ea0943c637318c3" sha1="9ece8fc9ba302d899520cdf85315ebc8d0a7bf12" />
<rom name="Super Mario World 3D Original Soundtrack (Disc 2) (Japan) (Track 39).bin" size="17336592" crc="d94cace7" md5="8f9af9422c35ec8a86d0715780c59814" sha1="ea61b3f93464da6ba3b30663cf9bf0f29844d209" />

    Cuesheet:

FILE "Super Mario World 3D Original Soundtrack (Disc 2) (Japan) (Track 01).bin" BINARY
  TRACK 01 AUDIO
    INDEX 01 00:00:00
FILE "Super Mario World 3D Original Soundtrack (Disc 2) (Japan) (Track 02).bin" BINARY
  TRACK 02 AUDIO
    INDEX 01 00:00:00
FILE "Super Mario World 3D Original Soundtrack (Disc 2) (Japan) (Track 03).bin" BINARY
  TRACK 03 AUDIO
    INDEX 01 00:00:00
FILE "Super Mario World 3D Original Soundtrack (Disc 2) (Japan) (Track 04).bin" BINARY
  TRACK 04 AUDIO
    INDEX 01 00:00:00
FILE "Super Mario World 3D Original Soundtrack (Disc 2) (Japan) (Track 05).bin" BINARY
  TRACK 05 AUDIO
    INDEX 01 00:00:00
FILE "Super Mario World 3D Original Soundtrack (Disc 2) (Japan) (Track 06).bin" BINARY
  TRACK 06 AUDIO
    INDEX 01 00:00:00
FILE "Super Mario World 3D Original Soundtrack (Disc 2) (Japan) (Track 07).bin" BINARY
  TRACK 07 AUDIO
    INDEX 01 00:00:00
FILE "Super Mario World 3D Original Soundtrack (Disc 2) (Japan) (Track 08).bin" BINARY
  TRACK 08 AUDIO
    INDEX 01 00:00:00
FILE "Super Mario World 3D Original Soundtrack (Disc 2) (Japan) (Track 09).bin" BINARY
  TRACK 09 AUDIO
    INDEX 01 00:00:00
FILE "Super Mario World 3D Original Soundtrack (Disc 2) (Japan) (Track 10).bin" BINARY
  TRACK 10 AUDIO
    INDEX 01 00:00:00
FILE "Super Mario World 3D Original Soundtrack (Disc 2) (Japan) (Track 11).bin" BINARY
  TRACK 11 AUDIO
    INDEX 01 00:00:00
FILE "Super Mario World 3D Original Soundtrack (Disc 2) (Japan) (Track 12).bin" BINARY
  TRACK 12 AUDIO
    INDEX 01 00:00:00
FILE "Super Mario World 3D Original Soundtrack (Disc 2) (Japan) (Track 13).bin" BINARY
  TRACK 13 AUDIO
    INDEX 01 00:00:00
FILE "Super Mario World 3D Original Soundtrack (Disc 2) (Japan) (Track 14).bin" BINARY
  TRACK 14 AUDIO
    INDEX 01 00:00:00
FILE "Super Mario World 3D Original Soundtrack (Disc 2) (Japan) (Track 15).bin" BINARY
  TRACK 15 AUDIO
    INDEX 01 00:00:00
FILE "Super Mario World 3D Original Soundtrack (Disc 2) (Japan) (Track 16).bin" BINARY
  TRACK 16 AUDIO
    INDEX 01 00:00:00
FILE "Super Mario World 3D Original Soundtrack (Disc 2) (Japan) (Track 17).bin" BINARY
  TRACK 17 AUDIO
    INDEX 01 00:00:00
FILE "Super Mario World 3D Original Soundtrack (Disc 2) (Japan) (Track 18).bin" BINARY
  TRACK 18 AUDIO
    INDEX 01 00:00:00
FILE "Super Mario World 3D Original Soundtrack (Disc 2) (Japan) (Track 19).bin" BINARY
  TRACK 19 AUDIO
    INDEX 01 00:00:00
FILE "Super Mario World 3D Original Soundtrack (Disc 2) (Japan) (Track 20).bin" BINARY
  TRACK 20 AUDIO
    INDEX 01 00:00:00
FILE "Super Mario World 3D Original Soundtrack (Disc 2) (Japan) (Track 21).bin" BINARY
  TRACK 21 AUDIO
    INDEX 01 00:00:00
FILE "Super Mario World 3D Original Soundtrack (Disc 2) (Japan) (Track 22).bin" BINARY
  TRACK 22 AUDIO
    INDEX 01 00:00:00
FILE "Super Mario World 3D Original Soundtrack (Disc 2) (Japan) (Track 23).bin" BINARY
  TRACK 23 AUDIO
    INDEX 01 00:00:00
FILE "Super Mario World 3D Original Soundtrack (Disc 2) (Japan) (Track 24).bin" BINARY
  TRACK 24 AUDIO
    INDEX 01 00:00:00
FILE "Super Mario World 3D Original Soundtrack (Disc 2) (Japan) (Track 25).bin" BINARY
  TRACK 25 AUDIO
    INDEX 01 00:00:00
FILE "Super Mario World 3D Original Soundtrack (Disc 2) (Japan) (Track 26).bin" BINARY
  TRACK 26 AUDIO
    INDEX 01 00:00:00
FILE "Super Mario World 3D Original Soundtrack (Disc 2) (Japan) (Track 27).bin" BINARY
  TRACK 27 AUDIO
    INDEX 01 00:00:00
FILE "Super Mario World 3D Original Soundtrack (Disc 2) (Japan) (Track 28).bin" BINARY
  TRACK 28 AUDIO
    INDEX 01 00:00:00
FILE "Super Mario World 3D Original Soundtrack (Disc 2) (Japan) (Track 29).bin" BINARY
  TRACK 29 AUDIO
    INDEX 01 00:00:00
FILE "Super Mario World 3D Original Soundtrack (Disc 2) (Japan) (Track 30).bin" BINARY
  TRACK 30 AUDIO
    INDEX 01 00:00:00
FILE "Super Mario World 3D Original Soundtrack (Disc 2) (Japan) (Track 31).bin" BINARY
  TRACK 31 AUDIO
    INDEX 01 00:00:00
FILE "Super Mario World 3D Original Soundtrack (Disc 2) (Japan) (Track 32).bin" BINARY
  TRACK 32 AUDIO
    INDEX 01 00:00:00
FILE "Super Mario World 3D Original Soundtrack (Disc 2) (Japan) (Track 33).bin" BINARY
  TRACK 33 AUDIO
    INDEX 01 00:00:00
FILE "Super Mario World 3D Original Soundtrack (Disc 2) (Japan) (Track 34).bin" BINARY
  TRACK 34 AUDIO
    INDEX 01 00:00:00
FILE "Super Mario World 3D Original Soundtrack (Disc 2) (Japan) (Track 35).bin" BINARY
  TRACK 35 AUDIO
    INDEX 01 00:00:00
FILE "Super Mario World 3D Original Soundtrack (Disc 2) (Japan) (Track 36).bin" BINARY
  TRACK 36 AUDIO
    INDEX 01 00:00:00
FILE "Super Mario World 3D Original Soundtrack (Disc 2) (Japan) (Track 37).bin" BINARY
  TRACK 37 AUDIO
    INDEX 01 00:00:00
FILE "Super Mario World 3D Original Soundtrack (Disc 2) (Japan) (Track 38).bin" BINARY
  TRACK 38 AUDIO
    INDEX 01 00:00:00
FILE "Super Mario World 3D Original Soundtrack (Disc 2) (Japan) (Track 39).bin" BINARY
  TRACK 39 AUDIO
    INDEX 01 00:00:00

    Write Offset: 0

https://cdn.discordapp.com/attachments/ … 2_Japan.7z

Common Disc Info:
    Title: SUPER MARIO 3D WORLD ORIGINAL SOUND TRACK
    Foreign Title (Non-latin): スーパーマリオ 3Dワールド オリジナル サウンドトラック
    Disc Number / Letter: 1
    Disc Title:
    System: Audio CD
    Media Type: CD-ROM
    Category: Audio
    Region: Japan
    Disc Serial: NTDT-17289

    Ringcode Information:
        Mastering Code (laser branded/etched): NTDT-17289  MT  B01
        Mastering SID Code: IFPI L262
        Data-Side Mould SID Code: IFPI 4459
        Label-Side Mould SID Code:
        Additional Mould:
        Toolstamp or Mastering Code (engraved/stamped):
    Barcode:
    Error Count: 0
    Comments:
    Contents:

Version and Editions:
    Version:
    Edition/Release: Original

Extras:
    Primary Volume Descriptor (PVD): Disc has no PVD

Tracks and Write Offsets:
    DAT:

<rom name="Super Mario World 3D Original Soundtrack (Disc 1) (Japan) (Track 01).bin" size="7613424" crc="df232ee6" md5="fb372340ca0b75cffc5fc24dbd65930a" sha1="c40b64a04cbec85b5c20d3f7b85d30c6de418cad" />
<rom name="Super Mario World 3D Original Soundtrack (Disc 1) (Japan) (Track 02).bin" size="12385632" crc="75e435a5" md5="9277975efe99f16bf7d29d648bc0e2f6" sha1="58e1b959e477d62b34474fe96cdd60f7781b2de3" />
<rom name="Super Mario World 3D Original Soundtrack (Disc 1) (Japan) (Track 03).bin" size="22595664" crc="bdb58e63" md5="fbe38c922cdf88bc0b4660e62832adba" sha1="1f5909ebe7d4b44e8153cec6a6ad94abc913ca22" />
<rom name="Super Mario World 3D Original Soundtrack (Disc 1) (Japan) (Track 04).bin" size="13347600" crc="062e68b3" md5="d1d6097556f83f3be1a79046c2168b8f" sha1="6d3d43090280765e3f85204ba7b256dd82832801" />
<rom name="Super Mario World 3D Original Soundtrack (Disc 1) (Japan) (Track 05).bin" size="14516544" crc="7ca57358" md5="2b44592f77c4f71defc7d5a6f9be5036" sha1="910a0403428b14b464dc0aa4a29866a29ef4b158" />
<rom name="Super Mario World 3D Original Soundtrack (Disc 1) (Japan) (Track 06).bin" size="1547616" crc="70fd3a25" md5="375c37799ff37db06ba252869cce2ea7" sha1="b84103503204bbbb9c09e30899d5b8ba02ff9f02" />
<rom name="Super Mario World 3D Original Soundtrack (Disc 1) (Japan) (Track 07).bin" size="12049296" crc="e17d4237" md5="8cbd4b6b8c10f94ab5435d0a3c534b6c" sha1="a2cb837251d77d2133eb89d7fef6bc200a78f8b3" />
<rom name="Super Mario World 3D Original Soundtrack (Disc 1) (Japan) (Track 08).bin" size="8707104" crc="0cfaf25e" md5="3ba1751b6f1d68d85f8aa0989f883ff9" sha1="a138fb988dafda9d7aba0c3e141aeaf4fc6040b0" />
<rom name="Super Mario World 3D Original Soundtrack (Disc 1) (Japan) (Track 09).bin" size="4852176" crc="fcbd0632" md5="2899473afe0a70442af8efe4b15c7829" sha1="18d17d171ee09d3e377305ca3fdaa3e1a9de43a8" />
<rom name="Super Mario World 3D Original Soundtrack (Disc 1) (Japan) (Track 10).bin" size="37481472" crc="ecff34b6" md5="b24d4d249373717b78a573946522c1ae" sha1="bdb42aea46d9f8b1dee4b0ee36cf12a903b5130b" />
<rom name="Super Mario World 3D Original Soundtrack (Disc 1) (Japan) (Track 11).bin" size="16424016" crc="e21ea590" md5="79b9f94751ca8a6b4d749185008b6f2c" sha1="0f2534af57948cad11aa64b161616ea111adad7b" />
<rom name="Super Mario World 3D Original Soundtrack (Disc 1) (Japan) (Track 12).bin" size="8697696" crc="67ae73e8" md5="fa67983d660366f17423ab9112b0d752" sha1="9d023ab33367492d600429925884b1963119a6d1" />
<rom name="Super Mario World 3D Original Soundtrack (Disc 1) (Japan) (Track 13).bin" size="15024576" crc="ad072a1e" md5="a373f9f3f54b41e38fcd3e64fdc77408" sha1="93ab62cc9053f811b2a12b37bc75270a27124447" />
<rom name="Super Mario World 3D Original Soundtrack (Disc 1) (Japan) (Track 14).bin" size="19385184" crc="c019056b" md5="a92eda78c56f84597331e5f6c7e67436" sha1="71d8748fdb3f3dc736b8f864f05b3404df4715bf" />
<rom name="Super Mario World 3D Original Soundtrack (Disc 1) (Japan) (Track 15).bin" size="18159792" crc="8c825880" md5="a43679c5a152eb29750dfed322f93566" sha1="438b23fd021ef974b8d4cb549748f61ef53019f5" />
<rom name="Super Mario World 3D Original Soundtrack (Disc 1) (Japan) (Track 16).bin" size="4106592" crc="0a089cd0" md5="e0d569c4f698f988cbdb547affb60577" sha1="1b072132db4f5e5594f0e3905a5bd4bc65b353c0" />
<rom name="Super Mario World 3D Original Soundtrack (Disc 1) (Japan) (Track 17).bin" size="10626336" crc="7592bef0" md5="1708d27e2af7cc7a3a794f5cc474d097" sha1="ade955f403524985af7ef8ce7818c2f2095b26f6" />
<rom name="Super Mario World 3D Original Soundtrack (Disc 1) (Japan) (Track 18).bin" size="26064864" crc="5b7baba3" md5="589606214e8ba129c2c58e711b87d04e" sha1="70f2fdf5da376af09c16d8eac053b5f702c19ce3" />
<rom name="Super Mario World 3D Original Soundtrack (Disc 1) (Japan) (Track 19).bin" size="2116800" crc="f296bbbf" md5="a6b917c6158b340117751371402056f5" sha1="b27f5e9c1e4d85b0e465928ca9614685adc2c173" />
<rom name="Super Mario World 3D Original Soundtrack (Disc 1) (Japan) (Track 20).bin" size="12578496" crc="e2d2a99e" md5="c074481a842197dc5a8f7f1ef56619c5" sha1="9441b192faf6884d983c9925630134fcdd006a0f" />
<rom name="Super Mario World 3D Original Soundtrack (Disc 1) (Japan) (Track 21).bin" size="25853184" crc="37379679" md5="13248fa7d5c13342a5638a7cfcc0a024" sha1="96669d259149f51510ca85f0a3c8b00fb93bb091" />
<rom name="Super Mario World 3D Original Soundtrack (Disc 1) (Japan) (Track 22).bin" size="30093840" crc="26649c85" md5="44f77db2dd6d00f7a2121608724b48f5" sha1="2d95a03099dc00edd41b3606e7ebf5f017f9b3a7" />
<rom name="Super Mario World 3D Original Soundtrack (Disc 1) (Japan) (Track 23).bin" size="22826160" crc="c4fa9104" md5="a27fc9360e11b35dd157e4f9d45cd92e" sha1="fe4a3c5ae57fd2db53a1d69cdfabf7804172ce25" />
<rom name="Super Mario World 3D Original Soundtrack (Disc 1) (Japan) (Track 24).bin" size="16852080" crc="f53b0b8f" md5="e248ccae387d4c731770d95c763bf955" sha1="07aebca386f142148ee1f5a17238c2a0330f15e9" />
<rom name="Super Mario World 3D Original Soundtrack (Disc 1) (Japan) (Track 25).bin" size="29131872" crc="d0373f70" md5="29d49c3ca71e8d58c225ec543af40874" sha1="ecd0b31394eb179220d8851b5f55a1604fe5d875" />
<rom name="Super Mario World 3D Original Soundtrack (Disc 1) (Japan) (Track 26).bin" size="25963728" crc="9213b1b4" md5="af80b555d4f53a697ec4dd327577d3af" sha1="228f4f9d258b472025302b4404e56e6f056cdfdd" />
<rom name="Super Mario World 3D Original Soundtrack (Disc 1) (Japan) (Track 27).bin" size="12357408" crc="b899b8e6" md5="ff6dbea9179ddb1aab5961dcb1c7fad3" sha1="d208dc72922e732502805b542810a1b3a4775979" />
<rom name="Super Mario World 3D Original Soundtrack (Disc 1) (Japan) (Track 28).bin" size="25159344" crc="4d5ed0bb" md5="d9697b3787359d15b12eeae5f9037599" sha1="e9f199a8da41b887b82603c701c494178d8f7559" />
<rom name="Super Mario World 3D Original Soundtrack (Disc 1) (Japan) (Track 29).bin" size="5381376" crc="b38bfe3a" md5="46f981452adb24634548747886a2bc17" sha1="7230ec5a78b6dbac8bfafc784950ff9b5d1014d3" />
<rom name="Super Mario World 3D Original Soundtrack (Disc 1) (Japan) (Track 30).bin" size="23059008" crc="ff660cd3" md5="9f4cdb87d31c9e69c8f54e83c5ea3e90" sha1="1d861259a1f0deb714b9d3b626d0be675bc462c4" />
<rom name="Super Mario World 3D Original Soundtrack (Disc 1) (Japan) (Track 31).bin" size="29736336" crc="d45a18fd" md5="071e27d1e20abd219af6b227ab898ac7" sha1="dafea87dc9d6e230df5d1bac7da52448a52104a6" />
<rom name="Super Mario World 3D Original Soundtrack (Disc 1) (Japan) (Track 32).bin" size="20547072" crc="dc5cea72" md5="4dd2fca13a15f09e51d9992156ddb57d" sha1="aa5b478ce8f6b64a4a7e512200ce3705058c9076" />
<rom name="Super Mario World 3D Original Soundtrack (Disc 1) (Japan) (Track 33).bin" size="4680480" crc="7bd7195a" md5="df4113b667d703e573a5fae8d1b4bbae" sha1="ff64e9b50e479605faba47aee8dc036798067453" />
<rom name="Super Mario World 3D Original Soundtrack (Disc 1) (Japan) (Track 34).bin" size="15116304" crc="c11a048a" md5="2897f926c64f05b758e9ced0f6e4b107" sha1="4671beeb21f8cad51abd8f7e74cc89379383f252" />
<rom name="Super Mario World 3D Original Soundtrack (Disc 1) (Japan) (Track 35).bin" size="21981792" crc="56ca9bd6" md5="346a0bb8f1e460e508dd63504dcdd54e" sha1="f03b47c9e99764fddbf9b1da4b0b91ab04d1716e" />
<rom name="Super Mario World 3D Original Soundtrack (Disc 1) (Japan) (Track 36).bin" size="9262176" crc="1c17a770" md5="a06aaf3e7685ad5e326f77a8ee77bb90" sha1="8df02f97717eab5247ac826dc92832ea02cd782a" />
<rom name="Super Mario World 3D Original Soundtrack (Disc 1) (Japan) (Track 37).bin" size="4028976" crc="3f1ccea9" md5="85716a17dfb5fa61fac94e7bee6422fd" sha1="114f7b2aa1a5eb690d3f0b9574b6c1deb199c980" />
<rom name="Super Mario World 3D Original Soundtrack (Disc 1) (Japan) (Track 38).bin" size="22889664" crc="75bcd05e" md5="783b9db39a4f92f353ff55f614e4d95c" sha1="ea949cb9f30de178f9710d7b63a989b32b8c8686" />

    Cuesheet:

FILE "Super Mario World 3D Original Soundtrack (Disc 1) (Japan) (Track 01).bin" BINARY
  TRACK 01 AUDIO
    INDEX 01 00:00:00
FILE "Super Mario World 3D Original Soundtrack (Disc 1) (Japan) (Track 02).bin" BINARY
  TRACK 02 AUDIO
    INDEX 01 00:00:00
FILE "Super Mario World 3D Original Soundtrack (Disc 1) (Japan) (Track 03).bin" BINARY
  TRACK 03 AUDIO
    INDEX 01 00:00:00
FILE "Super Mario World 3D Original Soundtrack (Disc 1) (Japan) (Track 04).bin" BINARY
  TRACK 04 AUDIO
    INDEX 01 00:00:00
FILE "Super Mario World 3D Original Soundtrack (Disc 1) (Japan) (Track 05).bin" BINARY
  TRACK 05 AUDIO
    INDEX 01 00:00:00
FILE "Super Mario World 3D Original Soundtrack (Disc 1) (Japan) (Track 06).bin" BINARY
  TRACK 06 AUDIO
    INDEX 01 00:00:00
FILE "Super Mario World 3D Original Soundtrack (Disc 1) (Japan) (Track 07).bin" BINARY
  TRACK 07 AUDIO
    INDEX 01 00:00:00
FILE "Super Mario World 3D Original Soundtrack (Disc 1) (Japan) (Track 08).bin" BINARY
  TRACK 08 AUDIO
    INDEX 01 00:00:00
FILE "Super Mario World 3D Original Soundtrack (Disc 1) (Japan) (Track 09).bin" BINARY
  TRACK 09 AUDIO
    INDEX 01 00:00:00
FILE "Super Mario World 3D Original Soundtrack (Disc 1) (Japan) (Track 10).bin" BINARY
  TRACK 10 AUDIO
    INDEX 01 00:00:00
FILE "Super Mario World 3D Original Soundtrack (Disc 1) (Japan) (Track 11).bin" BINARY
  TRACK 11 AUDIO
    INDEX 01 00:00:00
FILE "Super Mario World 3D Original Soundtrack (Disc 1) (Japan) (Track 12).bin" BINARY
  TRACK 12 AUDIO
    INDEX 01 00:00:00
FILE "Super Mario World 3D Original Soundtrack (Disc 1) (Japan) (Track 13).bin" BINARY
  TRACK 13 AUDIO
    INDEX 01 00:00:00
FILE "Super Mario World 3D Original Soundtrack (Disc 1) (Japan) (Track 14).bin" BINARY
  TRACK 14 AUDIO
    INDEX 01 00:00:00
FILE "Super Mario World 3D Original Soundtrack (Disc 1) (Japan) (Track 15).bin" BINARY
  TRACK 15 AUDIO
    INDEX 01 00:00:00
FILE "Super Mario World 3D Original Soundtrack (Disc 1) (Japan) (Track 16).bin" BINARY
  TRACK 16 AUDIO
    INDEX 01 00:00:00
FILE "Super Mario World 3D Original Soundtrack (Disc 1) (Japan) (Track 17).bin" BINARY
  TRACK 17 AUDIO
    INDEX 01 00:00:00
FILE "Super Mario World 3D Original Soundtrack (Disc 1) (Japan) (Track 18).bin" BINARY
  TRACK 18 AUDIO
    INDEX 01 00:00:00
FILE "Super Mario World 3D Original Soundtrack (Disc 1) (Japan) (Track 19).bin" BINARY
  TRACK 19 AUDIO
    INDEX 01 00:00:00
FILE "Super Mario World 3D Original Soundtrack (Disc 1) (Japan) (Track 20).bin" BINARY
  TRACK 20 AUDIO
    INDEX 01 00:00:00
FILE "Super Mario World 3D Original Soundtrack (Disc 1) (Japan) (Track 21).bin" BINARY
  TRACK 21 AUDIO
    INDEX 01 00:00:00
FILE "Super Mario World 3D Original Soundtrack (Disc 1) (Japan) (Track 22).bin" BINARY
  TRACK 22 AUDIO
    INDEX 01 00:00:00
FILE "Super Mario World 3D Original Soundtrack (Disc 1) (Japan) (Track 23).bin" BINARY
  TRACK 23 AUDIO
    INDEX 01 00:00:00
FILE "Super Mario World 3D Original Soundtrack (Disc 1) (Japan) (Track 24).bin" BINARY
  TRACK 24 AUDIO
    INDEX 01 00:00:00
FILE "Super Mario World 3D Original Soundtrack (Disc 1) (Japan) (Track 25).bin" BINARY
  TRACK 25 AUDIO
    INDEX 01 00:00:00
FILE "Super Mario World 3D Original Soundtrack (Disc 1) (Japan) (Track 26).bin" BINARY
  TRACK 26 AUDIO
    INDEX 01 00:00:00
FILE "Super Mario World 3D Original Soundtrack (Disc 1) (Japan) (Track 27).bin" BINARY
  TRACK 27 AUDIO
    INDEX 01 00:00:00
FILE "Super Mario World 3D Original Soundtrack (Disc 1) (Japan) (Track 28).bin" BINARY
  TRACK 28 AUDIO
    INDEX 01 00:00:00
FILE "Super Mario World 3D Original Soundtrack (Disc 1) (Japan) (Track 29).bin" BINARY
  TRACK 29 AUDIO
    INDEX 01 00:00:00
FILE "Super Mario World 3D Original Soundtrack (Disc 1) (Japan) (Track 30).bin" BINARY
  TRACK 30 AUDIO
    INDEX 01 00:00:00
FILE "Super Mario World 3D Original Soundtrack (Disc 1) (Japan) (Track 31).bin" BINARY
  TRACK 31 AUDIO
    INDEX 01 00:00:00
FILE "Super Mario World 3D Original Soundtrack (Disc 1) (Japan) (Track 32).bin" BINARY
  TRACK 32 AUDIO
    INDEX 01 00:00:00
FILE "Super Mario World 3D Original Soundtrack (Disc 1) (Japan) (Track 33).bin" BINARY
  TRACK 33 AUDIO
    INDEX 01 00:00:00
FILE "Super Mario World 3D Original Soundtrack (Disc 1) (Japan) (Track 34).bin" BINARY
  TRACK 34 AUDIO
    INDEX 01 00:00:00
FILE "Super Mario World 3D Original Soundtrack (Disc 1) (Japan) (Track 35).bin" BINARY
  TRACK 35 AUDIO
    INDEX 01 00:00:00
FILE "Super Mario World 3D Original Soundtrack (Disc 1) (Japan) (Track 36).bin" BINARY
  TRACK 36 AUDIO
    INDEX 01 00:00:00
FILE "Super Mario World 3D Original Soundtrack (Disc 1) (Japan) (Track 37).bin" BINARY
  TRACK 37 AUDIO
    INDEX 01 00:00:00
FILE "Super Mario World 3D Original Soundtrack (Disc 1) (Japan) (Track 38).bin" BINARY
  TRACK 38 AUDIO
    INDEX 01 00:00:00

    Write Offset: 0

https://cdn.discordapp.com/attachments/ … 1_Japan.7z

Common Disc Info:
    Title: The Legend of Legacy Original Soundtrack
    Foreign Title (Non-latin): レジェンド オブ レガシー オリジナルサウンドトラック
    Disc Number / Letter: 2
    Disc Title:
    System: Audio CD
    Media Type: CD-ROM
    Category: Audio
    Region: Japan
    Disc Serial: MNMK-007

    Ringcode Information:
        Mastering Code (laser branded/etched): MNMK-007-DISC2 <TAB> 1B44200057
        Mastering SID Code: IFPI LT029
        Data-Side Mould SID Code: IFPI TBE02
        Label-Side Mould SID Code:
        Additional Mould:
        Toolstamp or Mastering Code (engraved/stamped):
    Barcode: 4 988044920156
    Error Count: 0
    Comments:
    Contents:

Version and Editions:
    Version:
    Edition/Release: Original

Extras:
    Primary Volume Descriptor (PVD): Disc has no PVD

Tracks and Write Offsets:
    DAT:

<rom name="The Legend of Legacy Original Soundtrack (Disc 2) (Japan) (Track 01).bin" size="27193824" crc="85ad2c65" md5="a92112cf6812d46e6dc68830a057bb3a" sha1="beb80c86d34fdb7be4f16202d5542b4f24a2e959" />
<rom name="The Legend of Legacy Original Soundtrack (Disc 2) (Japan) (Track 02).bin" size="39022032" crc="00844d13" md5="1b3ac9a047630d9bf289acc18058c045" sha1="230ba5cc1e09cd62470e2a50abf0f280dfc78a2a" />
<rom name="The Legend of Legacy Original Soundtrack (Disc 2) (Japan) (Track 03).bin" size="27231456" crc="5d29ee25" md5="53a251217d5833d918c5eccef54597c4" sha1="327a7ac8fc469701612d27d738d37133b2ed88a4" />
<rom name="The Legend of Legacy Original Soundtrack (Disc 2) (Japan) (Track 04).bin" size="41764464" crc="56ea8361" md5="890fd518929d88dc2469bb696fc75e92" sha1="e16614a8b72e81eb617ce67a427e5d0f535e5c67" />
<rom name="The Legend of Legacy Original Soundtrack (Disc 2) (Japan) (Track 05).bin" size="39647664" crc="d4c92175" md5="eee3d4609a9c3e59f932442026cefb01" sha1="85b147e240f62170bdd087c04745bff83597eb34" />
<rom name="The Legend of Legacy Original Soundtrack (Disc 2) (Japan) (Track 06).bin" size="23628192" crc="8eab1046" md5="82bac6f695e3be3e0cf407920cae7f68" sha1="58f2f642b551b3a29653eeae7b06dbbfceecdaf0" />
<rom name="The Legend of Legacy Original Soundtrack (Disc 2) (Japan) (Track 07).bin" size="27511344" crc="f4019777" md5="b916d80896f7b39b104ae83357839513" sha1="95d2389811bf07575fb2eb71ba355243ceeece58" />
<rom name="The Legend of Legacy Original Soundtrack (Disc 2) (Japan) (Track 08).bin" size="42618240" crc="6f057a16" md5="1dd6791def5e1f5c1157da9ee901e233" sha1="942169a9046b92c7b72f1adb69cb5198daf1d30d" />
<rom name="The Legend of Legacy Original Soundtrack (Disc 2) (Japan) (Track 09).bin" size="24674832" crc="c6fba701" md5="889811042c356219ff0474f7704a910e" sha1="06fcdf31bc4ac3fbb5feddc517638efc307d0e87" />
<rom name="The Legend of Legacy Original Soundtrack (Disc 2) (Japan) (Track 10).bin" size="41021232" crc="be297faa" md5="102704aaefbdec9d5c6dee19e7859eb1" sha1="3adcd04c09565e31eb42a1ea2204bad2f34e866d" />
<rom name="The Legend of Legacy Original Soundtrack (Disc 2) (Japan) (Track 11).bin" size="27245568" crc="598b3d24" md5="d616cb533c9218acf005084bccac1de5" sha1="ad40b34f10a83ae57db9308ae18606216c9f7779" />
<rom name="The Legend of Legacy Original Soundtrack (Disc 2) (Japan) (Track 12).bin" size="28630896" crc="6cf800ee" md5="519c43d1b88f4dee9d1b5cb276cbaa2e" sha1="bb8aae2d71887844c4868e6df23849a43b2c5576" />
<rom name="The Legend of Legacy Original Soundtrack (Disc 2) (Japan) (Track 13).bin" size="52952928" crc="f38b5e4f" md5="40348425f1f9d9245362c8c570e2862d" sha1="b31f701742ca4f43bb23956903752ce5a049d770" />
<rom name="The Legend of Legacy Original Soundtrack (Disc 2) (Japan) (Track 14).bin" size="29738688" crc="a9f41305" md5="29a385eec1cc7ea99436f343c29c57bb" sha1="7aac1b66567c4c90c1dc44cc0b8b2b5c9d4a3504" />
<rom name="The Legend of Legacy Original Soundtrack (Disc 2) (Japan) (Track 15).bin" size="41609232" crc="d0fe0c7b" md5="4bd5b0bf572c1ef9b5bd8d9eff6c7a86" sha1="93fb813a5663dea4ff16fe9bbe82d0c06560e228" />
<rom name="The Legend of Legacy Original Soundtrack (Disc 2) (Japan) (Track 16).bin" size="32979744" crc="6112fbb7" md5="d2472c4ad409a466207a47e803aec912" sha1="acf671a1fe59791a2749861152be4ac057f1072c" />

    Cuesheet:

CATALOG 4988044920156
FILE "The Legend of Legacy Original Soundtrack (Disc 2) (Japan) (Track 01).bin" BINARY
  TRACK 01 AUDIO
    INDEX 01 00:00:00
FILE "The Legend of Legacy Original Soundtrack (Disc 2) (Japan) (Track 02).bin" BINARY
  TRACK 02 AUDIO
    INDEX 00 00:00:00
    INDEX 01 00:01:48
FILE "The Legend of Legacy Original Soundtrack (Disc 2) (Japan) (Track 03).bin" BINARY
  TRACK 03 AUDIO
    INDEX 00 00:00:00
    INDEX 01 00:02:47
FILE "The Legend of Legacy Original Soundtrack (Disc 2) (Japan) (Track 04).bin" BINARY
  TRACK 04 AUDIO
    INDEX 00 00:00:00
    INDEX 01 00:02:10
FILE "The Legend of Legacy Original Soundtrack (Disc 2) (Japan) (Track 05).bin" BINARY
  TRACK 05 AUDIO
    INDEX 00 00:00:00
    INDEX 01 00:01:47
FILE "The Legend of Legacy Original Soundtrack (Disc 2) (Japan) (Track 06).bin" BINARY
  TRACK 06 AUDIO
    INDEX 00 00:00:00
    INDEX 01 00:01:48
FILE "The Legend of Legacy Original Soundtrack (Disc 2) (Japan) (Track 07).bin" BINARY
  TRACK 07 AUDIO
    INDEX 00 00:00:00
    INDEX 01 00:01:48
FILE "The Legend of Legacy Original Soundtrack (Disc 2) (Japan) (Track 08).bin" BINARY
  TRACK 08 AUDIO
    INDEX 00 00:00:00
    INDEX 01 00:01:47
FILE "The Legend of Legacy Original Soundtrack (Disc 2) (Japan) (Track 09).bin" BINARY
  TRACK 09 AUDIO
    INDEX 00 00:00:00
    INDEX 01 00:03:47
FILE "The Legend of Legacy Original Soundtrack (Disc 2) (Japan) (Track 10).bin" BINARY
  TRACK 10 AUDIO
    INDEX 00 00:00:00
    INDEX 01 00:01:48
FILE "The Legend of Legacy Original Soundtrack (Disc 2) (Japan) (Track 11).bin" BINARY
  TRACK 11 AUDIO
    INDEX 00 00:00:00
    INDEX 01 00:02:47
FILE "The Legend of Legacy Original Soundtrack (Disc 2) (Japan) (Track 12).bin" BINARY
  TRACK 12 AUDIO
    INDEX 00 00:00:00
    INDEX 01 00:01:48
FILE "The Legend of Legacy Original Soundtrack (Disc 2) (Japan) (Track 13).bin" BINARY
  TRACK 13 AUDIO
    INDEX 00 00:00:00
    INDEX 01 00:01:48
FILE "The Legend of Legacy Original Soundtrack (Disc 2) (Japan) (Track 14).bin" BINARY
  TRACK 14 AUDIO
    INDEX 00 00:00:00
    INDEX 01 00:02:47
FILE "The Legend of Legacy Original Soundtrack (Disc 2) (Japan) (Track 15).bin" BINARY
  TRACK 15 AUDIO
    INDEX 00 00:00:00
    INDEX 01 00:01:47
FILE "The Legend of Legacy Original Soundtrack (Disc 2) (Japan) (Track 16).bin" BINARY
  TRACK 16 AUDIO
    INDEX 00 00:00:00
    INDEX 01 00:05:47

    Write Offset: 0

https://cdn.discordapp.com/attachments/ … 2_Japan.7z

Common Disc Info:
    Title: The Legend of Legacy Original Soundtrack
    Foreign Title (Non-latin): レジェンド オブ レガシー オリジナルサウンドトラック
    Disc Number / Letter: 1
    Disc Title:
    System: Audio CD
    Media Type: CD-ROM
    Category: Audio
    Region: Japan
    Disc Serial: MNMK-007

    Ringcode Information:
        Mastering Code (laser branded/etched): MNMK-007-DISC1 <TAB> 1B44200056
        Mastering SID Code: IFPI LT029
        Data-Side Mould SID Code: IFPI TBE02
        Label-Side Mould SID Code:
        Additional Mould:
        Toolstamp or Mastering Code (engraved/stamped):
    Barcode: 4 988044920156
    Error Count: 0
    Comments:
    Contents:

Version and Editions:
    Version:
    Edition/Release: Original

Extras:
    Primary Volume Descriptor (PVD): Disc has no PVD

Tracks and Write Offsets:
    DAT:

<rom name="The Legend of Legacy Original Soundtrack (Disc 1) (Japan) (Track 01).bin" size="34967184" crc="9f063ff4" md5="02ddf7073159751f1f6f357cd8bee839" sha1="948874dcc2dab3a8c434e97bfe5844c266b7f11f" />
<rom name="The Legend of Legacy Original Soundtrack (Disc 1) (Japan) (Track 02).bin" size="30740640" crc="121ffb77" md5="fbe7e1213acbe07c8412e4c417ed4de2" sha1="3ddbb4545fc856c27d31b20189877afc9ad294d2" />
<rom name="The Legend of Legacy Original Soundtrack (Disc 1) (Japan) (Track 03).bin" size="17919888" crc="0cb61ac3" md5="d28ca8257d8a8b56e7ed1402e38f9aaa" sha1="b2c5c8556ea13c2fad9e2ac47e88e5684825e3c0" />
<rom name="The Legend of Legacy Original Soundtrack (Disc 1) (Japan) (Track 04).bin" size="24696000" crc="3c2ace77" md5="49c81a1b13d418c0d63e917a27b61427" sha1="26e7d6e9395100a9ba964173e6b493c568c8b10d" />
<rom name="The Legend of Legacy Original Soundtrack (Disc 1) (Japan) (Track 05).bin" size="36869952" crc="2039005c" md5="26a3730439aa5d478be8b12b7efb5955" sha1="85604f4d5c56b2619a1ec00aef4851fcd23855b8" />
<rom name="The Legend of Legacy Original Soundtrack (Disc 1) (Japan) (Track 06).bin" size="12837216" crc="c1647186" md5="bb7abaafec6aa7bfa6ac97c0c2c9ba8b" sha1="ddd4be1367da12faca05cc237af09bc6b6125c5e" />
<rom name="The Legend of Legacy Original Soundtrack (Disc 1) (Japan) (Track 07).bin" size="28809648" crc="25dbb61c" md5="9406480f9baac6f4772b8a0180105a94" sha1="1ec6732fd68b4beaa199810010e9cfe76ab5ffed" />
<rom name="The Legend of Legacy Original Soundtrack (Disc 1) (Japan) (Track 08).bin" size="28755552" crc="d4624e7c" md5="651f1c54eb796d9acb488885e73b1d59" sha1="c840266fa7991e6f1f9bb85a058e9ef61be17737" />
<rom name="The Legend of Legacy Original Soundtrack (Disc 1) (Japan) (Track 09).bin" size="6870192" crc="4fa765fc" md5="69fadf80820e8bfc5f34546b0e6d660b" sha1="ef8d5f52682a3c71c681afea1990ee72aacb1cf0" />
<rom name="The Legend of Legacy Original Soundtrack (Disc 1) (Japan) (Track 10).bin" size="26118960" crc="0c71a1a0" md5="b4029fb48950802b8d2a805be4d0ce28" sha1="c5e9b242e9a6929e072cdb2c6ef296489144fb1a" />
<rom name="The Legend of Legacy Original Soundtrack (Disc 1) (Japan) (Track 11).bin" size="1531152" crc="983e1079" md5="e8750f2bd9a11a38dd1def71f96048c3" sha1="2f26c75e442f5df52d757ae033c319f6545dc761" />
<rom name="The Legend of Legacy Original Soundtrack (Disc 1) (Japan) (Track 12).bin" size="52087392" crc="26c22d9f" md5="54e8914026ded1090368264d29be576a" sha1="94ff76bd4da0b7dbedbfb6c2784f4ede5c6b38cf" />
<rom name="The Legend of Legacy Original Soundtrack (Disc 1) (Japan) (Track 13).bin" size="17632944" crc="87a7fd6e" md5="327a111fc6a6b81f688ec319c9bcd2d2" sha1="16a1c5fba125bd045e3fa53579a1d09b72c51a6a" />
<rom name="The Legend of Legacy Original Soundtrack (Disc 1) (Japan) (Track 14).bin" size="30971136" crc="7e060a49" md5="0dacc996fcaa1c7cd7d26cd044a47ab0" sha1="8be41cf0f8217fe2cd371d32fbcdbfad5ff0ec5d" />
<rom name="The Legend of Legacy Original Soundtrack (Disc 1) (Japan) (Track 15).bin" size="21073920" crc="a9e7b817" md5="d6735a071806e715f3b2e363623a86e5" sha1="cbba937cc2f09100916100c32b56895de6171d6b" />
<rom name="The Legend of Legacy Original Soundtrack (Disc 1) (Japan) (Track 16).bin" size="2166192" crc="e3a5f953" md5="63323a819323ab811e048831b780ad02" sha1="a7be119e70730c9bee507ca63857eb7f0a8d107e" />
<rom name="The Legend of Legacy Original Soundtrack (Disc 1) (Japan) (Track 17).bin" size="20631744" crc="ab39f34c" md5="365a0927a91e3141f274423e0b76aff8" sha1="3818508316580b901c765abb5b5b449c66012d23" />
<rom name="The Legend of Legacy Original Soundtrack (Disc 1) (Japan) (Track 18).bin" size="35148288" crc="4e6a4571" md5="7fca90199d2645d14a75701f474a24a2" sha1="4e67c7a03ad354c6110f58f286c2f35188a8ea91" />
<rom name="The Legend of Legacy Original Soundtrack (Disc 1) (Japan) (Track 19).bin" size="30383136" crc="6774c236" md5="7c25126d072d38d437008fd573bc1719" sha1="a97a64988ecd49705e7ef3a49f51ab0a2df59731" />

    Cuesheet:

CATALOG 4988044920156
FILE "The Legend of Legacy Original Soundtrack (Disc 1) (Japan) (Track 01).bin" BINARY
  TRACK 01 AUDIO
    INDEX 01 00:00:00
FILE "The Legend of Legacy Original Soundtrack (Disc 1) (Japan) (Track 02).bin" BINARY
  TRACK 02 AUDIO
    INDEX 00 00:00:00
    INDEX 01 00:01:48
FILE "The Legend of Legacy Original Soundtrack (Disc 1) (Japan) (Track 03).bin" BINARY
  TRACK 03 AUDIO
    INDEX 00 00:00:00
    INDEX 01 00:01:48
FILE "The Legend of Legacy Original Soundtrack (Disc 1) (Japan) (Track 04).bin" BINARY
  TRACK 04 AUDIO
    INDEX 00 00:00:00
    INDEX 01 00:01:48
FILE "The Legend of Legacy Original Soundtrack (Disc 1) (Japan) (Track 05).bin" BINARY
  TRACK 05 AUDIO
    INDEX 00 00:00:00
    INDEX 01 00:01:48
FILE "The Legend of Legacy Original Soundtrack (Disc 1) (Japan) (Track 06).bin" BINARY
  TRACK 06 AUDIO
    INDEX 00 00:00:00
    INDEX 01 00:01:48
FILE "The Legend of Legacy Original Soundtrack (Disc 1) (Japan) (Track 07).bin" BINARY
  TRACK 07 AUDIO
    INDEX 00 00:00:00
    INDEX 01 00:02:08
FILE "The Legend of Legacy Original Soundtrack (Disc 1) (Japan) (Track 08).bin" BINARY
  TRACK 08 AUDIO
    INDEX 00 00:00:00
    INDEX 01 00:01:47
FILE "The Legend of Legacy Original Soundtrack (Disc 1) (Japan) (Track 09).bin" BINARY
  TRACK 09 AUDIO
    INDEX 00 00:00:00
    INDEX 01 00:01:48
FILE "The Legend of Legacy Original Soundtrack (Disc 1) (Japan) (Track 10).bin" BINARY
  TRACK 10 AUDIO
    INDEX 00 00:00:00
    INDEX 01 00:01:47
FILE "The Legend of Legacy Original Soundtrack (Disc 1) (Japan) (Track 11).bin" BINARY
  TRACK 11 AUDIO
    INDEX 00 00:00:00
    INDEX 01 00:01:47
FILE "The Legend of Legacy Original Soundtrack (Disc 1) (Japan) (Track 12).bin" BINARY
  TRACK 12 AUDIO
    INDEX 00 00:00:00
    INDEX 01 00:01:47
FILE "The Legend of Legacy Original Soundtrack (Disc 1) (Japan) (Track 13).bin" BINARY
  TRACK 13 AUDIO
    INDEX 00 00:00:00
    INDEX 01 00:02:47
FILE "The Legend of Legacy Original Soundtrack (Disc 1) (Japan) (Track 14).bin" BINARY
  TRACK 14 AUDIO
    INDEX 00 00:00:00
    INDEX 01 00:01:48
FILE "The Legend of Legacy Original Soundtrack (Disc 1) (Japan) (Track 15).bin" BINARY
  TRACK 15 AUDIO
    INDEX 00 00:00:00
    INDEX 01 00:01:48
FILE "The Legend of Legacy Original Soundtrack (Disc 1) (Japan) (Track 16).bin" BINARY
  TRACK 16 AUDIO
    INDEX 00 00:00:00
    INDEX 01 00:01:48
FILE "The Legend of Legacy Original Soundtrack (Disc 1) (Japan) (Track 17).bin" BINARY
  TRACK 17 AUDIO
    INDEX 00 00:00:00
    INDEX 01 00:01:48
FILE "The Legend of Legacy Original Soundtrack (Disc 1) (Japan) (Track 18).bin" BINARY
  TRACK 18 AUDIO
    INDEX 00 00:00:00
    INDEX 01 00:01:48
FILE "The Legend of Legacy Original Soundtrack (Disc 1) (Japan) (Track 19).bin" BINARY
  TRACK 19 AUDIO
    INDEX 00 00:00:00
    INDEX 01 00:01:48

    Write Offset: 0

https://cdn.discordapp.com/attachments/ … 1_Japan.7z

9

(2 replies, posted in New Dumps)

Common Disc Info:
    Title: Riglordsaga
    Foreign Title (Non-latin): リグロード・サーガ
    System: Sega Saturn
    Media Type: CD-ROM
    Category: Games
    Region: Japan
    Languages: Japanese
    Disc Serial: GS-9021

    Ringcode Information:
        Mastering Code (laser branded/etched): GS-9021P-00344   4M1   C   57
        Mastering SID Code: IFPI L223
        Data-Side Mould SID Code: IFPI 3901
        Label-Side Mould SID Code:
        Additional Mould:
        Toolstamp or Mastering Code (engraved/stamped):
    Barcode: 4 974365 090210
    EXE/Build Date: 19950501
    Error Count: 0
    Comments:
    Contents:

Version and Editions:
    Version: V1.000
    Edition/Release: Original

Extras:
    Primary Volume Descriptor (PVD):

0320 : 20 20 20 20 20 20 20 20  20 20 20 20 20 31 39 39                199
0330 : 35 30 35 31 31 31 39 35  37 30 31 30 30 14 31 39   5051119570100.19
0340 : 39 35 30 35 31 31 31 39  35 37 30 31 30 30 14 30   95051119570100.0
0350 : 30 30 30 30 30 30 30 30  30 30 30 30 30 30 30 00   000000000000000.
0360 : 30 30 30 30 30 30 30 30  30 30 30 30 30 30 30 30   0000000000000000
0370 : 00 01 00 00 00 00 00 00  00 00 00 00 00 00 00 00   ................

    Header:

0000 : 53 45 47 41 20 53 45 47  41 53 41 54 55 52 4E 20   SEGA SEGASATURN 
0010 : 53 45 47 41 20 45 4E 54  45 52 50 52 49 53 45 53   SEGA ENTERPRISES
0020 : 47 53 2D 39 30 32 31 20  20 20 56 31 2E 30 30 30   GS-9021   V1.000
0030 : 31 39 39 35 30 35 30 31  43 44 2D 31 2F 31 20 20   19950501CD-1/1  
0040 : 4A 54 20 20 20 20 20 20  20 20 20 20 20 20 20 20   JT              
0050 : 4A 20 20 20 20 20 20 20  20 20 20 20 20 20 20 20   J               
0060 : 52 49 47 4C 4F 52 44 53  41 47 41 20 20 20 20 20   RIGLORDSAGA     
0070 : 20 20 20 20 20 20 20 20  20 20 20 20 20 20 20 20                   
0080 : 20 20 20 20 20 20 20 20  20 20 20 20 20 20 20 20                   
0090 : 20 20 20 20 20 20 20 20  20 20 20 20 20 20 20 20                   
00A0 : 20 20 20 20 20 20 20 20  20 20 20 20 20 20 20 20                   
00B0 : 20 20 20 20 20 20 20 20  20 20 20 20 20 20 20 20                   
00C0 : 20 20 20 20 20 20 20 20  20 20 20 20 20 20 20 20                   
00D0 : 00 00 00 00 00 00 00 00  00 00 00 00 00 00 00 00   ................
00E0 : 00 00 80 00 00 00 00 00  00 00 00 00 00 00 00 00   ................
00F0 : 06 00 40 00 00 00 00 00  00 00 00 00 00 00 00 00   ..@.............

Tracks and Write Offsets:
    DAT:

<rom name="Riglordsaga (Japan) (Track 1).bin" size="177406656" crc="9a5e51fb" md5="4270c76f0492f0fc1cfec2254724f597" sha1="17e65814e5a8d8843b58c8a1191fea9109df1731" />
<rom name="Riglordsaga (Japan) (Track 2).bin" size="19789728" crc="2ea04c98" md5="213d671eec283286ed7143e5ecf40de4" sha1="7ca3fc6dc9ad26403e2be576044b9ad281f0bc3a" />
<rom name="Riglordsaga (Japan) (Track 3).bin" size="6482112" crc="07079e1a" md5="f9617c6641f0e0417934828dc5d3876d" sha1="82b58743084043429653c3adcf99249bac6a8e30" />
<rom name="Riglordsaga (Japan) (Track 4).bin" size="16012416" crc="3fdb7272" md5="fc91cd06bb49ee45caf9c67c94fdd582" sha1="c4d63171c800f452c5b406e6daee982837bacd45" />
<rom name="Riglordsaga (Japan) (Track 5).bin" size="44158800" crc="1f039931" md5="76947324862187f6a0e5acedff3126f2" sha1="8d7c91c43bdf01219e81e335ac9479605551593c" />
<rom name="Riglordsaga (Japan) (Track 6).bin" size="54469968" crc="eea6cc87" md5="90b6ef48850dfd846a0d2f55278c596d" sha1="13cddbbaac3c21bf765ae888684198666ab8f4c2" />
<rom name="Riglordsaga (Japan) (Track 7).bin" size="32953872" crc="a35a349f" md5="eac9b3173d2cf49f48fa26c0d7f50602" sha1="a6e7f7d5f4b3a0a097d3f7ac5126f08ca320d02b" />

    Cuesheet:

CATALOG 0000000000000
FILE "Riglordsaga (Japan) (Track 1).bin" BINARY
  TRACK 01 MODE1/2352
    INDEX 01 00:00:00
FILE "Riglordsaga (Japan) (Track 2).bin" BINARY
  TRACK 02 AUDIO
    INDEX 00 00:00:00
    INDEX 01 00:01:74
FILE "Riglordsaga (Japan) (Track 3).bin" BINARY
  TRACK 03 AUDIO
    INDEX 00 00:00:00
    INDEX 01 00:02:00
FILE "Riglordsaga (Japan) (Track 4).bin" BINARY
  TRACK 04 AUDIO
    INDEX 00 00:00:00
    INDEX 01 00:02:00
FILE "Riglordsaga (Japan) (Track 5).bin" BINARY
  TRACK 05 AUDIO
    INDEX 00 00:00:00
    INDEX 01 00:02:00
FILE "Riglordsaga (Japan) (Track 6).bin" BINARY
  TRACK 06 AUDIO
    INDEX 00 00:00:00
    INDEX 01 00:02:00
FILE "Riglordsaga (Japan) (Track 7).bin" BINARY
  TRACK 07 AUDIO
    INDEX 00 00:00:00
    INDEX 01 00:02:00

    Write Offset: 0

https://cdn.discordapp.com/attachments/ … a_Japan.7z

I won't be able to dump this since the disc was borrowed, It'll be months before I can ask my friend for the disc back for redumping.

For the moment I cannot dump it again since the disc was borrowed from a friend and then it was later stolen due to house thievery.

I'd like to request access to the wiki please.

Common Disc Info:
    Title: TY the Tasmanian Tiger: Original Game Soundtrack
    Foreign Title (Non-latin): 
    Disc Number / Letter: 
    Disc Title: 
    System: Audio CD
    Media Type: CD-ROM
    Category: Bonus
    Region: USA

    Ringcode Information:
        Mastering Code (laser branded/etched):  FA1828   DISC MANUFACTURING SERVICES
        Mastering SID Code:  IFPI LD02
        Data-Side Mould SID Code:  IFPI 5J35
        Label-Side Mould SID Code: 
        Additional Mould: 
        Toolstamp or Mastering Code (engraved/stamped): 
    Barcode:  9 781733 465717
    Error Count: 0
    Comments: 
    Contents: 

Version and Editions:
    Version: 
    Edition/Release: Original

Extras:
    Primary Volume Descriptor (PVD): Disc has no PVD

Tracks and Write Offsets:
    DAT:

<rom name="TY The Tasmanian Tiger Original Game Soundtrack (Track 01).bin" size="7963872" crc="fcb94994" md5="5eee977b962903ac2ddab5fb583d6783" sha1="9894567f2ba0dda4f15bbe872e819cad98408cc1" />
<rom name="TY The Tasmanian Tiger Original Game Soundtrack (Track 02).bin" size="20128416" crc="5586c42b" md5="47c8556e76fcc8f1e53097147886b803" sha1="c2662fb299a693db66940cae2ca8524cfb1f1ee1" />
<rom name="TY The Tasmanian Tiger Original Game Soundtrack (Track 03).bin" size="18783072" crc="f5491511" md5="d1d1da3cfe30c12253cfb55d7a6a7927" sha1="1bd2fe151c166121d55010fb942b3cf03042354e" />
<rom name="TY The Tasmanian Tiger Original Game Soundtrack (Track 04).bin" size="30025632" crc="54991a98" md5="4b320629a5c812440ad25265c0b75a7d" sha1="04d606a1cdb436972777551bd674e4cb302e2057" />
<rom name="TY The Tasmanian Tiger Original Game Soundtrack (Track 05).bin" size="28014672" crc="db11dda2" md5="4c0b8a5b3e18a1097f8815704028570c" sha1="57e9e04ec918166d1ee95d11b0ecb11b9c707308" />
<rom name="TY The Tasmanian Tiger Original Game Soundtrack (Track 06).bin" size="30731232" crc="4493d252" md5="107f61c505a2770be7ff8f46f6e865c6" sha1="918ebfa0db63a2850c3dadaac76d0f25d3a7d681" />
<rom name="TY The Tasmanian Tiger Original Game Soundtrack (Track 07).bin" size="28891968" crc="7cdb0b5a" md5="aa0e2186685b334f5cef450819f93b8e" sha1="2dd327b0a93017d4ff9eaca31a86a58b2f72e22e" />
<rom name="TY The Tasmanian Tiger Original Game Soundtrack (Track 08).bin" size="21057456" crc="51625b52" md5="81c2c9edb77f8acbbe459034abd3271e" sha1="c4e7720720ddf2e6faf898e2bedc8e841f958e52" />
<rom name="TY The Tasmanian Tiger Original Game Soundtrack (Track 09).bin" size="25523904" crc="0e0d70b1" md5="4e5aff681655547d3c4f74f9a029df9e" sha1="b7f83799aaee7cdb6adc8a4acaa77e722a2edb3a" />
<rom name="TY The Tasmanian Tiger Original Game Soundtrack (Track 10).bin" size="27106800" crc="e5e4fef4" md5="f2fdd071c7cc153f4d0dd008b5da0217" sha1="4742e3efda442f8a164b3b9da20074f173749e2e" />
<rom name="TY The Tasmanian Tiger Original Game Soundtrack (Track 11).bin" size="18910080" crc="62018bde" md5="76d64f5e315c47ba6442345a1bb80aeb" sha1="8519ecaaa2b6899fb5e2082036f35791bd13fef3" />
<rom name="TY The Tasmanian Tiger Original Game Soundtrack (Track 12).bin" size="14994000" crc="a805b93a" md5="4b4e7baf5aa0b789fa0ee7e70f3aed42" sha1="8f6d5a976cf7ab027eca2ecccf9d715fd16d27b8" />
<rom name="TY The Tasmanian Tiger Original Game Soundtrack (Track 13).bin" size="18620784" crc="9a2007c2" md5="c7c41578eb1166417005b4bc47892ba5" sha1="7849948e49d00c5a4530907e9047cec69f7f0cb4" />
<rom name="TY The Tasmanian Tiger Original Game Soundtrack (Track 14).bin" size="27527808" crc="2a623c8d" md5="45274f89bdf40ef1308b78974219592b" sha1="f3308d8a168978344d6c8bf6f8eec01ff650cf9f" />
<rom name="TY The Tasmanian Tiger Original Game Soundtrack (Track 15).bin" size="29334144" crc="26d878aa" md5="591d5a71263ae27236b745429c75e422" sha1="68461a19592c9632aaa34fb57ac878df00d469b9" />
<rom name="TY The Tasmanian Tiger Original Game Soundtrack (Track 16).bin" size="20168400" crc="52e1df27" md5="298808254330bdbde0af9829691029f6" sha1="09c7a9e7ea999d4f3f9cbe72635ddbae16324d9c" />
<rom name="TY The Tasmanian Tiger Original Game Soundtrack (Track 17).bin" size="26253024" crc="0944d381" md5="07285d6bba98d1081eed9a18a5361efd" sha1="871ae883b0bbb11782a7d92a5d2236f735e1e66a" />
<rom name="TY The Tasmanian Tiger Original Game Soundtrack (Track 18).bin" size="16473408" crc="1d441fe3" md5="e5db2cb08b482b3b3d035d19151755ac" sha1="f9632dc818b0295fa735aaedd7e1249e8de34824" />
<rom name="TY The Tasmanian Tiger Original Game Soundtrack (Track 19).bin" size="23188368" crc="3147af81" md5="73c7c3859312eee318967e40fb6d6be0" sha1="615a34bd55e72e887f710a58fa86ac89f313798e" />
<rom name="TY The Tasmanian Tiger Original Game Soundtrack (Track 20).bin" size="14737632" crc="be797bab" md5="6fc53e30e5b2e5efbdd921b5b79f38c6" sha1="03d82f55cda4144e7b99444b33c308a1dd7a4ff8" />
<rom name="TY The Tasmanian Tiger Original Game Soundtrack (Track 21).bin" size="10468752" crc="afff8732" md5="c0a3945ab3218e0f46d6d4b4923790e4" sha1="291658590c40132e7401117e7c96c0ef152499b0" />
<rom name="TY The Tasmanian Tiger Original Game Soundtrack (Track 22).bin" size="28158144" crc="0314f492" md5="4ec103135c42c0ff90f88cb00cd4bfe7" sha1="ee1bee13c7ce810317b52cea9580abd97a8e5070" />
<rom name="TY The Tasmanian Tiger Original Game Soundtrack (Track 23).bin" size="22501584" crc="fbf22f13" md5="ff96fa018b1ab72643a4ca46a13a7bd4" sha1="a3dd72f944407d7d3da5e8d60ea633f70c20acc9" />
<rom name="TY The Tasmanian Tiger Original Game Soundtrack (Track 24).bin" size="16807392" crc="e63515c7" md5="b31cd12838b424bc324863d01b384258" sha1="ff0c990f3f09e195b76fc15d5c8a54cc9eaf60fd" />
<rom name="TY The Tasmanian Tiger Original Game Soundtrack (Track 25).bin" size="5877648" crc="986b573e" md5="3bbf93748163064be904fcdaa4bbea9b" sha1="06163f1db1971b2f09ffd0f87a9c7b0b9bed7b9b" />
<rom name="TY The Tasmanian Tiger Original Game Soundtrack (Track 26).bin" size="21974736" crc="b6c1bd06" md5="a54369630b6b59934f6ef95d2f5a7210" sha1="f47c9c7eabf5758687d5903d35230938821cdeeb" />
<rom name="TY The Tasmanian Tiger Original Game Soundtrack (Track 27).bin" size="10170048" crc="b8f85db2" md5="19c10931079f018f0db8ccd18189c773" sha1="e6539f673dee6debdd36e6f8bca5ea48e8c26d5d" />
<rom name="TY The Tasmanian Tiger Original Game Soundtrack (Track 28).bin" size="24202080" crc="66c04e51" md5="91a397e4ad73687988063d1e254c6f5f" sha1="e2875ad8c90fe2a5bec273d46a07022cce89146e" />
<rom name="TY The Tasmanian Tiger Original Game Soundtrack (Track 29).bin" size="24874752" crc="02c902bb" md5="70d9bcd0ce6dd33f69ba56d7da9be1b3" sha1="0e47b9fe92757aa70e387c1ca631bc62c121acd2" />
<rom name="TY The Tasmanian Tiger Original Game Soundtrack (Track 30).bin" size="19084128" crc="b765b814" md5="8ce6dbe9f4fc8656b93f811bdc09c757" sha1="499a2f771c71ca1287f1f38f55f12d63d20e35cf" />
<rom name="TY The Tasmanian Tiger Original Game Soundtrack (Track 31).bin" size="9551472" crc="0899687e" md5="0ce49bfba15f504a942136f668153961" sha1="5a7f195096ee07f6029dae06b6eef69ef951b3d2" />
<rom name="TY The Tasmanian Tiger Original Game Soundtrack (Track 32).bin" size="26071920" crc="5b1a650e" md5="1d3008b2b9856e7a5799ddb99b149f48" sha1="603f314bc17a3145deca56a180e5f5e4d24ac059" />
<rom name="TY The Tasmanian Tiger Original Game Soundtrack (Track 33).bin" size="25582704" crc="c8014a8c" md5="77f246aaa51628bd5883aed441fd4ad7" sha1="a4ba35b3be6001c3b699fd07762db848fa24e382" />
<rom name="TY The Tasmanian Tiger Original Game Soundtrack (Track 34).bin" size="25552128" crc="7626af34" md5="2a3765e2238e806ce7272eca685f6350" sha1="edd492afa77795077da11d2f0b4f5ac734095419" />
<rom name="TY The Tasmanian Tiger Original Game Soundtrack (Track 35).bin" size="10941504" crc="e3b88ebb" md5="7c815ee6b1c9ee84c1c9c67a06f0d2ea" sha1="213a7437c9383676115f9c36b0280fa695dee0bb" />
<rom name="TY The Tasmanian Tiger Original Game Soundtrack (Track 36).bin" size="24049200" crc="575eaac2" md5="324ec1c52de2a463daa81fb5e2f74153" sha1="a33986e46e0420e23785bc033729b8e3a30e21df" />
<rom name="TY The Tasmanian Tiger Original Game Soundtrack (Track 37).bin" size="8944656" crc="72eca7ea" md5="a54ac64b2259d811a620081e467951a9" sha1="97890b7d07b983987f649a564466199aad08e324" />
<rom name="TY The Tasmanian Tiger Original Game Soundtrack (Track 38).bin" size="16569840" crc="2f448881" md5="666e7ff89bbb1a135cbc5ec910796ed2" sha1="f3ee92de6d168994d9799f9b096480c242f40b5a" />
<rom name="TY The Tasmanian Tiger Original Game Soundtrack (Track 39).bin" size="18860688" crc="8a0b073a" md5="1a1d1c60fd8f598bfa456b6dfe9ec49a" sha1="d9764d61725e7ba4d4c994f859bff5bb1c9d594b" />

Cuesheet:

CATALOG 9781733465717
TITLE "TY the Tasmanian Tiger Original Game Soundtrack"
PERFORMER "George Stamatiadis"
FILE "TY The Tasmanian Tiger Original Game Soundtrack (Track 01).bin" BINARY
  TRACK 01 AUDIO
    TITLE "Main Menu from "TY the Tasmanian Tiger"
    PERFORMER "George Stamatiadis"
    INDEX 01 00:00:00
FILE "TY The Tasmanian Tiger Original Game Soundtrack (Track 02).bin" BINARY
  TRACK 02 AUDIO
    TITLE "Rainbow Cliffs"
    PERFORMER "George Stamatiadis"
    INDEX 00 00:00:00
    INDEX 01 00:02:00
FILE "TY The Tasmanian Tiger Original Game Soundtrack (Track 03).bin" BINARY
  TRACK 03 AUDIO
    TITLE "Two Up"
    PERFORMER "George Stamatiadis"
    INDEX 00 00:00:00
    INDEX 01 00:02:00
FILE "TY The Tasmanian Tiger Original Game Soundtrack (Track 04).bin" BINARY
  TRACK 04 AUDIO
    TITLE "A Walk In The Park"
    PERFORMER "George Stamatiadis"
    INDEX 00 00:00:00
    INDEX 01 00:02:00
FILE "TY The Tasmanian Tiger Original Game Soundtrack (Track 05).bin" BINARY
  TRACK 05 AUDIO
    TITLE "Bull's Pen"
    PERFORMER "George Stamatiadis"
    INDEX 00 00:00:00
    INDEX 01 00:02:00
FILE "TY The Tasmanian Tiger Original Game Soundtrack (Track 06).bin" BINARY
  TRACK 06 AUDIO
    TITLE "Bridge On The River TY"
    PERFORMER "George Stamatiadis"
    INDEX 00 00:00:00
    INDEX 01 00:02:00
FILE "TY The Tasmanian Tiger Original Game Soundtrack (Track 07).bin" BINARY
  TRACK 07 AUDIO
    TITLE "Snow Worries"
    PERFORMER "George Stamatiadis"
    INDEX 00 00:00:00
    INDEX 01 00:02:00
FILE "TY The Tasmanian Tiger Original Game Soundtrack (Track 08).bin" BINARY
  TRACK 08 AUDIO
    TITLE "Outback Safari"
    PERFORMER "George Stamatiadis"
    INDEX 00 00:00:00
    INDEX 01 00:02:00
FILE "TY The Tasmanian Tiger Original Game Soundtrack (Track 09).bin" BINARY
  TRACK 09 AUDIO
    TITLE "Bits and Pieces"
    PERFORMER "George Stamatiadis"
    INDEX 00 00:00:00
    INDEX 01 00:02:00
FILE "TY The Tasmanian Tiger Original Game Soundtrack (Track 10).bin" BINARY
  TRACK 10 AUDIO
    TITLE "Ship Rex"
    PERFORMER "George Stamatiadis"
    INDEX 00 00:00:00
    INDEX 01 00:02:00
FILE "TY The Tasmanian Tiger Original Game Soundtrack (Track 11).bin" BINARY
  TRACK 11 AUDIO
    TITLE "Time Attack 1"
    PERFORMER "George Stamatiadis"
    INDEX 00 00:00:00
    INDEX 01 00:02:00
FILE "TY The Tasmanian Tiger Original Game Soundtrack (Track 12).bin" BINARY
  TRACK 12 AUDIO
    TITLE "Boss Cass Cinematics"
    PERFORMER "George Stamatiadis"
    INDEX 00 00:00:00
    INDEX 01 00:02:00
FILE "TY The Tasmanian Tiger Original Game Soundtrack (Track 13).bin" BINARY
  TRACK 13 AUDIO
    TITLE "Trailer"
    PERFORMER "George Stamatiadis"
    INDEX 00 00:00:00
    INDEX 01 00:02:00
FILE "TY The Tasmanian Tiger Original Game Soundtrack (Track 14).bin" BINARY
  TRACK 14 AUDIO
    TITLE "Beyond The Black Stump"
    PERFORMER "George Stamatiadis"
    INDEX 00 00:00:00
    INDEX 01 00:02:00
FILE "TY The Tasmanian Tiger Original Game Soundtrack (Track 15).bin" BINARY
  TRACK 15 AUDIO
    TITLE "Lenny The Lyre Bird"
    PERFORMER "George Stamatiadis"
    INDEX 00 00:00:00
    INDEX 01 00:02:00
FILE "TY The Tasmanian Tiger Original Game Soundtrack (Track 16).bin" BINARY
  TRACK 16 AUDIO
    TITLE "Crikey"
    PERFORMER "George Stamatiadis"
    INDEX 00 00:00:00
    INDEX 01 00:02:00
FILE "TY The Tasmanian Tiger Original Game Soundtrack (Track 17).bin" BINARY
  TRACK 17 AUDIO
    TITLE "Rex Marks The Spot"
    PERFORMER "George Stamatiadis"
    INDEX 00 00:00:00
    INDEX 01 00:02:00
FILE "TY The Tasmanian Tiger Original Game Soundtrack (Track 18).bin" BINARY
  TRACK 18 AUDIO
    TITLE "Shadow The Bat"
    PERFORMER "George Stamatiadis"
    INDEX 00 00:00:00
    INDEX 01 00:02:00
FILE "TY The Tasmanian Tiger Original Game Soundtrack (Track 19).bin" BINARY
  TRACK 19 AUDIO
    TITLE "Time Attack 2"
    PERFORMER "George Stamatiadis"
    INDEX 00 00:00:00
    INDEX 01 00:02:00
FILE "TY The Tasmanian Tiger Original Game Soundtrack (Track 20).bin" BINARY
  TRACK 20 AUDIO
    TITLE "Ollie"
    PERFORMER "George Stamatiadis"
    INDEX 00 00:00:00
    INDEX 01 00:02:00
FILE "TY The Tasmanian Tiger Original Game Soundtrack (Track 21).bin" BINARY
  TRACK 21 AUDIO
    TITLE "Bull Racing"
    PERFORMER "George Stamatiadis"
    INDEX 00 00:00:00
    INDEX 01 00:02:00
FILE "TY The Tasmanian Tiger Original Game Soundtrack (Track 22).bin" BINARY
  TRACK 22 AUDIO
    TITLE "Fluffy"
    PERFORMER "George Stamatiadis"
    INDEX 00 00:00:00
    INDEX 01 00:02:00
FILE "TY The Tasmanian Tiger Original Game Soundtrack (Track 23).bin" BINARY
  TRACK 23 AUDIO
    TITLE "The Gauntlet"
    PERFORMER "George Stamatiadis"
    INDEX 00 00:00:00
    INDEX 01 00:02:00
FILE "TY The Tasmanian Tiger Original Game Soundtrack (Track 24).bin" BINARY
  TRACK 24 AUDIO
    TITLE "The Doomerang"
    PERFORMER "George Stamatiadis"
    INDEX 00 00:00:00
    INDEX 01 00:02:00
FILE "TY The Tasmanian Tiger Original Game Soundtrack (Track 25).bin" BINARY
  TRACK 25 AUDIO
    TITLE "Diving"
    PERFORMER "George Stamatiadis"
    INDEX 00 00:00:00
    INDEX 01 00:02:00
FILE "TY The Tasmanian Tiger Original Game Soundtrack (Track 26).bin" BINARY
  TRACK 26 AUDIO
    TITLE "Bonus Level"
    PERFORMER "George Stamatiadis"
    INDEX 00 00:00:00
    INDEX 01 00:02:00
FILE "TY The Tasmanian Tiger Original Game Soundtrack (Track 27).bin" BINARY
  TRACK 27 AUDIO
    TITLE "Time Attack 3"
    PERFORMER "George Stamatiadis"
    INDEX 00 00:00:00
    INDEX 01 00:02:00
FILE "TY The Tasmanian Tiger Original Game Soundtrack (Track 28).bin" BINARY
  TRACK 28 AUDIO
    TITLE "Theme And Cinematics"
    PERFORMER "George Stamatiadis"
    INDEX 00 00:00:00
    INDEX 01 00:02:00
FILE "TY The Tasmanian Tiger Original Game Soundtrack (Track 29).bin" BINARY
  TRACK 29 AUDIO
    TITLE "Ship Rex (Demo)"
    PERFORMER "George Stamatiadis"
    INDEX 00 00:00:00
    INDEX 01 00:02:00
FILE "TY The Tasmanian Tiger Original Game Soundtrack (Track 30).bin" BINARY
  TRACK 30 AUDIO
    TITLE "Walk In The Park (Demo)"
    PERFORMER "George Stamatiadis"
    INDEX 00 00:00:00
    INDEX 01 00:02:00
FILE "TY The Tasmanian Tiger Original Game Soundtrack (Track 31).bin" BINARY
  TRACK 31 AUDIO
    TITLE "Gauntlet TY2 (Demo)"
    PERFORMER "George Stamatiadis"
    INDEX 00 00:00:00
    INDEX 01 00:02:00
FILE "TY The Tasmanian Tiger Original Game Soundtrack (Track 32).bin" BINARY
  TRACK 32 AUDIO
    TITLE "Bulls Pen (Demo)"
    PERFORMER "George Stamatiadis"
    INDEX 00 00:00:00
    INDEX 01 00:02:00
FILE "TY The Tasmanian Tiger Original Game Soundtrack (Track 33).bin" BINARY
  TRACK 33 AUDIO
    TITLE "Rex Marks The Spot (2005 Remix Demo)"
    PERFORMER "George Stamatiadis"
    INDEX 00 00:00:00
    INDEX 01 00:02:00
FILE "TY The Tasmanian Tiger Original Game Soundtrack (Track 34).bin" BINARY
  TRACK 34 AUDIO
    TITLE "Theme Park TY2"
    PERFORMER "George Stamatiadis"
    INDEX 00 00:00:00
    INDEX 01 00:02:00
FILE "TY The Tasmanian Tiger Original Game Soundtrack (Track 35).bin" BINARY
  TRACK 35 AUDIO
    TITLE "Sewer TY2"
    PERFORMER "George Stamatiadis"
    INDEX 00 00:00:00
    INDEX 01 00:02:00
FILE "TY The Tasmanian Tiger Original Game Soundtrack (Track 36).bin" BINARY
  TRACK 36 AUDIO
    TITLE "Gauntlet TY2"
    PERFORMER "George Stamatiadis"
    INDEX 00 00:00:00
    INDEX 01 00:02:00
FILE "TY The Tasmanian Tiger Original Game Soundtrack (Track 37).bin" BINARY
  TRACK 37 AUDIO
    TITLE "TY The Tasmanian Tiger Theme 2000 (Demo 2)"
    PERFORMER "George Stamatiadis"
    INDEX 00 00:00:00
    INDEX 01 00:02:00
FILE "TY The Tasmanian Tiger Original Game Soundtrack (Track 38).bin" BINARY
  TRACK 38 AUDIO
    TITLE "TY The Tasmanian Tiger Theme 2015 (Trailer)"
    PERFORMER "George Stamatiadis"
    INDEX 00 00:00:00
    INDEX 01 00:02:00
FILE "TY The Tasmanian Tiger Original Game Soundtrack (Track 39).bin" BINARY
  TRACK 39 AUDIO
    TITLE "Boulder Mini-game"
    PERFORMER "George Stamatiadis"
    INDEX 00 00:00:00
    INDEX 01 00:02:00

    Write Offset: 0

https://cdn.discordapp.com/attachments/ … ndtrack.7z

Common Disc Info:
    Title: River City Girls Original Game Soundtrack
    Foreign Title (Non-latin): 
    Disc Number / Letter: 
    Disc Title: 
    System: Audio CD
    Media Type: CD-ROM
    Category: Audio
    Region: USA
    Disc Serial: 

    Ringcode Information:
        Mastering Code (laser branded/etched): MDI2625      DISC MAKERS
        Mastering SID Code:  lZ74
        Data-Side Mould SID Code: 
        Label-Side Mould SID Code: 
        Additional Mould: 
        Toolstamp or Mastering Code (engraved/stamped): 
    Barcode: 
    Error Count:
    Comments:  Included with the Limited Run release of River City Girls.
    Contents: 

Version and Editions:
    Version: 
    Edition/Release: Original

Extras:
    Primary Volume Descriptor (PVD): Disc has no PVD

Tracks and Write Offsets:
    DAT:

<rom name="River City Girls Original Game Soundtrack (Track 01).bin" size="17682336" crc="f4b2a9cd" md5="88139311341d1c281f629994aa3cbb00" sha1="c1a3b95ac74f807d9703d6a51f1f4fca15b85e85" />
<rom name="River City Girls Original Game Soundtrack (Track 02).bin" size="5908224" crc="8913f329" md5="a515f773f0188859a52deb6f23646d5a" sha1="923cc8729e2e4befc468afbabff8677a2886c515" />
<rom name="River City Girls Original Game Soundtrack (Track 03).bin" size="22976688" crc="077e0f34" md5="4a9f7dee4839171abc6740943497e00d" sha1="8b9f23cea54a8e4b540dff8c45d225fc2d09b776" />
<rom name="River City Girls Original Game Soundtrack (Track 04).bin" size="24032736" crc="a34da924" md5="250cda9767166060309c8b877cf09723" sha1="17857965a76d4d1e1d591a8eba9631de29223c5e" />
<rom name="River City Girls Original Game Soundtrack (Track 05).bin" size="32810400" crc="9e7adcf9" md5="88ff5babf86ac9a53a027ad6ebc83dc2" sha1="e94595997882013194b71fb8de1d88eb84605818" />
<rom name="River City Girls Original Game Soundtrack (Track 06).bin" size="44793840" crc="10eb2030" md5="c89ba0e38cc5e71ec011af1e8fa9adbc" sha1="5b334863f8d82583d01d9467a2289ae0315c097f" />
<rom name="River City Girls Original Game Soundtrack (Track 07).bin" size="22532160" crc="d436af85" md5="84eb2168abf344f7992700c87cba2cf3" sha1="2386082614329fd849c463763d52c0a167489cd1" />
<rom name="River City Girls Original Game Soundtrack (Track 08).bin" size="22781472" crc="0af0fd7b" md5="1011d004f13d81c019ddfb32d128e469" sha1="7bd3ff69a23d38f0622eef897420a79b7e580601" />
<rom name="River City Girls Original Game Soundtrack (Track 09).bin" size="32810400" crc="4975cb4d" md5="d9d48a177fcb85f2f0b8e100ee8d7a95" sha1="8d0a4b8d60519df86641a9750826a70f2d6d8d48" />
<rom name="River City Girls Original Game Soundtrack (Track 10).bin" size="23275392" crc="bfbc2fc3" md5="a5d054741a7450de47244487fe1d4447" sha1="5c0c0cb8f8cdb0d3ecc1664932e850ea9bf77c91" />
<rom name="River City Girls Original Game Soundtrack (Track 11).bin" size="13493424" crc="724c28ae" md5="31bda67790f32d65e241f33e4fd2a616" sha1="5df3981a3a825d20eb28b916c1a664303606098c" />
<rom name="River City Girls Original Game Soundtrack (Track 12).bin" size="19646256" crc="a7845549" md5="42121a9f86604450a97b08c03384fb61" sha1="2c034e6acdc85204b4020c0a28909ebf2cc550f1" />

    Cuesheet:

TITLE "River City Girls"
PERFORMER "WayForward"
FILE "River City Girls Original Game Soundtrack (Track 01).bin" BINARY
  TRACK 01 AUDIO
    ISRC QMAAK1982551
    TITLE "We're the River City Girls (Intro)"
    PERFORMER "WayForward"
    INDEX 01 00:00:00
FILE "River City Girls Original Game Soundtrack (Track 02).bin" BINARY
  TRACK 02 AUDIO
    ISRC QMAAK1982552
    TITLE "Menu 1"
    PERFORMER "WayForward"
    INDEX 01 00:00:00
FILE "River City Girls Original Game Soundtrack (Track 03).bin" BINARY
  TRACK 03 AUDIO
    ISRC QMAAK1982553
    TITLE "Detention"
    PERFORMER "WayForward"
    INDEX 01 00:00:00
FILE "River City Girls Original Game Soundtrack (Track 04).bin" BINARY
  TRACK 04 AUDIO
    ISRC QMAAK1982554
    TITLE "Knock Out"
    PERFORMER "WayForward"
    INDEX 01 00:00:00
FILE "River City Girls Original Game Soundtrack (Track 05).bin" BINARY
  TRACK 05 AUDIO
    ISRC QMAAK1982555
    TITLE "Misuzu Boss"
    PERFORMER "WayForward"
    INDEX 01 00:00:00
FILE "River City Girls Original Game Soundtrack (Track 06).bin" BINARY
  TRACK 06 AUDIO
    ISRC QMAAK1982556
    TITLE "The Hunt"
    PERFORMER "WayForward"
    INDEX 01 00:00:00
FILE "River City Girls Original Game Soundtrack (Track 07).bin" BINARY
  TRACK 07 AUDIO
    ISRC QMAAK1982557
    TITLE "Dollar Signs"
    PERFORMER "WayForward"
    INDEX 01 00:00:00
FILE "River City Girls Original Game Soundtrack (Track 08).bin" BINARY
  TRACK 08 AUDIO
    ISRC QMAAK1982558
    TITLE "Don't Give A"
    PERFORMER "WayForward"
    INDEX 01 00:00:00
FILE "River City Girls Original Game Soundtrack (Track 09).bin" BINARY
  TRACK 09 AUDIO
    ISRC QMAAK1982559
    TITLE "Abobo Boss"
    PERFORMER "WayForward"
    INDEX 01 00:00:00
FILE "River City Girls Original Game Soundtrack (Track 10).bin" BINARY
  TRACK 10 AUDIO
    ISRC QMAAK1982560
    TITLE "Azukay"
    PERFORMER "WayForward"
    INDEX 01 00:00:00
FILE "River City Girls Original Game Soundtrack (Track 11).bin" BINARY
  TRACK 11 AUDIO
    ISRC QMAAK1982561
    TITLE "Shop 5"
    PERFORMER "WayForward"
    INDEX 01 00:00:00
FILE "River City Girls Original Game Soundtrack (Track 12).bin" BINARY
  TRACK 12 AUDIO
    ISRC QMAAK1982562
    TITLE "Can't Quit the RCG (End Credits)"
    PERFORMER "WayForward"
    INDEX 01 00:00:00

    Write Offset: 0

https://cdn.discordapp.com/attachments/ … ndtrack.7z