1

(0 replies, posted in Verifications)

Common Disc Info:
    Title: Samidare
    Foreign Title (Non-latin): 五月雨
    Disc Number / Letter:
    Disc Title:
    System: IBM PC Compatible
    Media Type: CD-ROM
    Category: Games
    Matching IDs: 7114
    Region: Japan
    Languages: Japanese
    Disc Serial: PNB-001

    Ringcode Information:
        Data Side Mastering Code (laser branded/etched): PNB-001 D049296 7C
        Data Side Mastering SID Code: IFPI LT021
        Data Side Toolstamp or Mastering Code (engraved/stamped):
        Data Side Mould SID Code: IFPI 7K01
        Data Side Additional Mould: E
        Label Side Mould SID Code:
        Label Side Additional Mould:
    Barcode:
    Error Count: 0
    Comments: Menus are in English.
    Contents:

Version and Editions:
    Version: 1.05
    Edition/Release: Original

Extras:
    Primary Volume Descriptor (PVD):

0320 : 20 20 20 20 20 20 20 20  20 20 20 20 20 32 30 30                200
0330 : 35 30 32 30 35 30 30 30  30 30 30 36 35 24 30 30   5020500000065$00
0340 : 30 30 30 30 30 30 30 30  30 30 30 30 30 30 24 30   00000000000000$0
0350 : 30 30 30 30 30 30 30 30  30 30 30 30 30 30 30 24   000000000000000$
0360 : 30 30 30 30 30 30 30 30  30 30 30 30 30 30 30 30   0000000000000000
0370 : 24 01 00 00 00 00 00 00  00 00 00 00 00 00 00 00   $...............

Copy Protection:
    Copy Protection: None found

Tracks and Write Offsets:
    DAT:

<rom name="Samidare (Japan).bin" size="139388928" crc="347959f7" md5="d48634ec03f68e1342a72aba0d3c8a45" sha1="ee80ce12d2a3917f0f8ef4268e40d8eec9104509" />

    Cuesheet:

FILE "Samidare (Japan).bin" BINARY
  TRACK 01 MODE1/2352
    INDEX 01 00:00:00

    Write Offset: -12

https://cdn.discordapp.com/attachments/ … n_logs.zip

Common Disc Info:
    Title: Ketsui: Kizuna Jigoku-tachi Original Soundtrack [STEREO Ver.]
    Foreign Title (Non-latin): ケツイ ~絆地獄たち~ Original Soundtrack [STEREO Ver.]
    Disc Number / Letter: 2
    Disc Title:
    System: Audio CD
    Media Type: CD-ROM
    Category: Audio
    Region: Japan
    Disc Serial: KEBD-0002

    Ringcode Information:
        Data Side Mastering Code (laser branded/etched): KEBD-0002   -RC01-
        Data Side Mastering SID Code: IFPI LZ49
        Data Side Toolstamp or Mastering Code (engraved/stamped):
        Data Side Mould SID Code: IFPI 7605
        Data Side Additional Mould:
        Label Side Mould SID Code:
        Label Side Additional Mould:
    Barcode:
    Error Count: 0
    Comments: Part of the Ketsui ~Kizuna Jigoku tachi Extra~ "LIMITED EDITION" Bonus set.
    Contents:

Version and Editions:
    Version:
    Edition/Release: PS3 Game Bundle

Extras:
    Primary Volume Descriptor (PVD): Disc has no PVD

Tracks and Write Offsets:
    DAT:

<rom name="Ketsui - Kizuna Jigoku-tachi Extra Original Soundtrack [STEREO Ver] (Japan) (Track 01).bin" size="15403248" crc="f644bb9a" md5="3fac00a46c3527c8ccb3e8b4ee97f9e6" sha1="3a6aa72f8d8054c3f60af3dd9e066b6fa4c18f24" />
<rom name="Ketsui - Kizuna Jigoku-tachi Extra Original Soundtrack [STEREO Ver] (Japan) (Track 02).bin" size="37869552" crc="c24f4b40" md5="0dde0a6e7e162da088f2bda4d93dea13" sha1="ad11ae1f49fedec970f127b7e337d561f8d3a1f4" />
<rom name="Ketsui - Kizuna Jigoku-tachi Extra Original Soundtrack [STEREO Ver] (Japan) (Track 03).bin" size="35677488" crc="c674aaab" md5="34de4a65991f90aace27de18e11841b0" sha1="f84c117011aa8d4b289b82cef4e959dce1bc0b11" />
<rom name="Ketsui - Kizuna Jigoku-tachi Extra Original Soundtrack [STEREO Ver] (Japan) (Track 04).bin" size="4381776" crc="bf1e9662" md5="4cb6b686f50ad7edcdc6e90baf68ebe8" sha1="94c3b31a0918b0a5c69f7f68fbf0a1be0c813e3c" />
<rom name="Ketsui - Kizuna Jigoku-tachi Extra Original Soundtrack [STEREO Ver] (Japan) (Track 05).bin" size="37669632" crc="3405c7e5" md5="e298b7d7edb9aea1fae71383a62a423b" sha1="e700a84d491655e3a805a8d987a8c62fcf44f0c6" />
<rom name="Ketsui - Kizuna Jigoku-tachi Extra Original Soundtrack [STEREO Ver] (Japan) (Track 06).bin" size="32577552" crc="ae751c15" md5="d9d853a8c0dfcee5dc0630fc4e0a0699" sha1="0c5cb80ed3920160f29ff6cd3eff5597d35c8245" />
<rom name="Ketsui - Kizuna Jigoku-tachi Extra Original Soundtrack [STEREO Ver] (Japan) (Track 07).bin" size="40325040" crc="03cf7e4a" md5="04ab06bb2d65ffbb6db51c57d5f563cd" sha1="06cc8d371076c82f40f9a6bf8b8d359f728f3d6d" />
<rom name="Ketsui - Kizuna Jigoku-tachi Extra Original Soundtrack [STEREO Ver] (Japan) (Track 08).bin" size="48211296" crc="2ba571d1" md5="84850800ef71ae693c0a5db19656e452" sha1="5dd988e0e1f2359e4e99202b76de819058f9fbab" />
<rom name="Ketsui - Kizuna Jigoku-tachi Extra Original Soundtrack [STEREO Ver] (Japan) (Track 09).bin" size="25342800" crc="aa40beb7" md5="28ab099dc31ffa66e4f748ded4828179" sha1="b8445d3ca53eac79c43417efdd80ea5e6947bb50" />
<rom name="Ketsui - Kizuna Jigoku-tachi Extra Original Soundtrack [STEREO Ver] (Japan) (Track 10).bin" size="40336800" crc="269b235e" md5="86a76d1e8661181825e0e0ec63a44352" sha1="62b330668ba2f9a8de203d76bc4e3e388c0fa1fc" />
<rom name="Ketsui - Kizuna Jigoku-tachi Extra Original Soundtrack [STEREO Ver] (Japan) (Track 11).bin" size="27271440" crc="e5a24faf" md5="4bb751068fbbb48849fa8e802705566e" sha1="a484e9e4f07cb4fdd677fcd53a264109e9463ff9" />
<rom name="Ketsui - Kizuna Jigoku-tachi Extra Original Soundtrack [STEREO Ver] (Japan) (Track 12).bin" size="1220688" crc="54c826fb" md5="3ec4e24c19521e390ada8ecde72789b5" sha1="9a476f0fcd7f6c7f14f1b27c885021557e9b5cc9" />
<rom name="Ketsui - Kizuna Jigoku-tachi Extra Original Soundtrack [STEREO Ver] (Japan) (Track 13).bin" size="15810144" crc="cce5ea6a" md5="a1d4a0833032dfec79584d8cedb8a06f" sha1="513dbd66f408a605b5b84594e779eb5057098fc2" />

    Cuesheet:

TITLE "KETSUI_OST"
PERFORMER "?"
SONGWRITER "?"
FILE "Ketsui - Kizuna Jigoku-tachi Extra Original Soundtrack [STEREO Ver] (Japan) (Track 01).bin" BINARY
  TRACK 01 AUDIO
    TITLE "01_kkj_stereo_psel"
    PERFORMER "?"
    SONGWRITER "?"
    INDEX 01 00:00:00
FILE "Ketsui - Kizuna Jigoku-tachi Extra Original Soundtrack [STEREO Ver] (Japan) (Track 02).bin" BINARY
  TRACK 02 AUDIO
    TITLE "02_kkj_stereo_stg1"
    PERFORMER "?"
    SONGWRITER "?"
    INDEX 00 00:00:00
    INDEX 01 00:02:50
FILE "Ketsui - Kizuna Jigoku-tachi Extra Original Soundtrack [STEREO Ver] (Japan) (Track 03).bin" BINARY
  TRACK 03 AUDIO
    TITLE "03_kkj_stereo_boss"
    PERFORMER "?"
    SONGWRITER "?"
    INDEX 00 00:00:00
    INDEX 01 00:02:25
FILE "Ketsui - Kizuna Jigoku-tachi Extra Original Soundtrack [STEREO Ver] (Japan) (Track 04).bin" BINARY
  TRACK 04 AUDIO
    TITLE "04_kkj_stereo_sclr"
    PERFORMER "?"
    SONGWRITER "?"
    INDEX 00 00:00:00
    INDEX 01 00:01:74
FILE "Ketsui - Kizuna Jigoku-tachi Extra Original Soundtrack [STEREO Ver] (Japan) (Track 05).bin" BINARY
  TRACK 05 AUDIO
    TITLE "05_kkj_stereo_stg2"
    PERFORMER "?"
    SONGWRITER "?"
    INDEX 00 00:00:00
    INDEX 01 00:02:32
FILE "Ketsui - Kizuna Jigoku-tachi Extra Original Soundtrack [STEREO Ver] (Japan) (Track 06).bin" BINARY
  TRACK 06 AUDIO
    TITLE "06_kkj_stereo_stg3"
    PERFORMER "?"
    SONGWRITER "?"
    INDEX 00 00:00:00
    INDEX 01 00:01:74
FILE "Ketsui - Kizuna Jigoku-tachi Extra Original Soundtrack [STEREO Ver] (Japan) (Track 07).bin" BINARY
  TRACK 07 AUDIO
    TITLE "07_kkj_stereo_stg4"
    PERFORMER "?"
    SONGWRITER "?"
    INDEX 00 00:00:00
    INDEX 01 00:01:74
FILE "Ketsui - Kizuna Jigoku-tachi Extra Original Soundtrack [STEREO Ver] (Japan) (Track 08).bin" BINARY
  TRACK 08 AUDIO
    TITLE "08_kkj_stereo_stg5"
    PERFORMER "?"
    SONGWRITER "?"
    INDEX 00 00:00:00
    INDEX 01 00:01:74
FILE "Ketsui - Kizuna Jigoku-tachi Extra Original Soundtrack [STEREO Ver] (Japan) (Track 09).bin" BINARY
  TRACK 09 AUDIO
    TITLE "09_kkj_stereo_lbs1"
    PERFORMER "?"
    SONGWRITER "?"
    INDEX 00 00:00:00
    INDEX 01 00:01:74
FILE "Ketsui - Kizuna Jigoku-tachi Extra Original Soundtrack [STEREO Ver] (Japan) (Track 10).bin" BINARY
  TRACK 10 AUDIO
    TITLE "10_kkj_stereo_lbs2"
    PERFORMER "?"
    SONGWRITER "?"
    INDEX 00 00:00:00
    INDEX 01 00:01:74
FILE "Ketsui - Kizuna Jigoku-tachi Extra Original Soundtrack [STEREO Ver] (Japan) (Track 11).bin" BINARY
  TRACK 11 AUDIO
    TITLE "11_kkj_stereo_endg"
    PERFORMER "?"
    SONGWRITER "?"
    INDEX 00 00:00:00
    INDEX 01 00:01:74
FILE "Ketsui - Kizuna Jigoku-tachi Extra Original Soundtrack [STEREO Ver] (Japan) (Track 12).bin" BINARY
  TRACK 12 AUDIO
    TITLE "12_kkj_stereo_govr"
    PERFORMER "?"
    SONGWRITER "?"
    INDEX 00 00:00:00
    INDEX 01 00:01:74
FILE "Ketsui - Kizuna Jigoku-tachi Extra Original Soundtrack [STEREO Ver] (Japan) (Track 13).bin" BINARY
  TRACK 13 AUDIO
    TITLE "13_kkj_stereo_name"
    PERFORMER "?"
    SONGWRITER "?"
    INDEX 00 00:00:00
    INDEX 01 00:02:48

    Write Offset: 0

https://cdn.discordapp.com/attachments/ … n_logs.zip

Common Disc Info:
    Title:

  • Ookami: Sachidama Senkyoku-shuu

    Foreign Title (Non-latin): 大神 幸玉選曲集
    Disc Number / Letter:
    Disc Title:
    System: Audio CD
    Media Type: CD-ROM
    Category: Bonus Discs
    Matching IDs: 70950
    Region: Japan
    Disc Serial:

    Ringcode Information:
        Data Side Mastering Code (laser branded/etched): TGCS-8431   1
        Data Side Mastering SID Code: IFPI L275
        Data Side Toolstamp or Mastering Code (engraved/stamped):
        Data Side Mould SID Code: IFPI 455K
        Data Side Additional Mould:
        Label Side Mould SID Code:
        Label Side Additional Mould:
    Barcode:
    Error Count: 0
    Comments:
    Contents:


Version and Editions:
    Version:
    Edition/Release: PS3 Game Bundle

Extras:
    Primary Volume Descriptor (PVD): Disc has no PVD

Tracks and Write Offsets:
    DAT:

<rom name="Ookami - Sachidama Senkyoku-shuu (Japan) (Track 01).bin" size="13321728" crc="5fd62d64" md5="17d1e6d8c963b1c2c111b73662c7d888" sha1="af1520bb0057824cf44ff3f305aa79f5aa763867" />
<rom name="Ookami - Sachidama Senkyoku-shuu (Japan) (Track 02).bin" size="7373520" crc="e56f12f1" md5="0f612eb96e8e9f71e90b83aa3a274ad2" sha1="f8966a9a3fe395abe79e6e078afaf722b5a8bbd8" />
<rom name="Ookami - Sachidama Senkyoku-shuu (Japan) (Track 03).bin" size="32904480" crc="ffdb1e72" md5="e8c4f937d0c423ccf091201e59c8da19" sha1="4b2845246c4ef96b550aef36932b9a85c93c6fe4" />
<rom name="Ookami - Sachidama Senkyoku-shuu (Japan) (Track 04).bin" size="35903280" crc="5910f55b" md5="5bf060aaa95f34cc12d92d8f2138a325" sha1="b50d2db52325b9fa6d79db5dcb5bba95a8707256" />
<rom name="Ookami - Sachidama Senkyoku-shuu (Japan) (Track 05).bin" size="31552080" crc="9b8baf35" md5="ff85f0960419e44817e7d0192c0bb596" sha1="77db733a0f51601b38a274ce68481a87d72e0753" />
<rom name="Ookami - Sachidama Senkyoku-shuu (Japan) (Track 06).bin" size="61166112" crc="23a4fca3" md5="e277359db207a504572ef96f3244df10" sha1="b4c8d1eece34a06a5a0828add29d9a787ce72731" />
<rom name="Ookami - Sachidama Senkyoku-shuu (Japan) (Track 07).bin" size="59498544" crc="10bd371a" md5="d50261893199fbd76353b9067f04b13c" sha1="bfd3b5c074e14ff3260231d5801b45937009f31d" />
<rom name="Ookami - Sachidama Senkyoku-shuu (Japan) (Track 08).bin" size="24623088" crc="def0c96f" md5="f5111adb7ef3b2ec8ec6d7186a69e289" sha1="7213862bda38a444eb9e59eae776d360893e2059" />
<rom name="Ookami - Sachidama Senkyoku-shuu (Japan) (Track 09).bin" size="37674336" crc="0e8c7569" md5="29cf616c695784d3907d447ba7ba3f6d" sha1="23e350a9b8584c976afb14b8f9ba12231987688c" />
<rom name="Ookami - Sachidama Senkyoku-shuu (Japan) (Track 10).bin" size="15530256" crc="57aebd4b" md5="943cd607fad599c87b4b9dc749268b97" sha1="be2dcb4932506e8965d4a75829374da5aa02972e" />
<rom name="Ookami - Sachidama Senkyoku-shuu (Japan) (Track 11).bin" size="29832768" crc="14e29913" md5="1e2b2b061112b2f627103055707b9354" sha1="8b762d9c613f26ada1318f2e1c3e30dbb77cefe2" />
<rom name="Ookami - Sachidama Senkyoku-shuu (Japan) (Track 12).bin" size="33153792" crc="3acfdb24" md5="ca030b419434757a7ab82dfefde140d0" sha1="6146667bde4ec28684dec14c14b3d790badf05e9" />
<rom name="Ookami - Sachidama Senkyoku-shuu (Japan) (Track 13).bin" size="36164352" crc="3e6983f2" md5="70e50ea7ff6078ca9928e986e0e993a5" sha1="8fdad1a85c536523e3269a4a188e31857698ff18" />
<rom name="Ookami - Sachidama Senkyoku-shuu (Japan) (Track 14).bin" size="49892976" crc="f283cd05" md5="1ee4bb5435f4b0c7c8dc0d85f38ead30" sha1="55f4eb0297bf9a54fd04cfc6f359a3d4d74d40ac" />
<rom name="Ookami - Sachidama Senkyoku-shuu (Japan) (Track 15).bin" size="25994304" crc="fa5a8ffa" md5="7474a3b53cb02b4b65ddccd69a4bd8aa" sha1="7b9eaf9174438308a081bfd53567f26e107c13a3" />
<rom name="Ookami - Sachidama Senkyoku-shuu (Japan) (Track 16).bin" size="60084192" crc="5e5d6865" md5="262bb051632ba6bf79865259499f223d" sha1="ebb2313fdd532c1a3d26eaf14181f2396fd63d6e" />
<rom name="Ookami - Sachidama Senkyoku-shuu (Japan) (Track 17).bin" size="50443344" crc="52526dbc" md5="f1dc03c1352bfb460c88b621ad5d9293" sha1="b9ba5739071a55cddb37bb00ee9561f58365c7d6" />
<rom name="Ookami - Sachidama Senkyoku-shuu (Japan) (Track 18).bin" size="49869456" crc="1bc55041" md5="2786ddb49d0cc1d3c91dfc62fa40e7cc" sha1="d51aa9f10c8786d610e91709be85e24015f1bd55" />
<rom name="Ookami - Sachidama Senkyoku-shuu (Japan) (Track 19).bin" size="43676640" crc="8d6397ff" md5="c6688237e04d9155957a1c58f24c0d27" sha1="c7e4536898759bca32f4bd988755e4c9e1686af6" />
<rom name="Ookami - Sachidama Senkyoku-shuu (Japan) (Track 20).bin" size="53404512" crc="cefb9fc3" md5="af01224914b7b9974fcce306fee7498e" sha1="2a78e6d2a058766e83fad0059e0755d6a73a03c8" />
<rom name="Ookami - Sachidama Senkyoku-shuu (Japan) (Track 21).bin" size="31380384" crc="4f9547de" md5="deb6f8926c07bead60304c7248ed7504" sha1="3bb2f8257ee7a3c6b449725a92cb7f1b455eedad" />
<rom name="Ookami - Sachidama Senkyoku-shuu (Japan) (Track 22).bin" size="46202688" crc="9dbf2972" md5="7c7c5acfb89ae851ef93b01453bb0a6b" sha1="44e6f7c5b14e58ef788b485f577773b188ba9c8e" />

    Cuesheet:

FILE "Ookami - Sachidama Senkyoku-shuu (Japan) (Track 01).bin" BINARY
  TRACK 01 AUDIO
    ISRC JPE100605810
    INDEX 01 00:00:00
FILE "Ookami - Sachidama Senkyoku-shuu (Japan) (Track 02).bin" BINARY
  TRACK 02 AUDIO
    ISRC JPE100606260
    INDEX 00 00:00:00
    INDEX 01 00:01:45
FILE "Ookami - Sachidama Senkyoku-shuu (Japan) (Track 03).bin" BINARY
  TRACK 03 AUDIO
    ISRC JPE100606270
    INDEX 00 00:00:00
    INDEX 01 00:01:40
FILE "Ookami - Sachidama Senkyoku-shuu (Japan) (Track 04).bin" BINARY
  TRACK 04 AUDIO
    ISRC JPE100606280
    INDEX 01 00:00:00
FILE "Ookami - Sachidama Senkyoku-shuu (Japan) (Track 05).bin" BINARY
  TRACK 05 AUDIO
    ISRC JPE100606490
    INDEX 00 00:00:00
    INDEX 01 00:01:45
FILE "Ookami - Sachidama Senkyoku-shuu (Japan) (Track 06).bin" BINARY
  TRACK 06 AUDIO
    ISRC JPE100606570
    INDEX 00 00:00:00
    INDEX 01 00:01:45
FILE "Ookami - Sachidama Senkyoku-shuu (Japan) (Track 07).bin" BINARY
  TRACK 07 AUDIO
    ISRC JPE100606870
    INDEX 00 00:00:00
    INDEX 01 00:01:45
FILE "Ookami - Sachidama Senkyoku-shuu (Japan) (Track 08).bin" BINARY
  TRACK 08 AUDIO
    ISRC JPE100606950
    INDEX 00 00:00:00
    INDEX 01 00:01:45
FILE "Ookami - Sachidama Senkyoku-shuu (Japan) (Track 09).bin" BINARY
  TRACK 09 AUDIO
    ISRC JPE100607040
    INDEX 00 00:00:00
    INDEX 01 00:01:45
FILE "Ookami - Sachidama Senkyoku-shuu (Japan) (Track 10).bin" BINARY
  TRACK 10 AUDIO
    ISRC JPE100607090
    INDEX 00 00:00:00
    INDEX 01 00:01:45
FILE "Ookami - Sachidama Senkyoku-shuu (Japan) (Track 11).bin" BINARY
  TRACK 11 AUDIO
    ISRC JPE100607100
    INDEX 00 00:00:00
    INDEX 01 00:01:40
FILE "Ookami - Sachidama Senkyoku-shuu (Japan) (Track 12).bin" BINARY
  TRACK 12 AUDIO
    ISRC JPE100607110
    INDEX 01 00:00:00
FILE "Ookami - Sachidama Senkyoku-shuu (Japan) (Track 13).bin" BINARY
  TRACK 13 AUDIO
    ISRC JPE100607420
    INDEX 00 00:00:00
    INDEX 01 00:01:45
FILE "Ookami - Sachidama Senkyoku-shuu (Japan) (Track 14).bin" BINARY
  TRACK 14 AUDIO
    ISRC JPE100607540
    INDEX 00 00:00:00
    INDEX 01 00:01:45
FILE "Ookami - Sachidama Senkyoku-shuu (Japan) (Track 15).bin" BINARY
  TRACK 15 AUDIO
    ISRC JPE100607670
    INDEX 00 00:00:00
    INDEX 01 00:01:45
FILE "Ookami - Sachidama Senkyoku-shuu (Japan) (Track 16).bin" BINARY
  TRACK 16 AUDIO
    ISRC JPE100607680
    INDEX 01 00:00:00
FILE "Ookami - Sachidama Senkyoku-shuu (Japan) (Track 17).bin" BINARY
  TRACK 17 AUDIO
    ISRC JPE100700460
    INDEX 00 00:00:00
    INDEX 01 00:01:45
FILE "Ookami - Sachidama Senkyoku-shuu (Japan) (Track 18).bin" BINARY
  TRACK 18 AUDIO
    ISRC JPE100700480
    INDEX 00 00:00:00
    INDEX 01 00:01:45
FILE "Ookami - Sachidama Senkyoku-shuu (Japan) (Track 19).bin" BINARY
  TRACK 19 AUDIO
    ISRC JPE101216320
    INDEX 00 00:00:00
    INDEX 01 00:01:45
FILE "Ookami - Sachidama Senkyoku-shuu (Japan) (Track 20).bin" BINARY
  TRACK 20 AUDIO
    ISRC JPE101216410
    INDEX 00 00:00:00
    INDEX 01 00:01:45
FILE "Ookami - Sachidama Senkyoku-shuu (Japan) (Track 21).bin" BINARY
  TRACK 21 AUDIO
    ISRC JPE101501260
    INDEX 00 00:00:00
    INDEX 01 00:01:45
FILE "Ookami - Sachidama Senkyoku-shuu (Japan) (Track 22).bin" BINARY
  TRACK 22 AUDIO
    ISRC JPE101501510
    INDEX 00 00:00:00
    INDEX 01 00:01:45

    Write Offset: 0

https://cdn.discordapp.com/attachments/ … an_logs.7z

4

(0 replies, posted in Verifications)

Common Disc Info:
    Title: Tozasareta Yakata
    Foreign Title (Non-latin): 閉ざされた館
    Disc Number / Letter:
    Disc Title:
    System: Panasonic 3DO Interactive Multiplayer
    Media Type: CD-ROM
    Category: Games
    Matching IDs: 39878
    Region: Japan
    Languages: Japanese
    Disc Serial: FZ-SJ6752

    Ringcode Information:
        Data Side Mastering Code (laser branded/etched): FZ-SJ6752   2 +++
        Data Side Mastering SID Code: IFPI L251
        Data Side Toolstamp or Mastering Code (engraved/stamped):
        Data Side Mould SID Code: IFPI 42A1
        Data Side Additional Mould:
        Label Side Mould SID Code:
        Label Side Additional Mould:
    Barcode: T4984824105584
    Error Count: 0
    Comments:
    Contents:

Version and Editions:
    Version:
    Edition/Release: Original

Extras:
    Primary Volume Descriptor (PVD): Disc has no PVD

Tracks and Write Offsets:
    DAT:

<rom name="Tozasareta Yakata (Japan).bin" size="775877760" crc="d40fc684" md5="616fb3b2f62fa149deb746312fafd920" sha1="f3e7ef47f596325b5080689ebf8aa01cf2844284" />

    Cuesheet:

FILE "Tozasareta Yakata (Japan).bin" BINARY
  TRACK 01 MODE1/2352
    INDEX 01 00:00:00

    Write Offset: -22

https://cdn.discordapp.com/attachments/ … an_logs.7z

I got Lunar MPEG version recently.

Here's logs if it helps.
https://cdn.discordapp.com/attachments/ … n_Japan.7z

6

(2 replies, posted in Guests & account requests)

I vouch for ashbob smile

I'd like to request access to the wiki please.