Common Disc Info:
    Title: Sly Cooper and the Thievius Raccoonus
    Foreign Title (Non-latin): 
    Disc Number / Letter: 
    Disc Title: 
    System: Sony PlayStation 2
    Media Type: DVD-ROM-5
    Category: Games
    Region: USA
    Languages: English
    Disc Serial:  SCUS 97198

    Ringcode Information:
        Mastering Code (laser branded/etched):  PDSS-003075A1    3
        Mastering SID Code:  IFPI L331
        Data-Side Mould SID Code: IFPI QW72
        Label-Side Mould SID Code:  IFPI QW73
        Additional Mould: 
        Toolstamp or Mastering Code (engraved/stamped): B14 
    Barcode:  7 11719 71982 3
    EXE/Build Date: 2002-08-24
    Comments: 
    Contents: 

Version and Editions:
    Version: 1.00
    Edition/Release: Greatest Hits

Extras:
    Primary Volume Descriptor (PVD):

0320 : 20 20 20 20 20 20 20 20  20 20 20 20 20 32 30 30                200
0330 : 32 30 38 32 34 31 32 30  30 30 30 30 30 24 30 30   2082412000000$00
0340 : 30 30 30 30 30 30 30 30  30 30 30 30 30 30 00 30   00000000000000.0
0350 : 30 30 30 30 30 30 30 30  30 30 30 30 30 30 30 00   000000000000000.
0360 : 30 30 30 30 30 30 30 30  30 30 30 30 30 30 30 30   0000000000000000
0370 : 00 01 00 00 00 00 00 00  00 00 00 00 00 00 00 00   ................

Size & Checksum:
    Size: 2802319360
    CRC32: 046bbcec
    MD5: 5be8ed86954c4d661567ac62bd32ec39
    SHA1: 347b54b4a0d8b2c2e6c18cdbde5f1cabcc45b5da

Common Disc Info:
    Title: Alundra 2: A New Legend Begins
    Foreign Title (Non-latin): 
    Disc Number / Letter: 
    Disc Title: 
    System: Sony PlayStation
    Media Type: CD-ROM
    Category: Games
    Region: USA
    Languages: English
    Disc Serial:  SLUS-01017

    Ringcode Information:
        Mastering Code (laser branded/etched):  PSRM-01274    1
        Mastering SID Code:  IFPI L275
        Data-Side Mould SID Code: IFPI 5010
        Label-Side Mould SID Code: 
        Additional Mould: 
        Toolstamp or Mastering Code (engraved/stamped): 
    Barcode:  0 47875 12200 0
    EXE/Build Date: 2000-01-08
    Error Count: 0
    Comments:  Above the barcode code is "ISBN 1-58416-090-X"
           On spine, below serial is "1002200.201.US"
    Contents: 

Version and Editions:
    Version: 
    Edition/Release: Original
EDC:
    EDC: Yes

Extras:
    Primary Volume Descriptor (PVD):

0320 : 20 20 20 20 20 20 20 20  20 20 20 20 20 30 30 30                000
0330 : 30 30 31 30 38 31 36 35  32 34 35 30 30 24 30 30   0010816524500$00
0340 : 30 30 30 30 30 30 30 30  30 30 30 30 30 30 00 30   00000000000000.0
0350 : 30 30 30 30 30 30 30 30  30 30 30 30 30 30 30 00   000000000000000.
0360 : 30 30 30 30 30 30 30 30  30 30 30 30 30 30 30 30   0000000000000000
0370 : 00 01 00 00 00 00 00 00  00 00 00 00 00 00 00 00   ................

Copy Protection:
    Anti-modchip: Yes
    LibCrypt: No

Tracks and Write Offsets:
    DAT:

<rom name="Alundra 2.bin" size="607389888" crc="3a6bd8ad" md5="250eba52e8878b2bb51bbce2af56742a" sha1="da6c68a5d1c7ee3dd5ae56b8560d729a5fa4146a" />

    Cuesheet:

FILE "Alundra 2.bin" BINARY
  TRACK 01 MODE2/2352
    INDEX 01 00:00:00

    Write Offset: -647

https://cdn.discordapp.com/attachments/ … undra_2.7z

Common Disc Info:
    Title: Silent Hill
    Foreign Title (Non-latin): 
    Disc Number / Letter: 
    Disc Title: 
    System: Sony PlayStation
    Media Type: CD-ROM
    Category: Games
    Region: USA
    Languages: English
    Disc Serial:  SLUS-00707

    Ringcode Information:
        Mastering Code (laser branded/etched):  PSRM-011240   1
        Mastering SID Code:  IFPI L332
        Data-Side Mould SID Code: IFPI 50AC
        Label-Side Mould SID Code: 
        Additional Mould: 
        Toolstamp or Mastering Code (engraved/stamped): 
    Barcode:  0 83717 17037 2
    EXE/Build Date: 1999-02-10
    Error Count: 0
    Comments: 
    Contents: ID under the serial code on spine is "17037"

Version and Editions:
    Version: 
    Edition/Release: Greatest Hits
EDC:
    EDC: Yes

Extras:
    Primary Volume Descriptor (PVD):

0320 : 20 20 20 20 20 20 20 20  20 20 20 20 20 31 39 39                199
0330 : 39 30 32 31 30 30 31 33  30 30 30 30 30 00 30 30   9021001300000.00
0340 : 30 30 30 30 30 30 30 30  30 30 30 30 30 30 00 30   00000000000000.0
0350 : 30 30 30 30 30 30 30 30  30 30 30 30 30 30 30 00   000000000000000.
0360 : 30 30 30 30 30 30 30 30  30 30 30 30 30 30 30 30   0000000000000000
0370 : 00 01 00 00 00 00 00 00  00 00 00 00 00 00 00 00   ................

Copy Protection:
    Anti-modchip: No
    LibCrypt: No

Tracks and Write Offsets:
    DAT:

<rom name="Silent Hill.bin" size="616494480" crc="1d4a3ff7" md5="b52500eea7d7d04a6a81b0efe88955e1" sha1="34278d31d9b9b12b3b5db5e45bcbe548991ecbc7" />

    Cuesheet:

FILE "Silent Hill.bin" BINARY
  TRACK 01 MODE2/2352
    INDEX 01 00:00:00

    Write Offset: 2

https://cdn.discordapp.com/attachments/ … nt_Hill.7z

Common Disc Info:
    Title: Disney/Pixar Monsters, Inc.: Scream Team
    Foreign Title (Non-latin): 
    Disc Number / Letter: 
    Disc Title: 
    System: Sony PlayStation
    Media Type: CD-ROM
    Category: Games
    Region: USA
    Languages: English
    Disc Serial:  SCUS-94635

    Ringcode Information:
        Mastering Code (laser branded/etched):  PSRM-022530  H4  1A  09
        Mastering SID Code:  IFPI L424
        Data-Side Mould SID Code: IFPI 7215
        Label-Side Mould SID Code: 
        Additional Mould: 
        Toolstamp or Mastering Code (engraved/stamped): 
    Barcode:  7 11719 46352 8
    EXE/Build Date: 2001-09-28
    Error Count: 0
    Comments: 
    Contents: 

Version and Editions:
    Version: 
    Edition/Release: Greatest Hits
EDC:
    EDC: Yes

Extras:
    Primary Volume Descriptor (PVD):

0320 : 20 20 20 20 20 20 20 20  20 20 20 20 20 32 30 30                200
0330 : 31 30 39 32 38 32 33 30  30 30 30 30 30 00 32 30   1092823000000.20
0340 : 30 31 30 39 32 38 32 33  30 30 30 30 30 30 00 30   01092823000000.0
0350 : 30 30 30 30 30 30 30 30  30 30 30 30 30 30 30 00   000000000000000.
0360 : 30 30 30 30 30 30 30 30  30 30 30 30 30 30 30 30   0000000000000000
0370 : 00 01 00 00 00 00 00 00  00 00 00 00 00 00 00 00   ................

Copy Protection:
    Anti-modchip: No
    LibCrypt: No

Tracks and Write Offsets:
    DAT:

<rom name="Monster's Inc.bin" size="738492720" crc="5e2466cb" md5="6918aee51d9fa2d646dc40aff1877cf0" sha1="50dde51869a115990d06d1b54dcc10b39536d391" />

    Cuesheet:

FILE "Monster's Inc.bin" BINARY
  TRACK 01 MODE2/2352
    INDEX 01 00:00:00

    Write Offset: -647

https://cdn.discordapp.com/attachments/ … ers_Inc.7z

Common Disc Info:
    Title: Pier Solar And The Great Architects
    Foreign Title (Non-latin): 
    Disc Number / Letter: 
    Disc Title: 
    System: Sega Dreamcast
    Media Type: CD-ROM
    Category: Games
    Region: USA
    Languages: English
    Disc Serial:  T-574276

    Ringcode Information:
        Mastering Code (laser branded/etched):  WM005027000000000000 4*
        Mastering SID Code:   IFPI LQ20
        Data-Side Mould SID Code:  IFPI N133
        Label-Side Mould SID Code: 
        Additional Mould: 
        Toolstamp or Mastering Code (engraved/stamped): 
    Barcode:  0 850393 005027
    EXE/Build Date:
    Error Count: 3
    Comments: 
    Contents: 

Version and Editions:
    Version: 
    Edition/Release: Unlicensed

Extras:
    Primary Volume Descriptor (PVD): Disc has no PVD

Tracks and Write Offsets:
    DAT:

<rom name="PSHD (Track 1).bin" size="2102688" crc="25ed72a5" md5="8efae2e207b5224e0f64cf624d3c9b6b" sha1="954a56583848c0f8b54d4fbc0e04cf8f288cee3a" />
<rom name="PSHD (Track 2).bin" size="741724368" crc="bd329d13" md5="222028ad1f27aa9c65b05e7ef30b76b7" sha1="f9f4628b90085b560496b2a02b69808292a9d44b" />

    Cuesheet:

CATALOG 0731453345126
REM SESSION 01
FILE "PSHD (Track 1).bin" BINARY
  TRACK 01 AUDIO
    ISRC USPR39630163
    INDEX 01 00:00:00
REM LEAD-OUT 01:30:00
REM SESSION 02
REM LEAD-IN 01:00:00
REM PREGAP 00:02:00
FILE "PSHD (Track 2).bin" BINARY
  TRACK 02 MODE2/2352
    INDEX 01 00:00:00

    Write Offset: 0

https://cdn.discordapp.com/attachments/ … 86/PSHD.7z

I spoke with Maddog about it and our suspicion was that it is the Direct version, I took a look at the original retail version and it doesn't have the serial I gave him anywhere. Another thing is that the same thing happened with my skies of Arcadia limited box edition where the game case also had this weird serial similar to the one with this copy of Jet Set Radio.

Common Disc Info:
    Title: FINAL FANTASY XIII-2 Original Soundtrack
    Foreign Title (Non-latin):  ファイナルファンタジーXIII-2 オリジナル・サウンドトラック
    Disc Number / Letter: 5 
    Disc Title:  FINAL FANTASY XIII-2 Original Soundtrack Special DVD
    System: DVD-Video
    Media Type: DVD-ROM-5
    Category: Games
    Region: Japan
    Languages: Japanese
    Disc Serial:  SQEX-10295

    Ringcode Information:
        Mastering Code (laser branded/etched):  SQEX-10295    A0    1
        Mastering SID Code:  IFPI L271
        Data-Side Mould SID Code:  45T8
        Label-Side Mould SID Code: 
        Additional Mould: 
        Toolstamp or Mastering Code (engraved/stamped): 
    Barcode: 
    Comments: 
    Contents: 

Version and Editions:
    Version: 
    Edition/Release: Limited Edition

Extras:
    Primary Volume Descriptor (PVD):

0320 : 20 20 20 20 20 20 20 20  20 20 20 20 20 32 30 31                201
0330 : 31 31 31 30 38 31 32 35  36 34 32 30 30 24 32 30   1110812564200$20
0340 : 31 31 31 31 30 38 31 32  35 36 34 32 30 30 24 30   11110812564200$0
0350 : 30 30 30 30 30 30 30 30  30 30 30 30 30 30 30 00   000000000000000.
0360 : 30 30 30 30 30 30 30 30  30 30 30 30 30 30 30 30   0000000000000000
0370 : 00 01 00 00 00 00 00 00  00 00 00 00 00 00 00 00   ................

Copy Protection:
    Copy Protection:

Region: 2
Copyright Protection System Type: CSS/CPPM
Encrypted Disc Key: 75 13 27 0D 65
Player Key: 01 AF E3 12 80
Decrypted Disc Key: 05 D7 88 32 5F

Size & Checksum:
    Size: 618364928
    CRC32: 8ce46a68
    MD5: 5085f0fef0ef3ba5c723634b550cf5e8
    SHA1: a14fd88f32a95a6996c6b399fd36b2ccd34469a1

Common Disc Info:
    Title: Digimon Rumble Arena
    Foreign Title (Non-latin): 
    Disc Number / Letter: 
    Disc Title: 
    System: Sony PlayStation
    Media Type: CD-ROM
    Category: Games
    Region: USA
    Languages: English
    Disc Serial:  SLUS-01404GH

    Ringcode Information:
        Mastering Code (laser branded/etched):  PSRM-023324  U4   A1  02
        Mastering SID Code: IFPI L421
        Data-Side Mould SID Code:  IFPI 5100
        Label-Side Mould SID Code: 
        Additional Mould: 
        Toolstamp or Mastering Code (engraved/stamped):
    Barcode:  0 45557 18002 7
    EXE/Build Date: 2001-12-16
    Error Count: 0
    Comments:  ID below the serial on the spine is "Item# 18002"
    Contents: 

Version and Editions:
    Version: 
    Edition/Release: Greatest Hits
EDC:
    EDC: Yes

Extras:
    Primary Volume Descriptor (PVD):

0320 : 20 20 20 20 20 20 20 20  20 20 20 20 20 32 30 30                200
0330 : 31 31 32 31 36 30 30 30  30 30 30 30 30 00 30 30   1121600000000.00
0340 : 30 30 30 30 30 30 30 30  30 30 30 30 30 30 00 30   00000000000000.0
0350 : 30 30 30 30 30 30 30 30  30 30 30 30 30 30 30 00   000000000000000.
0360 : 30 30 30 30 30 30 30 30  30 30 30 30 30 30 30 30   0000000000000000
0370 : 00 01 00 00 00 00 00 00  00 00 00 00 00 00 00 00   ................

Copy Protection:
    Anti-modchip: No
    LibCrypt: No

Tracks and Write Offsets:
    DAT:

<rom name="SLUS_01404.bin" size="266827344" crc="e96cf414" md5="8fcbdeb16de13f9644dec6c17a94cd3f" sha1="5d1185699ca2787c8ec1945f0abd14103e7145be" />

    Cuesheet:

FILE "SLUS_01404.bin" BINARY
  TRACK 01 MODE2/2352
    INDEX 01 00:00:00

    Write Offset: -12

https://cdn.discordapp.com/attachments/ … S_01404.7z

Common Disc Info:
    Title: Mega Man X4
    Foreign Title (Non-latin): 
    Disc Number / Letter: 
    Disc Title: 
    System: Sony PlayStation
    Media Type: CD-ROM
    Category: Games
    Region: USA
    Languages: English
    Disc Serial: SLUS-00561GH 

    Ringcode Information:
        Mastering Code (laser branded/etched): PSRM-0013530   03
        Mastering SID Code:  IFPI L332
        Data-Side Mould SID Code: IFPI 5100
        Label-Side Mould SID Code: 
        Additional Mould: 
        Toolstamp or Mastering Code (engraved/stamped): 
    Barcode:  0 13388 21021 3
    EXE/Build Date: 1997-08-19
    Error Count: 0
    Comments: 
    Contents: 

Version and Editions:
    Version: 
    Edition/Release: Greatest Hits
EDC:
    EDC: Yes

Extras:
    Primary Volume Descriptor (PVD):

0320 : 20 20 20 20 20 20 20 20  20 20 20 20 20 31 39 39                199
0330 : 37 30 38 32 30 30 30 30  30 30 30 30 30 24 30 30   7082000000000$00
0340 : 30 30 30 30 30 30 30 30  30 30 30 30 30 30 00 30   00000000000000.0
0350 : 30 30 30 30 30 30 30 30  30 30 30 30 30 30 30 00   000000000000000.
0360 : 30 30 30 30 30 30 30 30  30 30 30 30 30 30 30 30   0000000000000000
0370 : 00 01 00 00 00 00 00 00  00 00 00 00 00 00 00 00   ................

Copy Protection:
    Anti-modchip: No
    LibCrypt: No

Tracks and Write Offsets:
    DAT:

<rom name="MEGAMAN_X4.bin" size="592217136" crc="84774766" md5="1c425b49bb25c45b3964b2d565dd0ec0" sha1="26ffe24a79384b24af7571674251ee575e889b38" />

    Cuesheet:

FILE "MEGAMAN_X4.bin" BINARY
  TRACK 01 MODE2/2352
    INDEX 01 00:00:00

    Write Offset: 2

https://cdn.discordapp.com/attachments/ … AMAN_X4.7z

Common Disc Info:
    Title: Hudson Selection Vol. 4: Takahashi Meijin no Boukenjima
    Foreign Title (Non-latin):  ハドソンセレクションVol.4高橋名人の冒険島
    Disc Number / Letter: 
    Disc Title: 
    System: Sony PlayStation 2
    Media Type: CD-ROM
    Category: Games
    Region: Japan
    Languages: Japanese
    Disc Serial: SLPM 62422

    Ringcode Information:
        Mastering Code (laser branded/etched): SLPM-62422   1
        Mastering SID Code: IFPI L275
        Data-Side Mould SID Code: IFPI 4518
        Label-Side Mould SID Code:
        Additional Mould:
        Toolstamp or Mastering Code (engraved/stamped): 
    Barcode:  4 988607 050696
    EXE/Build Date: 2003-10-09
    Error Count: 0
    Comments: 
    Contents: 

Version and Editions:
    Version: 1.01
    Edition/Release: Original

Extras:
    Primary Volume Descriptor (PVD):

0320 : 20 20 20 20 20 20 20 20  20 20 20 20 20 32 30 30                200
0330 : 33 31 30 30 39 31 36 31  34 31 37 30 30 24 30 30   3100916141700$00
0340 : 30 30 30 30 30 30 30 30  30 30 30 30 30 30 00 30   00000000000000.0
0350 : 30 30 30 30 30 30 30 30  30 30 30 30 30 30 30 00   000000000000000.
0360 : 30 30 30 30 30 30 30 30  30 30 30 30 30 30 30 30   0000000000000000
0370 : 00 01 00 00 00 00 00 00  00 00 00 00 00 00 00 00   ................

Tracks and Write Offsets:
    DAT:

<rom name="Takahashi Meijin no Boukenjima.bin" size="594352752" crc="1b9f65fd" md5="3af1326dd8ecf9f3c4e8ce12765301ed" sha1="3fcf239cb939ea2493c5b5db7f21188646c0169a" />

    Cuesheet:

FILE "Takahashi Meijin no Boukenjima.bin" BINARY
  TRACK 01 MODE2/2352
    INDEX 01 00:00:00

    Write Offset: -12

https://cdn.discordapp.com/attachments/ … kenjima.7z

11

(0 replies, posted in Verifications)

Common Disc Info:
    Title: God Hand
    Foreign Title (Non-latin): 
    Disc Number / Letter: 
    Disc Title: 
    System: Sony PlayStation 2
    Media Type: DVD-ROM-5
    Category: Games
    Region: USA
    Languages: English
    Disc Serial:  SLUS-21503

    Ringcode Information:
        Mastering Code (laser branded/etched):  PDSS-024865A1   2
        Mastering SID Code:  IFPI L332
        Data-Side Mould SID Code:  IFPI QM78
        Label-Side Mould SID Code: IFPI QM79
        Additional Mould: 
        Toolstamp or Mastering Code (engraved/stamped):  A05
    Barcode:  0 13388 26066 9
    EXE/Build Date: 2006-08-23
    Comments: 
    Contents: 

Version and Editions:
    Version: 1.00
    Edition/Release: Original

Extras:
    Primary Volume Descriptor (PVD):

0320 : 20 20 20 20 20 20 20 20  20 20 20 20 20 32 30 30                200
0330 : 36 30 38 32 33 31 30 33  30 30 30 30 30 24 30 30   6082310300000$00
0340 : 30 30 30 30 30 30 30 30  30 30 30 30 30 30 00 30   00000000000000.0
0350 : 30 30 30 30 30 30 30 30  30 30 30 30 30 30 30 00   000000000000000.
0360 : 30 30 30 30 30 30 30 30  30 30 30 30 30 30 30 30   0000000000000000
0370 : 00 01 00 00 00 00 00 00  00 00 00 00 00 00 00 00   ................

Size & Checksum:
    Size: 1567686656
    CRC32: 07220ad2
    MD5: edfe683b6973fe45cbd75e30664f2a70
    SHA1: 2215fb65a9ae391741950970bd88b79ca87d9d05

12

(0 replies, posted in Verifications)

Common Disc Info:
    Title: Metal Saga
    Foreign Title (Non-latin): 
    Disc Number / Letter: 
    Disc Title: 
    System: Sony PlayStation 2
    Media Type: DVD-ROM-5
    Category: Games
    Region: USA
    Languages: English
    Disc Serial:  SLUS-21293

    Ringcode Information:
        Mastering Code (laser branded/etched):  PDSS-020545A1   1
        Mastering SID Code:  IFPI L332
        Data-Side Mould SID Code: IFPI QM72
        Label-Side Mould SID Code:  IFPI QM73
        Additional Mould: 
        Toolstamp or Mastering Code (engraved/stamped):  A03
    Barcode: 
    EXE/Build Date: 2006-03-21
    Comments: 
    Contents: 

Version and Editions:
    Version: 1.00
    Edition/Release: Original

Extras:
    Primary Volume Descriptor (PVD):

0320 : 20 20 20 20 20 20 20 20  20 20 20 20 20 32 30 30                200
0330 : 36 30 33 32 32 30 39 33  39 31 37 30 30 24 30 30   6032209391700$00
0340 : 30 30 30 30 30 30 30 30  30 30 30 30 30 30 00 30   00000000000000.0
0350 : 30 30 30 30 30 30 30 30  30 30 30 30 30 30 30 00   000000000000000.
0360 : 30 30 30 30 30 30 30 30  30 30 30 30 30 30 30 30   0000000000000000
0370 : 00 01 00 00 00 00 00 00  00 00 00 00 00 00 00 00   ................

Size & Checksum:
    Size: 1704427520
    CRC32: 34965413
    MD5: dc62a65206c15d8f54d0152d98167601
    SHA1: 793d759fe4c0d3fe3e0a884458326ee81e858227

Common Disc Info:
    Title: De La Jet Set Radio
    Foreign Title (Non-latin):  デ・ラ・ジェット・セット・ラジオ
    Disc Number / Letter: 
    Disc Title: 
    System: Sega Dreamcast
    Media Type: CD-ROM
    Category: Games
    Region: Japan
    Languages: Japanese
    Disc Serial:  HDR-0128

    Ringcode Information:
        Mastering Code (laser branded/etched):  HDR-0128-0589   1
        Mastering SID Code:  IFPI L155
        Data-Side Mould SID Code:
        Label-Side Mould SID Code: 
        Additional Mould: 
        Toolstamp or Mastering Code (engraved/stamped):  A1
    Barcode: 
    EXE/Build Date: 2000-11-14
    Error Count: 0
    Comments: 
    Contents: 

Version and Editions:
    Version:  1.001
    Edition/Release: D-Direct Limited Edition

Extras:
    Primary Volume Descriptor (PVD):

0320 : 20 20 20 20 20 20 20 20  20 20 20 20 20 32 30 30                200
0330 : 30 31 31 31 34 30 39 35  38 34 37 30 30 24 32 30   0111409584700$20
0340 : 30 30 31 31 31 34 30 39  35 38 34 37 30 30 24 30   00111409584700$0
0350 : 30 30 30 30 30 30 30 30  30 30 30 30 30 30 30 00   000000000000000.
0360 : 30 30 30 30 30 30 30 30  30 30 30 30 30 30 30 30   0000000000000000
0370 : 00 01 00 00 00 00 00 00  00 00 00 00 00 00 00 00   ................

Tracks and Write Offsets:
    DAT:

<rom name="DE_LA_JET_SET_RADIO (Track 1).bin" size="1058400" crc="ca958a4b" md5="c30ba961a0cb330b117f17e5508f9c90" sha1="7e7c94d0784bca3ffb4698c11b8f629567aaed0f" />
<rom name="DE_LA_JET_SET_RADIO (Track 2).bin" size="2088576" crc="1859ea65" md5="652a31166a58b8f933e8a924e7c88780" sha1="0ecd537e42946f3e74c80c9fcb8d0bccccfc96f1" />

    Cuesheet:

FILE "DE_LA_JET_SET_RADIO (Track 1).bin" BINARY
  TRACK 01 MODE1/2352
    INDEX 01 00:00:00
FILE "DE_LA_JET_SET_RADIO (Track 2).bin" BINARY
  TRACK 02 AUDIO
    INDEX 00 00:00:00
    INDEX 01 00:02:00

    Write Offset: 13

Filename          : Track 03.bin
MD5               : 972ffdfcfb0230d0696593c26cfd6f62
SHA1              : 9f8ac764524692eef619eef526f5391ee5e5971d
CRC32             : 03aa66cb

14

(3 replies, posted in Verifications)

T-29101M and T-29102M on the disc but box only shows T-29102M.

15

(3 replies, posted in Verifications)

I'll look into it later on, didn't know it's double serial.

16

(3 replies, posted in Verifications)

Common Disc Info:
    Title: Triggerheart Exelica
    Foreign Title (Non-latin):  トリガーハート・エグゼリカ
    Disc Number / Letter: 
    Disc Title: 
    System: Sega Dreamcast
    Media Type: CD-ROM
    Category: Games
    Region: Japan
    Languages: Japanese
    Disc Serial:  T-29102M

    Ringcode Information:
        Mastering Code (laser branded/etched):  T-29102M-0926   MT   B01
        Mastering SID Code:  IFPI L262
        Data-Side Mould SID Code:  IFPI 44B5
        Label-Side Mould SID Code: 
        Additional Mould: 
        Toolstamp or Mastering Code (engraved/stamped): 
    Barcode:  4 516365 001027
    EXE/Build Date:  2006-12-14
    Error Count: 0
    Comments: 
    Contents: 

Version and Editions:
    Version:  V1.002
    Edition/Release: Original

Extras:
    Primary Volume Descriptor (PVD):

0320 : 20 20 20 20 20 20 20 20  20 20 20 20 20 32 30 30                200
0330 : 36 31 31 31 38 31 36 35  31 32 33 30 30 24 32 30   6111816512300$20
0340 : 30 36 31 32 31 34 32 30  33 31 32 34 30 30 24 32   06121420312400$2
0350 : 30 31 35 31 31 31 38 31  36 35 31 32 33 30 30 24   015111816512300$
0360 : 32 30 30 36 31 31 31 38  31 36 35 31 32 33 30 30   2006111816512300
0370 : 24 01 00 00 00 00 00 00  00 00 00 00 00 00 00 00   $...............

Tracks and Write Offsets:
    DAT:

<rom name="TH_EXELICA (Track 1).bin" size="14869344" crc="5d3ec910" md5="acebea03ce0064acb9a83953d2d9de43" sha1="4d5dbd0785928bb1f8e2dbd997fee13054c0a1e4" />
<rom name="TH_EXELICA (Track 2).bin" size="4125408" crc="0cd613a3" md5="6119da8538edef21bca432b1fb82c24a" sha1="1aad35b406393631677fc619d3c663d52e8cda52" />
<rom name="TH_EXELICA (Track 3).bin" size="1185760800" crc="3c77535e" md5="8b49c7cdb390a38f53e53b55954b98cc" sha1="da31513e4ce77c0a6e8cd10be0a15a1d71200716" />

    Cuesheet:

FILE "TH_EXELICA (Track 1).bin" BINARY
  TRACK 01 MODE1/2352
    INDEX 01 00:00:00
FILE "TH_EXELICA (Track 2).bin" BINARY
  TRACK 02 AUDIO
    INDEX 00 00:00:00
    INDEX 01 00:02:00

    Write Offset: 13

Common Disc Info:
    Title: Guilty Gear X
    Foreign Title (Non-latin): ギルティギアゼクス
    Disc Number / Letter: 
    Disc Title: 
    System: Sega Dreamcast
    Media Type: CD-ROM
    Category: Games
    Region: Japan
    Languages: Japanese
    Disc Serial:  T-2401M

    Ringcode Information:
        Mastering Code (laser branded/etched):  T-2402M-0562A   10MM1   C  0Y
        Mastering SID Code: IFPI L223
        Data-Side Mould SID Code: IFPI 3911 
        Label-Side Mould SID Code: 
        Additional Mould: 
        Toolstamp or Mastering Code (engraved/stamped): 
    Barcode:  4 991694 000390
    EXE/Build Date: 2000-11-13
    Error Count: 0
    Comments: 
    Contents: 

Version and Editions:
    Version:  2.000
    Edition/Release: Shokai Genteiban Type C

Extras:
    Primary Volume Descriptor (PVD):

0320 : 20 20 20 20 20 20 20 20  20 20 20 20 20 32 30 30                200
0330 : 30 30 35 30 35 30 35 35  30 32 34 30 30 24 32 30   0050505502400$20
0340 : 30 30 30 35 30 35 30 35  35 30 32 34 30 30 24 30   00050505502400$0
0350 : 30 30 30 30 30 30 30 30  30 30 30 30 30 30 30 00   000000000000000.
0360 : 30 30 30 30 30 30 30 30  30 30 30 30 30 30 30 30   0000000000000000
0370 : 00 01 00 00 00 00 00 00  00 00 00 00 00 00 00 00   ................

Tracks and Write Offsets:
    DAT:

<rom name="GUILTYGEARX (Track 1).bin" size="1613472" crc="fa6405f2" md5="4b29fe94da2db1d171c4c6ec2511e628" sha1="fc906ac5cba57379c590e22afc85cff84a8bca56" />
<rom name="GUILTYGEARX (Track 2).bin" size="2088576" crc="1859ea65" md5="652a31166a58b8f933e8a924e7c88780" sha1="0ecd537e42946f3e74c80c9fcb8d0bccccfc96f1" />

    Cuesheet:

FILE "GUILTYGEARX (Track 1).bin" BINARY
  TRACK 01 MODE1/2352
    INDEX 01 00:00:00
FILE "GUILTYGEARX (Track 2).bin" BINARY
  TRACK 02 AUDIO
    INDEX 00 00:00:00
    INDEX 01 00:02:00

    Write Offset: -285

All other audio tracks match current entry on redump, hashes are in the log files.

Common Disc Info:
    Title: Guilty Gear X
    Foreign Title (Non-latin): ギルティギアゼクス
    Disc Number / Letter:
    Disc Title:
    System: IBM PC Compatible
    Media Type: CD-ROM
    Category: Bonus
    Region: Japan
    Languages: Japanese
    Disc Serial:

    Ringcode Information:
        Mastering Code (laser branded/etched): GGX EXTRA TYPE C
        Mastering SID Code: IFPI LE91
        Data-Side Mould SID Code: IFPI 7K12
        Label-Side Mould SID Code:
        Additional Mould:
        Toolstamp or Mastering Code (engraved/stamped):
    Barcode:
    Error Count: 3
    Comments: Included with the Guilty Gear X Genteiban, Type C disc.
    Contents: Includes a webpage, two wallpapers and an audio track.

Version and Editions:
    Version:
    Edition/Release: Original

Extras:
    Primary Volume Descriptor (PVD): Disc has no PVD

Copy Protection:
    Copy Protection: Path could not be scanned!

Tracks and Write Offsets:
    DAT:

<rom name="Ggxextra (Track 1).bin" size="35588112" crc="6bc5c07e" md5="2e4c7d660a21aebfe42e414cd690a779" sha1="f97c1d199164fc401bdb758235e9f73930180da8" />
<rom name="Ggxextra (Track 2).bin" size="3739680" crc="1e516846" md5="4186aff3c3eb578b218a9122dff22d95" sha1="4f76499c0122532b35a02ae14f2c7f5dd542af94" />

    Cuesheet:

REM SESSION 01
FILE "Ggxextra (Track 1).bin" BINARY
  TRACK 01 AUDIO
    FLAGS DCP
    INDEX 01 00:00:00
REM LEAD-OUT 01:30:00
REM SESSION 02
REM LEAD-IN 01:00:00
REM PREGAP 00:02:00
FILE "Ggxextra (Track 2).bin" BINARY
  TRACK 02 MODE1/2352
    INDEX 01 00:00:00

    Write Offset: -12

Common Disc Info:
    Title: Dracula: Music Collection
    Foreign Title (Non-latin): 悪魔城ドラキュラミュージック・コレクション
    Disc Number / Letter:
    Disc Title:
    System: Audio CD
    Media Type: CD-ROM
    Category: Audio
    Region: Japan
    Languages:
    Disc Serial:  VX010-J1

    Ringcode Information:
        Mastering Code (laser branded/etched):  VX010-J1- 2F   V
        Mastering SID Code:  IFPI L232
        Data-Side Mould SID Code:  IFPI4111
        Label-Side Mould SID Code: 
        Additional Mould:  24
        Toolstamp or Mastering Code (engraved/stamped): 
    Barcode:
    Error Count:
    Comments:
    Contents:

Version and Editions:
    Version: 
    Edition/Release: Original

Extras:
    Primary Volume Descriptor (PVD): Disc has no PVD

Tracks and Write Offsets:
    DAT:

<rom name="Dracula Music Collection (Track 01).bin" size="68701920" crc="4330eec4" md5="3c073abfac247dbc0f9e80f39f7099c8" sha1="e7cd470976b333934648336683d76ef73967cf80" />
<rom name="Dracula Music Collection (Track 02).bin" size="16600416" crc="d27692e9" md5="0cbad78e4386767854ad24b57aa3599c" sha1="5de2b0fc157d671dfb06bc2dca340f7182e8885d" />
<rom name="Dracula Music Collection (Track 03).bin" size="63555744" crc="4c237c5d" md5="47045ec8934e10ca5fd8433eab5ff26c" sha1="20505f5cb688a57ac55b75640cd4adff60d133d1" />
<rom name="Dracula Music Collection (Track 04).bin" size="41251728" crc="f5f79b35" md5="b68d76346dd8c4e269ba571a91aeb23c" sha1="8030f2feeace094fcf2214c153f392c9fb9dd631" />
<rom name="Dracula Music Collection (Track 05).bin" size="54883920" crc="df9eb21b" md5="7b0bcb49f8ffbcd77dbaa7ae00e31ca1" sha1="87bab0facd9c65cec2f68accbc1804e8e85408d1" />
<rom name="Dracula Music Collection (Track 06).bin" size="41550432" crc="c484dead" md5="c62b532731855faf94ab8e4c9ad8808b" sha1="80c5c82003a204b371574cdeb5ca3ddd197a541c" />
<rom name="Dracula Music Collection (Track 07).bin" size="45541776" crc="f59c10a4" md5="3d00322f36d08eb1833d331b71004f5b" sha1="4b8605e0cbf691e2fc4824ca36c9a82d14f47ec8" />
<rom name="Dracula Music Collection (Track 08).bin" size="82719840" crc="6885a335" md5="2a9ad037238337f15bb7a3b2d79b517e" sha1="92cc69229df4d23d1c759c560406ee640b958d12" />
<rom name="Dracula Music Collection (Track 09).bin" size="31164000" crc="48c12b2f" md5="318fb8c6d89bd11a1c9fa739eb19311a" sha1="f565328b621a8bf4810d38198d2af06242287faa" />
<rom name="Dracula Music Collection (Track 10).bin" size="56426832" crc="d22e8d1b" md5="3ede1a5fdee775535a0fce0af0f8e5f1" sha1="804d8d233fe2b386cd86a6d644203f8a4a91bd4d" />
<rom name="Dracula Music Collection (Track 11).bin" size="57374688" crc="3438226e" md5="557d2f25fab550db13fe101cc2df12a3" sha1="a5614e868fc4965a9d85ec3292d0ee93978d8b40" />
<rom name="Dracula Music Collection (Track 12).bin" size="36578304" crc="20583728" md5="496fad3e6f6088bfa9728ca41b2412a8" sha1="bc1d6f98f223c20e621757452527926249dfcc67" />
<rom name="Dracula Music Collection (Track 13).bin" size="70124880" crc="1c3ca905" md5="cef7bf2e3675ac937b6bdf1d6be56399" sha1="0e5a204de2d2751d0ff03ea06868209feac3fc6e" />
<rom name="Dracula Music Collection (Track 14).bin" size="34809600" crc="a3910e39" md5="510967e814a805a91f2538e3f2eb5b02" sha1="4527a3376fd4e84db008c7030b9be6ee68cbabac" />
<rom name="Dracula Music Collection (Track 15).bin" size="41905584" crc="92309bf6" md5="35d74ecb749314c75d3bc898f7650f96" sha1="a157597373fad185d2277bfb2ac94f6733b53260" />
<rom name="Dracula Music Collection (Track 16).bin" size="35785680" crc="81169cd5" md5="7e4bc3ab8eaf6f6d8c3cd3d188ed9ef9" sha1="a0069cbb9d73475ad202fd345391e710d27ffafd" />

    Cuesheet:

CATALOG 0000000000000
FILE "Dracula Music Collection (Track 01).bin" BINARY
  TRACK 01 AUDIO
    INDEX 00 00:00:00
    INDEX 01 00:00:37
FILE "Dracula Music Collection (Track 02).bin" BINARY
  TRACK 02 AUDIO
    INDEX 00 00:00:00
    INDEX 01 00:00:49
FILE "Dracula Music Collection (Track 03).bin" BINARY
  TRACK 03 AUDIO
    INDEX 00 00:00:00
    INDEX 01 00:00:29
FILE "Dracula Music Collection (Track 04).bin" BINARY
  TRACK 04 AUDIO
    INDEX 00 00:00:00
    INDEX 01 00:00:74
FILE "Dracula Music Collection (Track 05).bin" BINARY
  TRACK 05 AUDIO
    INDEX 01 00:00:00
FILE "Dracula Music Collection (Track 06).bin" BINARY
  TRACK 06 AUDIO
    INDEX 01 00:00:00
FILE "Dracula Music Collection (Track 07).bin" BINARY
  TRACK 07 AUDIO
    INDEX 00 00:00:00
    INDEX 01 00:00:69
FILE "Dracula Music Collection (Track 08).bin" BINARY
  TRACK 08 AUDIO
    INDEX 00 00:00:00
    INDEX 01 00:01:11
FILE "Dracula Music Collection (Track 09).bin" BINARY
  TRACK 09 AUDIO
    INDEX 00 00:00:00
    INDEX 01 00:00:24
FILE "Dracula Music Collection (Track 10).bin" BINARY
  TRACK 10 AUDIO
    INDEX 00 00:00:00
    INDEX 01 00:00:29
FILE "Dracula Music Collection (Track 11).bin" BINARY
  TRACK 11 AUDIO
    INDEX 01 00:00:00
FILE "Dracula Music Collection (Track 12).bin" BINARY
  TRACK 12 AUDIO
    INDEX 00 00:00:00
    INDEX 01 00:00:51
FILE "Dracula Music Collection (Track 13).bin" BINARY
  TRACK 13 AUDIO
    INDEX 00 00:00:00
    INDEX 01 00:01:24
FILE "Dracula Music Collection (Track 14).bin" BINARY
  TRACK 14 AUDIO
    INDEX 00 00:00:00
    INDEX 01 00:00:49
FILE "Dracula Music Collection (Track 15).bin" BINARY
  TRACK 15 AUDIO
    INDEX 00 00:00:00
    INDEX 01 00:01:62
FILE "Dracula Music Collection (Track 16).bin" BINARY
  TRACK 16 AUDIO
    INDEX 01 00:00:00

    Write Offset: 0

https://cdn.discordapp.com/attachments/ … lection.7z

Common Disc Info:
    Title: Dot Hack Liminality Vol. 1: In the Case of Mai Minase
    Foreign Title (Non-latin): 
    Disc Number / Letter: 
    Disc Title: 
    System: DVD-Video
    Media Type: DVD-ROM-5
    Category: Bonus
    Region: USA
    Languages: English
    Disc Serial: 

    Ringcode Information:
        Mastering Code (laser branded/etched):  DVSS-063370A1    2
        Mastering SID Code:  IFPI L331
        Data-Side Mould SID Code: A01 
        Label-Side Mould SID Code:  IFPI 0M5F
        Additional Mould: 
        Toolstamp or Mastering Code (engraved/stamped): 
    Barcode: 
    Comments: 
    Contents:  Exclusive 45 minute original anime movie

Version and Editions:
    Version: 
    Edition/Release: PS2 Bundle

Extras:
    Primary Volume Descriptor (PVD):

0320 : 20 20 20 20 20 20 20 20  20 20 20 20 20 32 30 30                200
0330 : 32 30 39 30 34 31 31 35  32 34 36 30 30 E0 30 30   2090411524600.00
0340 : 30 30 30 30 30 30 30 30  30 30 30 30 30 30 00 30   00000000000000.0
0350 : 30 30 30 30 30 30 30 30  30 30 30 30 30 30 30 00   000000000000000.
0360 : 30 30 30 30 30 30 30 30  30 30 30 30 30 30 30 30   0000000000000000
0370 : 00 01 00 00 00 00 00 00  00 00 00 00 00 00 00 00   ................

Copy Protection:
    Copy Protection:

Region: 1
Copyright Protection System Type: CSS/CPPM
Encrypted Disc Key: B9 AA C7 07 08
Player Key: 01 AF E3 12 80
Decrypted Disc Key: 36 77 CB 3A 7A

Size & Checksum:
    Size: 3129513984
    CRC32: 47ba03d9
    MD5: 9ab8d70ca6ff587a0f33cebce35da39f
    SHA1: 5cf05ff7605ee65128fc37d99f025c62e48003d7

Common Disc Info:
    Title: Wild Arms: Bonus Anime DVD!
    Foreign Title (Non-latin): 
    Disc Number / Letter: 
    Disc Title: 
    System: DVD-Video
    Media Type: DVD-ROM-5
    Category: Bonus
    Region: USA
    Languages: English
    Disc Serial: 

    Ringcode Information:
        Mastering Code (laser branded/etched): DVSS-335160A1    2 
        Mastering SID Code:  IFPI L330
        Data-Side Mould SID Code: 
        Label-Side Mould SID Code: IFPI 0W2D
        Additional Mould:  A03
        Toolstamp or Mastering Code (engraved/stamped): 
    Barcode: 
    Comments: 
    Contents:  Contains: Episode #1 "Sleeping Dirty" of the WILD ARMS: Twilight Venom anime series. Bundled with Wild Arms Alter Code F game.

Version and Editions:
    Version: 
    Edition/Release: PS2 Bundle

Extras:
    Primary Volume Descriptor (PVD):

0320 : 20 20 20 20 20 20 20 20  20 20 20 20 20 32 30 30                200
0330 : 35 30 33 31 37 31 34 32  34 31 32 30 30 E8 32 30   5031714241200.20
0340 : 30 35 30 33 31 37 31 34  32 34 31 32 30 30 E8 30   05031714241200.0
0350 : 30 30 30 30 30 30 30 30  30 30 30 30 30 30 30 00   000000000000000.
0360 : 32 30 30 35 30 33 31 37  31 34 32 34 31 32 30 30   2005031714241200
0370 : E8 01 00 52 69 6D 61 67  65 20 49 6D 61 67 65 20   ...Rimage Image

Copy Protection:
    Copy Protection:

Region: 1 2 3 4 5 6 7 8
Copyright Protection System Type: No

Size & Checksum:
    Size: 1558026240
    CRC32: d8ecff2d
    MD5: 0dcc52a1a61560eb63b27264e96a7fbe
    SHA1: a7dc5d531047d6e85bfc0f098b981f07529cb664

Does Pier Solar need redumping too?

https://cdn.discordapp.com/attachments/ … J041202.7z

Common Disc Info:
    Title: Oretachi Geesen Zoku: Karate-dou
    Foreign Title (Non-latin): オレたちゲーセン族 空手道
    Disc Number / Letter:
    Disc Title:
    System: DVD-Video
    Media Type: DVD-ROM-5
    Category: Video
    Region: Japan
    Languages: Japanese
    Disc Serial:

    Ringcode Information:
        Mastering Code (laser branded/etched): HOGD-003D Made in Taiwan
        Mastering SID Code: IFPI LB75 05060341N
        Data-Side Mould SID Code: IFPI 2N75
        Label-Side Mould SID Code:
        Additional Mould:
        Toolstamp or Mastering Code (engraved/stamped):
    Barcode:
    Comments: Bundled with PS2 game Oretachi Geesen Zoku: Karate-dou
    Contents:

Version and Editions:
    Version:
    Edition/Release: PS2 Bundle

Extras:
    Primary Volume Descriptor (PVD):

0320 : 20 20 20 20 20 20 20 20  20 20 20 20 20 32 30 30                200
0330 : 35 30 36 30 32 31 33 33  33 32 34 30 30 24 30 30   5060213332400$00
0340 : 30 30 30 30 30 30 30 30  30 30 30 30 30 30 00 30   00000000000000.0
0350 : 30 30 30 30 30 30 30 30  30 30 30 30 30 30 30 00   000000000000000.
0360 : 30 30 30 30 30 30 30 30  30 30 30 30 30 30 30 30   0000000000000000
0370 : 00 01 00 00 00 00 00 00  00 00 00 00 00 00 00 00   ................

Copy Protection:
    Copy Protection:

Region: 2 3
Copyright Protection System Type: CSS/CPPM
Encrypted Disc Key: D3 B0 B8 AD E5
Player Key: 01 AF E3 12 80
Decrypted Disc Key: 00 00 03 C8 C2

Size & Checksum:
    Size: 926984192
    CRC32: 72f71719
    MD5: e485a2d8e76ec7ab17c28bb6407b5a97
    SHA1: 01261875cca6fd40c249e60e1c550c4849d67558

Title: Capcom Fighting Jam Master's Disc
Disc Number / Letter: 
Disc Title: 
System: DVD-Video
Media Type: DVD-ROM-5
Category: Extra
Region: Japan 
Languages: Japanese 
Disc Serial:  CAPJ-041202
Ringcode Information:
    Mastering Code (laser branded/etched):  CAPJ-041202 Made in Taiwan
    Mastering SID Code: IFPI LB76 04110605N
    Data-Side Mould SID Code:  IFPI 2N29
    Label-Side Mould SID Code: 
    Additional Mould:  F1M1S1
    Toolstamp or Mastering Code (engraved/stamped): 
Barcode: 
Comments: 
Contents:  Coed "04110605N" is placed right besides the M-SID code and additional mould "F1M1S1" is placed below the M-Code
Version: 
Edition/Release: Not For Sale
Primary Volume Descriptor (PVD):

0320 : 20 20 20 20 20 20 20 20  20 20 20 20 20 32 30 30                200
0330 : 34 31 31 30 32 32 31 30  39 34 31 30 30 24 30 30   4110221094100$00
0340 : 30 30 30 30 30 30 30 30  30 30 30 30 30 30 00 30   00000000000000.0
0350 : 30 30 30 30 30 30 30 30  30 30 30 30 30 30 30 00   000000000000000.
0360 : 30 30 30 30 30 30 30 30  30 30 30 30 30 30 30 30   0000000000000000
0370 : 00 01 00 00 00 00 00 00  00 00 00 00 00 00 00 00   ................

Copy Protection:

Region: 2
Copyright Protection System Type: CSS/CPPM
Encrypted Disc Key: D6 F0 E2 8D E8
Player Key: 01 AF E3 12 80
Decrypted Disc Key: 00 00 03 C8 C1

DAT:

<rom name="Capcom Fighting Jam - Master's Disc.iso" size="3614261248" crc="b8de539c" md5="5e0c06e35d89f55878ff7c17b94cdca7" sha1="f9e4c050af8152cd6c95f62355b9a37d1325c8e4" />