1

(1,440 replies, posted in General discussion)

Quick followup with user7's PS4 experience. I had him compare the PIC.bin file that was generated by DIC compared to sg-raw. It was identical except that the one by sg-raw had two extra (null) bytes appended to the end. I'm not sure if those are needed for anything, but I figured it's good to check on.

I'm starting to see an uptick of people again where they get deterred when it says that there's no registrations right now. Some of these people have unique collections too that could be big verifications or additions. Please change this!

3

(2 replies, posted in Dumps)

Logs are here https://mega.nz/#F!0dUixLaS!-72vDgS_9TR8qiYGSkok2w

4

(0 replies, posted in Dumps)

Crash Nitro Kart (USA) (Demo) http://redump.org/disc/45088/

Title: Crash Nitro Kart
Disc Number/Letter: N/A
Disc Title: N/A
Category: Demos
Region: USA
Languages: English
Serial: SLUS 29068
EXE date: 2003-07-07
Mastering Ring: IFPI L327    PTRM-005735    2
Mastering SID Code: IFPI L327
Mould Sid Code: IFPI 5085
Toolstamp or Mastering Code: A05
Barcode: 
Errors Count: 0
Comments: N/A
Contents: N/A
Version: 1.00
Edition/Release: Demo Disc, Not For Sale
Primary Volume Descriptor:

0320 : 20 20 20 20 20 20 20 20  20 20 20 20 20 32 30 30                200
0330 : 33 30 37 30 38 31 36 30  31 32 37 30 30 24 30 30   3070816012700$00
0340 : 30 30 30 30 30 30 30 30  30 30 30 30 30 30 00 30   00000000000000.0
0350 : 30 30 30 30 30 30 30 30  30 30 30 30 30 30 30 00   000000000000000.
0360 : 30 30 30 30 30 30 30 30  30 30 30 30 30 30 30 30   0000000000000000
0370 : 00 01 00 00 00 00 00 00  00 00 00 00 00 00 00 00   ................

Cuesheet:

FILE "Crash Nitro Kart (USA) (Demo).bin" BINARY
  TRACK 01 MODE2/2352
    INDEX 01 00:00:00

Write Offset: -12

Dat:

<rom name="Crash Nitro Kart (USA) (Demo).bin" size="60542832" crc="c3b1c2a0" md5="a554baf5e67a79782fda67a6a1539ef5" sha1="1144b7e9d0e3975595a7748196bcaca16d47cf61" />

Downhill Domination (USA) (Demo) http://redump.org/disc/18122/

Title: Downhill Domination
Disc Number/Letter: N/A
Disc Title: N/A
Category: Demos
Region: USA
Languages: English
Serial: SCUS 97329
EXE date: 2003-06-09
Mastering Ring: IFPI L327    PTRM-005585    2
Mastering SID Code: IFPI L327
Mould Sid Code: IFPI 50FC
Toolstamp or Mastering Code: A03
Barcode: 
Errors Count: 0
Comments: N/A
Contents: N/A
Version: 1.00
Edition/Release: Demo Disc, Not For Resale
Primary Volume Descriptor:

0320 : 20 20 20 20 20 20 20 20  20 20 20 20 20 32 30 30                200
0330 : 33 30 36 30 39 30 38 33  30 30 33 30 30 24 30 30   3060908300300$00
0340 : 30 30 30 30 30 30 30 30  30 30 30 30 30 30 00 30   00000000000000.0
0350 : 30 30 30 30 30 30 30 30  30 30 30 30 30 30 30 00   000000000000000.
0360 : 30 30 30 30 30 30 30 30  30 30 30 30 30 30 30 30   0000000000000000
0370 : 00 01 00 00 00 00 00 00  00 00 00 00 00 00 00 00   ................

Cuesheet:

FILE "Downhill Domination (USA) (Demo).bin" BINARY
  TRACK 01 MODE2/2352
    INDEX 01 00:00:00

Write Offset: -12

Dat:

<rom name="Downhill Domination (USA) (Demo).bin" size="598369968" crc="0e982f0a" md5="abade90e48d91d0a978ba590d146d5d2" sha1="964f9781b108acabdb93a2610ebe548b9df14c14" />

Jet X2O (USA) (Demo) http://redump.org/disc/36077/

Title: Jet X2O
Disc Number/Letter: N/A
Disc Title: N/A
Category: Games
Region: USA
Languages: English
Serial: PDSS-005845
EXE date: 2002-09-26
Mastering Ring: IFPI L332    PDSS-005845A1    1
Mastering SID Code: IFPI L332
Mould Sid Code: IFPI QW5E, IFPI QW5F
Toolstamp or Mastering Code: A02
Barcode: 
Errors Count: 
Comments: N/A
Contents: N/A
Version: 1.00
Edition/Release: Demo Disc, Not For Resale
Primary Volume Descriptor:

0320 : 20 20 20 20 20 20 20 20  20 20 20 20 20 32 30 30                200
0330 : 32 30 39 32 37 31 32 34  31 35 37 30 30 24 30 30   2092712415700$00
0340 : 30 30 30 30 30 30 30 30  30 30 30 30 30 30 00 30   00000000000000.0
0350 : 30 30 30 30 30 30 30 30  30 30 30 30 30 30 30 00   000000000000000.
0360 : 30 30 30 30 30 30 30 30  30 30 30 30 30 30 30 30   0000000000000000
0370 : 00 01 00 00 00 00 00 00  00 00 00 00 00 00 00 00   ................

Dat:

<rom name="Jet X2O (USA) (Demo).iso" size="1242660864" crc="c1529494" md5="b7e7b0f720f5c6dbd17c9168af188576" sha1="6fa902abb9189a9e1eacfe7480e7d94ab4d236e3" />

Rise to Honor (USA) (Demo) http://redump.org/disc/36081/

Title: Jet Li: Rise to Honor
Disc Number/Letter: N/A
Disc Title: N/A
Category: Demos
Region: USA
Languages: English
Serial: SCUS 97372
EXE date: 2003-08-15
Mastering Ring: IFPI L332    PDSS-010015A1    1
Mastering SID Code: IFPI L332
Mould Sid Code: IFPI QW22, IFPI QW23
Toolstamp or Mastering Code: A08
Barcode: 7 11719 73722 3
Errors Count: 
Comments: N/A
Contents: N/A
Version: 1.00
Edition/Release: Demo Disc, Not For Resale
Primary Volume Descriptor:

0320 : 20 20 20 20 20 20 20 20  20 20 20 20 20 32 30 30                200
0330 : 33 30 38 31 35 31 38 33  33 34 34 30 30 24 30 30   3081518334400$00
0340 : 30 30 30 30 30 30 30 30  30 30 30 30 30 30 00 30   00000000000000.0
0350 : 30 30 30 30 30 30 30 30  30 30 30 30 30 30 30 00   000000000000000.
0360 : 30 30 30 30 30 30 30 30  30 30 30 30 30 30 30 30   0000000000000000
0370 : 00 01 00 00 00 00 00 00  00 00 00 00 00 00 00 00   ................

Dat:

<rom name="Jet Li - Rise to Honor (USA) (Demo).iso" size="1593409536" crc="ff1d94c1" md5="f1fb72eac149ea61a2abeef430ee3a4f" sha1="f0cb67797fa450053a426dee8902a9381abd35ff" />

Rise to Honor (USA) (Demo) http://redump.org/disc/36081/

Title: Jet Li: Rise to Honor
Disc Number/Letter: N/A
Disc Title: N/A
Category: Demos
Region: USA
Languages: English
Serial: SCUS 97372
EXE date: 2003-08-15
Mastering Ring: IFPI L332    PDSS-010015A1    1
Mastering SID Code: IFPI L332
Mould Sid Code: IFPI QW22, IFPI QW23
Toolstamp or Mastering Code: A08
Barcode: 7 11719 73722 3
Errors Count: 
Comments: N/A
Contents: N/A
Version: 1.00
Edition/Release: Demo Disc, Not For Resale
Primary Volume Descriptor:

0320 : 20 20 20 20 20 20 20 20  20 20 20 20 20 32 30 30                200
0330 : 33 30 38 31 35 31 38 33  33 34 34 30 30 24 30 30   3081518334400$00
0340 : 30 30 30 30 30 30 30 30  30 30 30 30 30 30 00 30   00000000000000.0
0350 : 30 30 30 30 30 30 30 30  30 30 30 30 30 30 30 00   000000000000000.
0360 : 30 30 30 30 30 30 30 30  30 30 30 30 30 30 30 30   0000000000000000
0370 : 00 01 00 00 00 00 00 00  00 00 00 00 00 00 00 00   ................

Dat:

<rom name="Jet Li - Rise to Honor (USA) (Demo).iso" size="1593409536" crc="ff1d94c1" md5="f1fb72eac149ea61a2abeef430ee3a4f" sha1="f0cb67797fa450053a426dee8902a9381abd35ff" />

5

(2 replies, posted in Dumps)

Fatty Bear's Birthday Surprise (USA) http://redump.org/disc/2000/

Title: Fatty Bear's Birthday Surprise
Disc Number/Letter: N/A
Disc Title: N/A
Category: Games
Region: USA
Languages: English
Serial: 
Mastering Ring: CQ 6923 SRCR**01
Mastering SID Code: 
Mould Sid Code: 
Toolstamp or Mastering Code: M1S1
Barcode: 
Errors Count: 0
Comments: N/A
Contents: N/A
Version: 
Edition/Release: Original
Copy Protection: N/A

Cuesheet:

CATALOG 0000000000000
FILE "Fatty Bear's Birthday Surprise (USA).bin" BINARY
  TRACK 01 MODE1/2352
    INDEX 01 00:00:00

Write Offset: 0

Dat:

<rom name="Fatty Bear's Birthday Surprise (USA).bin" size="97048224" crc="5be08d03" md5="32e1eab392c0c8f38b8bd245bcb62f5d" sha1="172f03f611746d5a8c6afa96d79ea0094c9c04c1" />

Putt-Putt Joins the Parade (USA) http://redump.org/disc/50670/

Title: Putt-Putt Joins the Parade
Disc Number/Letter: N/A
Disc Title: N/A
Category: Educational
Region: USA
Languages: English
Serial: 
Mastering Ring: Allied Record Company    A905 CQ 6922-2 R7O
Mastering SID Code: 
Mould Sid Code: 
Toolstamp or Mastering Code: ARC    *M1    S2
Barcode: 
Errors Count: 0
Comments: N/A
Contents: N/A
Version: 
Edition/Release: For Demo Use Only
Copy Protection: N/A

Cuesheet:

CATALOG 0000000000000
FILE "Putt-Putt Joins the Parade (USA) (Demo).bin" BINARY
  TRACK 01 MODE1/2352
    INDEX 01 00:00:00

Write Offset: 222

Dat:

<rom name="Putt-Putt Joins the Parade (USA) (Demo).bin" size="96695424" crc="64bf7518" md5="e33ca2a044a56ec8c86185cac4646a16" sha1="92c542f0179109dce606ceb7eaf64f58a2a759dd" />

6

(1,440 replies, posted in General discussion)

I have one possible suggestion: Every time my drive overheats, it starts throwing the "COMM" errors, which are hardware issues. If at all possible, can those be treated like C2 errors? I'd like for those sectors to be rescanned at the end just like that, since right now, if my drive decides to crap out like that in the middle of a dump, I have to stop it and start all over, since it won't be caught as an error until the very end.

7

(1 replies, posted in Fixes & additions)

From my submission of Riven (5-CD), the middle 3 CDs below don't have another (USA)-only version, so I'm proposing the following renames:

http://redump.org/disc/43319/ -> Riven - The Sequel to Myst (USA) (Disc 2)
http://redump.org/disc/43318/ -> Riven - The Sequel to Myst (USA) (Disc 3)
http://redump.org/disc/43317/ -> Riven - The Sequel to Myst (USA) (Disc 4)

8

(1,440 replies, posted in General discussion)

sarami wrote:

Fixed.

Confirmed fixed on my end. Thank you very much sarami!

9

(1,440 replies, posted in General discussion)

sarami wrote:

It looks like that the directory size of the 200204 is incorrect because 1st directory record of the next sector shows current directory. Please try the latest test version.

Running the newest version, it gets to the same "Reading DirectoryRecord 34/ 68" and just cycles forever. It appears to be using both CPU and a lot of hard drive time. I left it running for about 15 minutes at that state, and managed to create a 19.5GB text file for "SimCity 3000 (USA)_volDesc.txt". Using glogg to open it, the last few billion lines (slight hyperbole) they all say the same thing:

Direcory record size of the prev sector maybe incorrect. Skip reading this sector
========== LBA[200205, 0x30e0d]: Directory Record ==========

I can't exactly compress this in a reasonable way and upload unfortunately.

10

(1,440 replies, posted in General discussion)

Unfortunately, most of the logs didn't actually write out with this error, so I should have just attached the minimal set the first time... But what I got out of it, is attached here. The disc dump (that is clean) doesn't match either of the 2 existing ones, sadly, so I can't use them as baselines to compare against.

And the other issue has been partially fixed, though my drive still acts weird with that disc from time to time. I'm chalking it up to hardware issues since this thing is prone to overheating.

11

(1,440 replies, posted in General discussion)

Preface: I searched the forum for similar issues, finding something else that had been already fixed back in 2015. I've also tried a second drive to test if the disc was bad and I've made sure that there are no scratches. I have additionally tried multiple versions of DIC including a couple ancient ones that I got my hands on, all with the same (or similar) results.

With that out of the way, I'm running into an odd issue where the disc I'm dumping fails at the Reading DirectoryRecord phase. As far as I am aware, there is no copy protection on this disc that could be causing an issue. Below is the output that I am getting. Additional logs are available on request.

OS
        Windows 8 Professional  64bit
AppVersion
        x86, AnsiBuild, Oct  2 2017 21:36:02
/sf val is omitted. set [60]
/c2 val2 is omitted. set [4096]
/c2 val3 is omitted. set [4]
CurrentDirectory
        C:\Plextor
WorkingPath
         Argument: SimCity 3000 (USA).bin
         FullPath: C:\Plextor\SimCity 3000 (USA)
            Drive: C:
        Directory: \Plextor\
         Filename: SimCity 3000 (USA)
        Extension: .bin
Start time: 2017-10-04(Wed) 21:44:41
Set the drive speed: 54563KB/sec
Allocating packed memory for C2 errors: 8192
This drive supports [OpCode: 0xd8, SubCode: 0]
This drive supports [OpCode: 0xd8, SubCode: 1]
This drive supports [OpCode: 0xd8, SubCode: 2]
This drive supports [OpCode: 0xd8, SubCode: 3]
This drive supports [OpCode: 0xd8, SubCode: 8]
Checking reading lead-out -> OK
Checking SubQ adr (Track)  1/ 1
Checking SubRtoW (Track)  1/ 1
Reading DirectoryRecord   34/  68

Thanks in advance for any pointers.

12

(1,440 replies, posted in General discussion)

Ah interesting. Never ran into this before, so thank you for the second link. I will try the power cycle multiple times and see if that works. I had only let it reset once between attempts.

13

(1,440 replies, posted in General discussion)

So... this is possibly the weirdest issue I've run into so far. With the last few builds, there is a single CD game of mine that will get to about 56000 sectors and then the drive pauses and then reboots. When the drive comes back, it doesn't recognize there's a CD inside anymore.

The reason that I'm even posting this here is that I have NOT had this issue (same drive, for clarity) with either IsoBuster or ImgBurn. I can attach the logs, if those would be helpful, but I was wondering if anybody else ran into this before and if there is any ways to get around this.

14

(1,440 replies, posted in General discussion)

It took me a while to get back to this. The DVD does appear to have an error ripping with another tool at the exact same sector. I double checked and the disc doesn't have any issues on the surface and nothing appears to be see-through. I'll try the newest DIC anyway, just in case.

15

(1,440 replies, posted in General discussion)

Hey again, I'm trying to dump a DVD game on my drive, and I'm running into an error that I have not been able to get past. For reference, I tried 2 different DVD-capable drives.

LBA[2075360, 0x1faae0]: [F:ReadDVD][L:131]
    Opcode: 0xa8
    ScsiStatus: 0x02 = CHECK_CONDITION
    SenseData Key-Asc-Ascq: 03-11-05 = MEDIUM_ERROR - L-EC UNCORRECTABLE ERROR

I did think at first that it was related to it being a DVD-9 but the sector it stops on is not the same as the layerbreak sector (2084960). If there's something I'm missing or need to attach, please tell me. Thanks in advance!

16

(1,440 replies, posted in General discussion)

Thanks sarami! That seems to have worked smile Not that I know what you fixed tongue

17

(1,440 replies, posted in General discussion)

Hey again, I have a bit of an odd issue with a no-scratches OEM disc (IBM-PC). I've tried reattaching my drive multiple times and even tried ripping the disc with another program (which succeeded). Below is the error that it throws after it enumerates the tracks and checks the EXEs:

LBA[299337, 0x49149]: [F:ReadCDForVolumeDescriptor][L:1120]
    OpCode: 0xa8
    ScsiStatus: 0x02 = CHECK_CONDITION
    SenseData Key-Asc-Ascq: 03-02-82 = MEDIUM_ERROR - OTHER
lpCmd: a8, 00, 00, 04, 91, 49, 00, 00, 00, 01, 00, 00
dwBufSize: 2048

Other output files available if they're needed.

18

(1,440 replies, posted in General discussion)

You were right by that, sarami. The disc is dumping perfectly now. Looks like it was only a 6MB disc, so I can see why it might have had issues.

19

(1,440 replies, posted in General discussion)

I have a bit of a weird error when trying to dump a really small Shareware disc:

LBA[005000, 0x01388]: [F:ReadCDAll][L:2013]
    Opcode: 0xd8
    ScsiStatus: 0x02 = CHECK_CONDITION
    SenseData Key-Asc-Ascq: 05-21-00 = ILLEGAL_REQUEST - LOGICAL BLOCK ADDRESS OUT OF RANGE
lpCmd: d8, 00, 00, 00, 13, 88, 00, 00, 00, 01, 08, 00
dwBufSize: 2742

I'm not quite sure what it means by this, but I have attached the rest of the logs in case they will help.

20

(24 replies, posted in General discussion)

ssjkakaroto: Have you considered using gBurner Virtual Drive? I have had no issues mounting multi-track discs by using the CUE to mount it.

21

(2 replies, posted in General discussion)

A dump using Alcohol 120% is not valid to be added to Redump. Please see the Disc Image Creator thread here for more details about the drives and program that you need to use. If you have any questions about those, feel free to post any questions.

22

(1,440 replies, posted in General discussion)

Adding the /s 2 option seems to have fixed any errors that arose. I will keep that in mind in the future. Thanks!

23

(1,440 replies, posted in General discussion)

Hey, I'm running into a weird issue with the newest version of DIC as described here. Here is a link to the DIC log files and info from the rip: https://mega.nz/#F!YE1XWawY!B10c28Ug_3-LEPCa89xPiQ If necessary, I will upload both versions of the rip to the same folder.

Thanks in advance.

24

(4 replies, posted in General discussion)

Okay, I'll post on the DIC thread.

25

(4 replies, posted in General discussion)

Is there any suggestion as to which version of the dump I should submit? As I think I mentioned, a second dump produced identical results. The sub version seems "most correct" error-wise, though I have not verified that both work identically on install or anything of the sort.