It works now without chanege the registry keys, thanks a lot.

The last build of MPF I can use under Windows7 64bit was

MPF_3.1.2-net8.0_win-x64

still thanks for all staff here.

http://redump.org/disc/13297/

Common Disc Info:
    Title: Soulcalibur IV
    Foreign Title (Non-latin): ソウルキャリバーIV
    Disc Number / Letter: 
    Disc Title: 
    System: Microsoft Xbox360
    Media Type: DVD-9
    Category: Games
    Region: Japan
    Languages: English, Japanese
    Serial: NM-2016
    Edition: Original
    Layerbreak: 1913760 (default)

    Ringcode Information:

Data Side Mastering Code (laser branded/etched): 5C4BB2D4-L0 1E
Data Side Mastering SID Code: IFPI LB25


Data Side Mastering Code (laser branded/etched): 5C4BB2D4-L1 1A
Data Side Mastering SID Code: IFPI LB25


    Barcode: 4 988648 611269

    Comments:

XeMID: NM201602W0X11
DMI: c70c7248
PFI: a4cfb59c
SSv1: c51fe816

Hologram ID: ASP5281
Pack ID: DHC 00001

Microsoft  ID: 
0608 Part No. X14-92167-01(Disc), 0608 Part No. X14-92165-02(Pack), 0708 Part No. X14-92164-02(Manual), 0608 Part No. X15-00904-01(Enquête Card), 0608 Part No. X15-00908-01(Advertisement Card)



(OPTIONAL)

    Contents: (OPTIONAL)

Version and Editions:
    Version: (REQUIRED, IF EXISTS)
    Edition/Release: Original

Extras:
    Primary Volume Descriptor (PVD):

0320 : 20 20 20 20 20 20 20 20  20 20 20 20 20 32 30 30                200
0330 : 36 30 33 30 36 32 31 30  39 30 37 30 30 E0 30 30   6030621090700.00
0340 : 30 30 30 30 30 30 30 30  30 30 30 30 30 30 00 30   00000000000000.0
0350 : 30 30 30 30 30 30 30 30  30 30 30 30 30 30 30 00   000000000000000.
0360 : 30 30 30 30 30 30 30 30  30 30 30 30 30 30 30 30   0000000000000000
0370 : 00 01 00 00 00 00 00 00  00 00 00 00 00 00 00 00   ................


Copy Protection:

SS:
108976-113071
3719856-3723951

Size & Checksum:
    Size: 7835492352
    CRC32: 06ba768b
    MD5: 0e2e1c7eb325b12861e3a6782e89bed8
    SHA1: 24332c341809e9866444d053ae14a9146488e91f

logs
https://mega.nz/file/ogg3UKqb#dmbGmOSTH … Glguw3im78

http://redump.org/disc/69679/

Common Disc Info:
    Title: Gears of War: Judgment
    Foreign Title (Non-latin): ギアーズオブウォー:ジャッジメント
    Disc Number / Letter: 
    Disc Title: 
    System: Microsoft Xbox360
    Media Type: DVD-9
    Category: Games
    Region: Japan
    Languages: English, Japanese
    Serial: MS-2598
    Edition: Original
    Layerbreak: 2133520 (default)

    Ringcode Information:

Data Side Mastering Code (laser branded/etched): 4AF734C4-L0 1C
Data Side Mastering SID Code: IFPI LB25
Data Side Mould SID Code: IFPI 4K4E

Data Side Mastering Code (laser branded/etched): 4AF734C4-L1 1C
Data Side Mastering SID Code: IFPI LB25

Label Side Mould SID Code: IFPI 4K42

    Barcode: 4 988648 917774

    Comments:

XeMID: MS259802W05F11
DMI: 036b17c6
PFI: 26af4c58
SSv2: 1397440e

Hologram ID: ASP52YJ
Pack ID: K7L 00026

Microsoft  ID: 
X18-76763-01(Disc), Part No. X18-81250-01(Pack), Part No. X16-92624-03(Enquête Card), Part No. X18-80374-01(DLC Card), Part No. X18-76760-01(Game on Demand Card), Part No. X18-81251-01(Xbox Golden Member Card)


(OPTIONAL)

    Contents: (OPTIONAL)

Version and Editions:
    Version: (REQUIRED, IF EXISTS)
    Edition/Release: Xbox LIVE Gold Membership Donkonban

Extras:
    Primary Volume Descriptor (PVD):

0320 : 20 20 20 20 20 20 20 20  20 20 20 20 20 32 30 31                201
0330 : 33 30 31 32 39 31 36 30  30 30 30 30 30 E0 30 30   3012916000000.00
0340 : 30 30 30 30 30 30 30 30  30 30 30 30 30 30 00 30   00000000000000.0
0350 : 30 30 30 30 30 30 30 30  30 30 30 30 30 30 30 00   000000000000000.
0360 : 30 30 30 30 30 30 30 30  30 30 30 30 30 30 30 30   0000000000000000
0370 : 00 01 00 00 00 00 00 00  00 00 00 00 00 00 00 00   ................


Copy Protection:

SS:
12544-16639
4246304-4250399

Size & Checksum:
    Size: 8738846720
    CRC32: 643c0037
    MD5: 963626fb6439b9c08e0c96bbdd0dfbbc
    SHA1: ed1406bf657372f40708f42658b502d46fb72bb2

logs
https://mega.nz/file/0xgWWCSA#BajklF_QP … XWjotaja-c

Dead Rising 2: Off the Record

Common Disc Info:
    Title: Dead Rising 2: Off the Record
    Foreign Title (Non-latin): デッドライジング2オフ・ザ・レコード
    Disc Number / Letter: 
    Disc Title: 
    System: Microsoft Xbox360
    Media Type: DVD-9
    Category: Games
    Region: Japan
    Languages: English, French, Italian, Japanese, Korean, Spanish
    Serial: CC-2079
    Edition: Original
    Layerbreak: 1913760 (default)

    Ringcode Information:

Data Side Mastering Code (laser branded/etched): 1462756C-L0 01
Data Side Mastering SID Code: IFPI L270
Data Side Mould SID Code: IFPI 44C2

Data Side Mastering Code (laser branded/etched): 1462756C-L1 01
Data Side Mastering SID Code: IFPI L270

Label Side Mould SID Code: IFPI 44B4

    Barcode: 4 976219 040082

    Comments:

XeMID: CC207901W02X11
DMI: da5efa64
PFI: 40dcb18f
SSv1: 53959261

Hologram ID: ASP0881
Pack ID: JES1 00172

[T:G]Zombie Paradise Action (ゾンビパラダイスアクション)

(OPTIONAL)

    Contents: (OPTIONAL)

Version and Editions:
    Version: (REQUIRED, IF EXISTS)
    Edition/Release: Original

Extras:
    Primary Volume Descriptor (PVD):

0320 : 20 20 20 20 20 20 20 20  20 20 20 20 20 32 30 31                201
0330 : 31 30 37 31 32 31 37 30  30 30 30 30 30 E4 30 30   1071217000000.00
0340 : 30 30 30 30 30 30 30 30  30 30 30 30 30 30 00 30   00000000000000.0
0350 : 30 30 30 30 30 30 30 30  30 30 30 30 30 30 30 00   000000000000000.
0360 : 30 30 30 30 30 30 30 30  30 30 30 30 30 30 30 30   0000000000000000
0370 : 00 01 00 00 00 00 00 00  00 00 00 00 00 00 00 00   ................


Copy Protection:

SS:
108976-113071
3719872-3723967


Size & Checksum:
    Size: 7838695424
    CRC32: da2d2fde
    MD5: dcb8069d6b6993b5126c6441017367a3
    SHA1: 656dcf42b860126ec9f81a27e3ea903aa9aacb53

logs
https://mega.nz/file/Y9QDnBwY#g57jE78UA … pURVUqs7ig

http://redump.org/disc/21444/

Common Disc Info:
    Title: Akai Katana Shin
    Foreign Title (Non-latin): 赤い刀真
    Disc Number / Letter: 
    Disc Title: 
    System: Microsoft Xbox360
    Media Type: DVD-9
    Category: Games
    Region: Japan
    Languages: Japanese
    Serial: CZ-2013
    Edition: Original
    Layerbreak: 1913760 (default)

    Ringcode Information:

Data Side Mastering Code (laser branded/etched): 3BA10CD3-L0 1B
Data Side Mastering SID Code: IFPI L270
Data Side Mould SID Code: IFPI 4K43

Data Side Mastering Code (laser branded/etched): 3BA10CD3-L1 1B
Data Side Mastering SID Code: IFPI L270

Label Side Mould SID Code: IFPI 4K41

    Barcode: 4 988648 795815

    Comments:

XeMID: CZ201301J03X11
DMI: 5acf7f94
PFI: e18bc70b
SSv1: 7b34a5b9

Hologram ID: ASP5281
Pack ID: 7XJ 00001

Microsoft  ID: 
Part No. X17-45927-01(Disc), Part No. X17-45924-01(Manual), Part No. X17-45925-01(Pack), Part No. X17-52937-01(DLC Card)


(OPTIONAL)

    Contents: (OPTIONAL)

Version and Editions:
    Version: (REQUIRED, IF EXISTS)
    Edition/Release: Original

Extras:
    Primary Volume Descriptor (PVD):

0320 : 20 20 20 20 20 20 20 20  20 20 20 20 20 32 30 31                201
0330 : 31 30 31 31 38 31 36 30  30 30 30 30 30 E0 30 30   1011816000000.00
0340 : 30 30 30 30 30 30 30 30  30 30 30 30 30 30 00 30   00000000000000.0
0350 : 30 30 30 30 30 30 30 30  30 30 30 30 30 30 30 00   000000000000000.
0360 : 30 30 30 30 30 30 30 30  30 30 30 30 30 30 30 30   0000000000000000
0370 : 00 01 00 00 00 00 00 00  00 00 00 00 00 00 00 00   ................


Copy Protection:

SS:
108976-113071
3719872-3723967


Size & Checksum:
    Size: 7838695424
    CRC32: 316b8cdb
    MD5: 92f519be4a6d0df29405495946fb03c1
    SHA1: eeb6a61dab42f4a8d91df909505579f521a405fd

logs
https://mega.nz/file/MhRkWSRa#OSRNdu_6S … 93wIhmgDe8

http://redump.org/disc/22987/

    Common Disc Info:
        Title: Tom Clancy's Splinter Cell
        Foreign Title (Non-latin): 縱橫諜海
        Disc Number / Letter: (OPTIONAL)
        Disc Title: (OPTIONAL)
        System: Microsoft Xbox
        Media Type: DVD-9
        Category: Games
        Region:
        Languages: Asia
        Serial: US-012
        Layerbreak: 1913776 (default)

        Ringcode Information:

    Data Side Mastering Code (laser branded/etched): US01203J-L0<Tab>1A
    Data Side Mastering SID Code: IFPI LB23


    Data Side Mastering Code (laser branded/etched): US01203J-L1<Tab>1B
    Data Side Mastering SID Code: IFPI LB23

        Barcode: 8 23162 00005 9
        Comments:

    DMI: 33385816
    PFI: 8fc52135
    SS: 998765d1

    (OPTIONAL)

        Contents: (OPTIONAL)

    Version and Editions:
        Version: (REQUIRED, IF EXISTS)
        Edition/Release: Original

    Extras:
        Primary Volume Descriptor (PVD):

    Copy Protection:

    Size & Checksum:
        Size: 7825162240
        CRC32: 128826bf
        MD5: 3981e6d1331837623564c0a17f35d5da
        SHA1: 835195e261930f512a3f6c305429da4905480276

logs
https://mega.nz/file/wgBXCATY#LPlJ-eHRh … gkKacK3n8o

http://redump.org/disc/82676/

Common Disc Info:
    Title: Medal of Honor: Airborne
    Foreign Title (Non-latin): 榮譽勳章:空降神兵
    Disc Number / Letter: (OPTIONAL)
    Disc Title: (OPTIONAL)
    System: IBM PC compatible
    Media Type: DVD-ROM-9
    Category: Games
    Region: Taiwan
    Languages: Chinese, English
    Disc Serial: 1528407

    Ringcode Information:

Layer 0 (Inner) Mastering Code (laser branded/etched): 15284LTW-DVD9-L0<Tab>(IH231B)
Layer 0 (Inner) Mastering SID Code: IFPILB25
Layer 0 (Inner) Toolstamp or Mastering Code (engraved/stamped): (REQUIRED, IF EXISTS)
Data Side Mould SID Code: IFPI 3Z50
Data Side Additional Mould: (REQUIRED, IF EXISTS)
Layer 1 (Outer) Mastering Code (laser branded/etched): 15284LTW-DVD9-L1<Tab>(IH231B)
Layer 1 (Outer) Mastering SID Code: IFPILB25
Layer 1 (Outer) Toolstamp or Mastering Code (engraved/stamped): IFPI 3Z51
Label Side Mould SID Code: (REQUIRED, IF EXISTS)

    Barcode: 0 14633 15284 5
    Comments:

[T:VOL] Airborne
[T:ISBN] 0-7845-4136-1
(OPTIONAL)

    Contents: (OPTIONAL)

Version and Editions:
    Version: 
    Edition/Release: Original

Extras:
    Primary Volume Descriptor (PVD):

0320 : 00 00 00 00 00 00 00 00  00 00 00 00 00 00 00 00   ................
0330 : 00 00 00 00 00 00 00 00  00 00 00 00 00 00 00 00   ................
0340 : 00 00 00 00 00 00 00 00  00 00 00 00 00 00 00 00   ................
0350 : 00 00 00 00 00 00 00 00  00 00 00 00 00 00 00 00   ................
0360 : 00 00 00 00 00 00 00 00  00 00 00 00 00 00 00 00   ................
0370 : 00 00 00 00 00 00 00 00  00 00 00 00 00 00 00 00   ................

Copy Protection:
    Copy Protection: EA CdKey Registration Module 1.07.07.07, EA CdKey Registration Module 1.07.07.09

Size & Checksum:
    Layerbreak: 1648400
    Size: 6751846400
    CRC32: 8587bb0f
    MD5: 53836ee1524baf0e3148543287e152ad
    SHA1: 09d1bb38bb1adaa700f8a515fd7e1fc8b52940cb

Dumping Info:
    Dumping Program: DiscImageCreator 20240401
    Date: 2024-05-06 05:56:40
    Manufacturer: ATAPI
    Model: iHAS324    B
    Firmware: AL1B
    Reported Disc Type: DVD-ROM

logs
https://mega.nz/file/94wnjQwS#u9jaTmHS5 … d_MKrLDhd8

http://redump.org/disc/40043/

Common Disc Info:
    Title: Nobunaga no Yabou: Tenka Sousei with Power-Up Kit
    Foreign Title (Non-latin): 信長の野望天下創世withパワーアップキット
    Disc Number / Letter: (OPTIONAL)
    Disc Title: (OPTIONAL)
    System: Sony PlayStation 2
    Media Type: DVD-ROM-5
    Category: Games
    Region: Japan
    Languages: Japanese
    Disc Serial: SLPM 55232

    Ringcode Information:

Data Side Mastering Code (laser branded/etched): SLPM-65864<Tab>1
Data Side Mastering SID Code: (REQUIRED, IF EXISTS)
Data Side Toolstamp or Mastering Code (engraved/stamped): (REQUIRED, IF EXISTS)
Data Side Mould SID Code: 45T9
Data Side Additional Mould: (REQUIRED, IF EXISTS)
Label Side Mould SID Code: (REQUIRED, IF EXISTS)

    Barcode: 4 988615 032530
    EXE/Build Date: 2004-11-30
    Comments:

[T:ISN] SLPM-65864
(OPTIONAL)

    Contents: (OPTIONAL)

Version and Editions:
    Version: 1.01
    Edition/Release: Koei Teiban Series

Extras:
    Primary Volume Descriptor (PVD):

0320 : 20 20 20 20 20 20 20 20  20 20 20 20 20 32 30 30                200
0330 : 34 31 31 33 30 31 38 30  30 30 30 30 30 24 30 30   4113018000000$00
0340 : 30 30 30 30 30 30 30 30  30 30 30 30 30 30 00 30   00000000000000.0
0350 : 30 30 30 30 30 30 30 30  30 30 30 30 30 30 30 00   000000000000000.
0360 : 30 30 30 30 30 30 30 30  30 30 30 30 30 30 30 30   0000000000000000
0370 : 00 01 00 00 00 00 00 00  00 00 00 00 00 00 00 00   ................

Size & Checksum:
    Size: 2392555520
    CRC32: 4c7d6403
    MD5: b487e292ac842b6183981f11c6ca5df3
    SHA1: 15a07e996e0e94f9a4c88dd11944b96b7b9a73da

logs
https://mega.nz/file/h4hVEI5A#Ppv7tQYF9 … zb_Ld32NaY

10

(1 replies, posted in Verifications)

http://redump.org/disc/77570/

Common Disc Info:
    Title: Shenmue I & II
    Foreign Title (Non-latin): シェンムーI&II
    Disc Number / Letter: (OPTIONAL)
    Disc Title: (OPTIONAL)
    System: Sony PlayStation 4
    Media Type: BD-ROM-25
    Category: Games
    Region: Japan
    Languages: Japanese
    Disc Serial: HSN-0056

    Ringcode Information:

Data Side Mastering Code (laser branded/etched): PLJM-16225<Tab>1
Data Side Mastering SID Code: IFPI L279
Data Side Toolstamp or Mastering Code (engraved/stamped): 01
Data Side Mould SID Code: (REQUIRED, IF EXISTS)
Data Side Additional Mould: (REQUIRED, IF EXISTS)
Label Side Mould SID Code: 4535

    Barcode: 4 974365 824112
    Comments:

[T:ISN] CUSA12332
[T:VOL] SHENMUE
[T:G] Action Adventure (アクションアドベンチャー)
[T:JID]V-1801760SO
[T:JID]R-1870516MT
[T:SID]687-00628(Box), 687-00620(Disc), 687-00621(Guide), 687-00622(Package), 687-00623(Poster)
Geiteiban bundled with 2 Soundtrack CD

    Contents: (OPTIONAL)

Version and Editions:
    Version: 01.00
    Edition/Release: Genteiban

Extras:
    Primary Volume Descriptor (PVD):

0320 : 20 20 20 20 20 20 20 20  20 20 20 20 20 32 30 31                201
0330 : 38 30 36 30 34 31 32 33  30 34 31 30 30 00 30 30   8060412304100.00
0340 : 30 30 30 30 30 30 30 30  30 30 30 30 30 30 00 30   00000000000000.0
0350 : 30 30 30 30 30 30 30 30  30 30 30 30 30 30 30 00   000000000000000.
0360 : 30 30 30 30 30 30 30 30  30 30 30 30 30 30 30 30   0000000000000000
0370 : 00 01 00 00 00 00 00 00  00 00 00 00 00 00 00 00   ................

    Permanent Information & Control (PIC):

10020000444901080000200042444F01
110101000100000000CA721F00100000
00CA721E000000000000000000000000
00000000000000000000000000000000
00000000000000000000000000000000
00000000000000000000000000000000
00000000000000000000000000000000
00000000000000000000000000000000
00000000

Size & Checksum:
    Size: 25024331776
    CRC32: 4c3e4623
    MD5: d87b26cf189ebdd97dd97e142417c097
    SHA1: 96274981d1ad1b1cf255720803f48f7606c69a56

logs
https://mega.nz/file/I5JFgCRa#Aw3ouE62l … kXIIcnGLIc

http://redump.org/disc/113043/

Common Disc Info:
    Title: Fat Princess Adventures
    Foreign Title (Non-latin): 胖公主大冒險
    Disc Number / Letter: (OPTIONAL)
    Disc Title: (OPTIONAL)
    System: Sony PlayStation 4
    Media Type: BD-ROM-25
    Category: Games
    Region: Asia
    Languages: Chinese, English
    Disc Serial: PCAS 00047

    Ringcode Information:

Data Side Mastering Code (laser branded/etched): PCAS-00047<Tab>1
Data Side Mastering SID Code: IFPI L280
Data Side Toolstamp or Mastering Code (engraved/stamped): 02

Label Side Mould SID Code: 453R

    Barcode: 4 948872 832489
    Comments:

[T:ISN] CUSA01660
(OPTIONAL)

    Contents: (OPTIONAL)

Version and Editions:
    Version: 01.00
    Edition/Release: Original

Extras:
    Primary Volume Descriptor (PVD):

0320 : 20 20 20 20 20 20 20 20  20 20 20 20 20 32 30 31                201
0330 : 35 31 30 32 32 30 32 33  38 33 31 30 30 00 30 30   5102202383100.00
0340 : 30 30 30 30 30 30 30 30  30 30 30 30 30 30 00 30   00000000000000.0
0350 : 30 30 30 30 30 30 30 30  30 30 30 30 30 30 30 00   000000000000000.
0360 : 30 30 30 30 30 30 30 30  30 30 30 30 30 30 30 30   0000000000000000
0370 : 00 01 00 00 00 00 00 00  00 00 00 00 00 00 00 00   ................

    Permanent Information & Control (PIC):

10020000444901080000200042444F01
11010100010000000039AE7F00100000
0039AE7E000000000000000000000000
00000000000000000000000000000000
00000000000000000000000000000000
00000000000000000000000000000000
00000000000000000000000000000000
00000000000000000000000000000000
00000000

Size & Checksum:
    Size: 5594415104
    CRC32: 350c7848
    MD5: 885ae9957312a39ad2dd1de0ae1c870a
    SHA1: b241e6c8e91f74d7e6c154fb1256b033492045bb

https://mega.nz/file/wwIxGKKY#lrg3sR54n … qvDjaWErDg

http://redump.org/disc/3649/

Common Disc Info:
    Title: Mateki Densetsu Astralius
    Foreign Title (Non-latin): 魔笛伝説アストラリウス
    Disc Number / Letter: (OPTIONAL)
    Disc Title: (OPTIONAL)
    System: NEC PC Engine CD & TurboGrafx CD
    Media Type: CD-ROM
    Category: Games
    Region: Japan
    Languages: Japanese
    Disc Serial: AICD 0001

    Ringcode Information:

Data Side Mastering Code (laser branded/etched): FFTFTAI10423-8<Tab>R4Y9

    Barcode: (OPTIONAL)
    Error Count: 0
    Comments: (OPTIONAL)
    Contents: (OPTIONAL)

Version and Editions:
    Version: (REQUIRED, IF EXISTS)
    Edition/Release: Original

Extras:
    Primary Volume Descriptor (PVD): Disc has no PVD

Tracks and Write Offsets:
    DAT:

<rom name="Audio CD (Track 01).bin" size="7914480" crc="b979500c" md5="a25a2c129b7100092cc40e9b6e176a63" sha1="9ac3f1a11d434d186466917f1c7955bf7670c910" />
<rom name="Audio CD (Track 02).bin" size="30917040" crc="d0987d44" md5="775f4b99e21ce6dfc2f31726968a6116" sha1="36fb044a986f8ca8b590f8ed7669e0ca19ddac9a" />
<rom name="Audio CD (Track 03).bin" size="21523152" crc="0a60776e" md5="68686a9b7499f199a3320739af31586f" sha1="0dc70347d480f5411be35744c6b2a1a7e2ae50ea" />
<rom name="Audio CD (Track 04).bin" size="1048992" crc="6726aa1a" md5="c444c6a6718b8e4aff1c1c238acd5008" sha1="4f10bdd575d7ba0be0cae091cc3a7d63133f4715" />
<rom name="Audio CD (Track 05).bin" size="1394736" crc="078a1d56" md5="83875cea12919d5c31c1d70bb2787574" sha1="4a8d9f635c315b1ea72e258fb87dc33d6522f0b4" />
<rom name="Audio CD (Track 06).bin" size="1768704" crc="beb4ec2a" md5="ca1104f222917bc96914623d6d7a33a0" sha1="1fc331623d512e73182960f02147caab63b3ef06" />
<rom name="Audio CD (Track 07).bin" size="1422960" crc="958a5018" md5="9791884f50daee091f0afbe1236524b9" sha1="ff4e78e42f1b64cd1afd6798cd8f6d5111190656" />
<rom name="Audio CD (Track 08).bin" size="1131312" crc="e6115fc3" md5="595b7643c715c347475f3e0d4567ce80" sha1="54b769d88ad338b8d570dad595652cc6d3fd0d89" />
<rom name="Audio CD (Track 09).bin" size="990192" crc="d69e578f" md5="210a8e92ee1d165f04b9c34ae20a7ae9" sha1="3ba83d542a6208eb38d3d4749c2b2fc4318ae5ca" />
<rom name="Audio CD (Track 10).bin" size="1152480" crc="4071249c" md5="761f39b6c35634c25af407fb3596c7da" sha1="31b7ba0b414203f57ea71539dc6ffb12529c02be" />
<rom name="Audio CD (Track 11).bin" size="1237152" crc="f933640f" md5="6b2d09b1091eb94b0ab4ad2302dc7e8a" sha1="d79b3830079da732af8b1a0cfe60a3480d7ec391" />
<rom name="Audio CD (Track 12).bin" size="10205328" crc="945e2c05" md5="0350d2e9249de8b6ac6ec3f41ba2f349" sha1="542266f56c774211e2249bcca6026c256bb8851b" />
<rom name="Audio CD (Track 13).bin" size="20502384" crc="815cafcb" md5="e60f472f959c074cfd5fe8820476747f" sha1="0b7d8724941a31d9d6b4ec8ecf937a652d6d4f9c" />
<rom name="Audio CD (Track 14).bin" size="16019472" crc="8190a97b" md5="b10c4b7cb968e9c7c7e90438eb0f40f7" sha1="79f8e13552802b1d820c8b6006897962dde206e0" />
<rom name="Audio CD (Track 15).bin" size="23545872" crc="9194f96e" md5="915978126c2810faf85bdf3ce7128c98" sha1="69dc57e7e401d83696458521d30b4cb332e42e77" />
<rom name="Audio CD (Track 16).bin" size="23376528" crc="466402d9" md5="630d51c635b85724320954261b55e970" sha1="83e9399123277d6ecc860acd6c3cf8ce31351085" />
<rom name="Audio CD (Track 17).bin" size="13578096" crc="76e921e9" md5="896994271c32a1b692ab2488a183bbb0" sha1="ae5449e56277d4b396ae2fc3f256eb0db28fb07f" />
<rom name="Audio CD (Track 18).bin" size="20899872" crc="b7b5738b" md5="b8d5fd61a9b8134273064bc7f405a163" sha1="2ecdc53c1adc199982c3cfefc3de3cf367d3f5d1" />
<rom name="Audio CD (Track 19).bin" size="10569888" crc="bd7d1e7f" md5="b20173baea9029cd2399255f9b940177" sha1="5c5bbaea5b3e76e7587b8fbe80d10ebde8c57d00" />
<rom name="Audio CD (Track 20).bin" size="10174752" crc="a54baa8e" md5="6f5c5bb4260ce50234f08410fdd194ca" sha1="03311eeb3e2f9f6110f96dbcd4166f6b72c2f620" />
<rom name="Audio CD (Track 21).bin" size="15977136" crc="88e2959c" md5="493fc2c069b2307bf28503404219a512" sha1="12b2eb27b854175522e793d52df3f2a1d44c71a2" />
<rom name="Audio CD (Track 22).bin" size="19258176" crc="cf71323c" md5="054408caa875a041f78005cffcbd3906" sha1="b20680e823204d9be9f5663fa0b85acafb86df48" />
<rom name="Audio CD (Track 23).bin" size="15549072" crc="615a9c25" md5="e535b73963f96c16ab9eb94f5ceb31a8" sha1="4de14c3fa7c9b77a3fffcf98be7e866677cf710e" />
<rom name="Audio CD (Track 24).bin" size="21925344" crc="7825a6e1" md5="e8e6cd550e1892130587688924febf62" sha1="5120536fa28c9db6b6cb27616b070cc3f4d72d00" />
<rom name="Audio CD (Track 25).bin" size="2925888" crc="d3c3dd20" md5="b490c7a2351a4c523b2ffb028cfaf06c" sha1="5cb19d79ecfb42634a8a3c68973e86c5d63bfb6d" />
<rom name="Audio CD (Track 26).bin" size="1883952" crc="4076c3d5" md5="43048e433e2256d273375a05e2bb4f82" sha1="f33807095e37e54c8168c9088215e683817519b4" />
<rom name="Audio CD (Track 27).bin" size="8808240" crc="a27b7d53" md5="3c4db9e882154e1357a78ef1ed2d462b" sha1="0869388f4760dd6bf5bb6037a6ae6314f3c333c2" />
<rom name="Audio CD (Track 28).bin" size="13044192" crc="1d18ee02" md5="4a8a2dd2f43f81ca5043664d8edef20a" sha1="68fe1abc00053658680191da6de6e99a7309aa94" />
<rom name="Audio CD (Track 29).bin" size="4410000" crc="86a3cc57" md5="1f00dbcf084efe4982a0bedc3d8eba29" sha1="424427e800c22292a67ed1abfe524b47ac551bd7" />
<rom name="Audio CD (Track 30).bin" size="6898416" crc="dd30b55b" md5="e4479aa30077f7570bf72f943897393d" sha1="7201814e326ca6c241ef3633ff9d73b727eb6ccd" />
<rom name="Audio CD (Track 31).bin" size="6413904" crc="d467ce21" md5="d76c6fe17aef83d13693b6a16a4895c3" sha1="497a101dbd1b6f525cf24aa300805cba66221e3f" />
<rom name="Audio CD (Track 32).bin" size="10252368" crc="3fba6bc6" md5="b5c55b59606a3e8fe39c2d09675e2c00" sha1="ae4b7a5920d789905b6ec25a7657e8ca85a5dde4" />
<rom name="Audio CD (Track 33).bin" size="4929792" crc="c9f3060a" md5="46f22140dd70d4f6f10ee5efbe3cc9cc" sha1="0cc0ba42199235f6265be2d477afe2f5d8aa8b6a" />
<rom name="Audio CD (Track 34).bin" size="6089328" crc="70db362a" md5="045c6573fc93304e7c63ae2d8e604599" sha1="4cd9e5eae5beb3d1c4cfbce8a8c80e74c98c50eb" />
<rom name="Audio CD (Track 35).bin" size="11618880" crc="17e4d6d7" md5="9aedc8ef0cfde9f339946b32a2c8ae72" sha1="575f6e56982c09594e199cf770bf8ac4c0f8d471" />
<rom name="Audio CD (Track 36).bin" size="10734528" crc="f2c1553f" md5="f67978f05d141f4f36b14862eaeee1a4" sha1="35b18a170b8c2bd49133739288ed22fd25719dea" />
<rom name="Audio CD (Track 37).bin" size="5193216" crc="0a64c227" md5="cb8842e17fc53f19e2a66c1c5fb17d84" sha1="43828dbdea5dab82c58bd51e434fea4cf6422b15" />
<rom name="Audio CD (Track 38).bin" size="6590304" crc="9680367f" md5="f9b3c0f884eea46da142f969804ac60d" sha1="da46fa1b7a96fa7b223d38879587f99d61503439" />
<rom name="Audio CD (Track 39).bin" size="6308064" crc="fc5de479" md5="19bbf18c2c074b48d2ef59f548c99bda" sha1="24310954fa1172389e4bb9b566b1144cdd9e12f6" />
<rom name="Audio CD (Track 40).bin" size="9741984" crc="070a3bea" md5="1b3f6db9a1590e954ce5e319eab7b728" sha1="b021bd86980a96d14305bdfc0626f177b870e26b" />
<rom name="Audio CD (Track 41).bin" size="9478560" crc="6c9e0616" md5="488277e73c77f3c8cbf9d3e126b470e6" sha1="a833a7887ae73c1e36806c49bdd200c0770d66d1" />
<rom name="Audio CD (Track 42).bin" size="9824304" crc="7daed083" md5="92beb75d8bb71580c9a0c520386847e0" sha1="e5da74151587c9d0944a80aadb71191938ba4b2e" />
<rom name="Audio CD (Track 43).bin" size="8034432" crc="c5a7e0f2" md5="df6355851bd6a5b85943966a2eef44e9" sha1="7bb65156aec1bf1e82ebdb967ba78e9ba46985a3" />
<rom name="Audio CD (Track 44).bin" size="9469152" crc="627ea941" md5="6e10597f479e43f2b2666ec22ee4ed3e" sha1="9a50edb0cc08f88271f05455eb0b35c722e023bf" />
<rom name="Audio CD (Track 45).bin" size="17677632" crc="2a965738" md5="ad72da7f75a229c4697b54d42d9fe22a" sha1="350caf1c883c5e7fccf7895f92ac3a095defa88a" />
<rom name="Audio CD (Track 46).bin" size="30712416" crc="a60adb0e" md5="559261656969f6f4cc24616ff90f30b9" sha1="5d98ae8118185d6e6a6b95f8368f4233b74d6d28" />
<rom name="Audio CD (Track 47).bin" size="7876848" crc="73c628ff" md5="fd259f4767c80ac3d7137131877bc70e" sha1="8b672695fcc3f02e9f1f2ff081be469cb6c59041" />

    Cuesheet:

CATALOG 0000000000000
FILE "Audio CD (Track 01).bin" BINARY
  TRACK 01 AUDIO
    INDEX 01 00:00:00
FILE "Audio CD (Track 02).bin" BINARY
  TRACK 02 MODE1/2352
    INDEX 00 00:00:00
    INDEX 01 00:03:00
FILE "Audio CD (Track 03).bin" BINARY
  TRACK 03 AUDIO
    INDEX 00 00:00:00
    INDEX 01 00:02:00
FILE "Audio CD (Track 04).bin" BINARY
  TRACK 04 AUDIO
    INDEX 01 00:00:00
FILE "Audio CD (Track 05).bin" BINARY
  TRACK 05 AUDIO
    INDEX 01 00:00:00
FILE "Audio CD (Track 06).bin" BINARY
  TRACK 06 AUDIO
    INDEX 01 00:00:00
FILE "Audio CD (Track 07).bin" BINARY
  TRACK 07 AUDIO
    INDEX 01 00:00:00
FILE "Audio CD (Track 08).bin" BINARY
  TRACK 08 AUDIO
    INDEX 01 00:00:00
FILE "Audio CD (Track 09).bin" BINARY
  TRACK 09 AUDIO
    INDEX 01 00:00:00
FILE "Audio CD (Track 10).bin" BINARY
  TRACK 10 AUDIO
    INDEX 01 00:00:00
FILE "Audio CD (Track 11).bin" BINARY
  TRACK 11 AUDIO
    INDEX 01 00:00:00
FILE "Audio CD (Track 12).bin" BINARY
  TRACK 12 AUDIO
    INDEX 01 00:00:00
FILE "Audio CD (Track 13).bin" BINARY
  TRACK 13 AUDIO
    INDEX 01 00:00:00
FILE "Audio CD (Track 14).bin" BINARY
  TRACK 14 AUDIO
    INDEX 01 00:00:00
FILE "Audio CD (Track 15).bin" BINARY
  TRACK 15 AUDIO
    INDEX 01 00:00:00
FILE "Audio CD (Track 16).bin" BINARY
  TRACK 16 AUDIO
    INDEX 01 00:00:00
FILE "Audio CD (Track 17).bin" BINARY
  TRACK 17 AUDIO
    INDEX 01 00:00:00
FILE "Audio CD (Track 18).bin" BINARY
  TRACK 18 AUDIO
    INDEX 01 00:00:00
FILE "Audio CD (Track 19).bin" BINARY
  TRACK 19 AUDIO
    INDEX 01 00:00:00
FILE "Audio CD (Track 20).bin" BINARY
  TRACK 20 AUDIO
    INDEX 01 00:00:00
FILE "Audio CD (Track 21).bin" BINARY
  TRACK 21 AUDIO
    INDEX 01 00:00:00
FILE "Audio CD (Track 22).bin" BINARY
  TRACK 22 AUDIO
    INDEX 01 00:00:00
FILE "Audio CD (Track 23).bin" BINARY
  TRACK 23 AUDIO
    INDEX 01 00:00:00
FILE "Audio CD (Track 24).bin" BINARY
  TRACK 24 AUDIO
    INDEX 01 00:00:00
FILE "Audio CD (Track 25).bin" BINARY
  TRACK 25 AUDIO
    INDEX 01 00:00:00
FILE "Audio CD (Track 26).bin" BINARY
  TRACK 26 AUDIO
    INDEX 01 00:00:00
FILE "Audio CD (Track 27).bin" BINARY
  TRACK 27 AUDIO
    INDEX 01 00:00:00
FILE "Audio CD (Track 28).bin" BINARY
  TRACK 28 AUDIO
    INDEX 01 00:00:00
FILE "Audio CD (Track 29).bin" BINARY
  TRACK 29 AUDIO
    INDEX 01 00:00:00
FILE "Audio CD (Track 30).bin" BINARY
  TRACK 30 AUDIO
    INDEX 01 00:00:00
FILE "Audio CD (Track 31).bin" BINARY
  TRACK 31 AUDIO
    INDEX 01 00:00:00
FILE "Audio CD (Track 32).bin" BINARY
  TRACK 32 AUDIO
    INDEX 01 00:00:00
FILE "Audio CD (Track 33).bin" BINARY
  TRACK 33 AUDIO
    INDEX 01 00:00:00
FILE "Audio CD (Track 34).bin" BINARY
  TRACK 34 AUDIO
    INDEX 01 00:00:00
FILE "Audio CD (Track 35).bin" BINARY
  TRACK 35 AUDIO
    INDEX 01 00:00:00
FILE "Audio CD (Track 36).bin" BINARY
  TRACK 36 AUDIO
    INDEX 01 00:00:00
FILE "Audio CD (Track 37).bin" BINARY
  TRACK 37 AUDIO
    INDEX 01 00:00:00
FILE "Audio CD (Track 38).bin" BINARY
  TRACK 38 AUDIO
    INDEX 01 00:00:00
FILE "Audio CD (Track 39).bin" BINARY
  TRACK 39 AUDIO
    INDEX 01 00:00:00
FILE "Audio CD (Track 40).bin" BINARY
  TRACK 40 AUDIO
    INDEX 01 00:00:00
FILE "Audio CD (Track 41).bin" BINARY
  TRACK 41 AUDIO
    INDEX 01 00:00:00
FILE "Audio CD (Track 42).bin" BINARY
  TRACK 42 AUDIO
    INDEX 01 00:00:00
FILE "Audio CD (Track 43).bin" BINARY
  TRACK 43 AUDIO
    INDEX 01 00:00:00
FILE "Audio CD (Track 44).bin" BINARY
  TRACK 44 AUDIO
    INDEX 01 00:00:00
FILE "Audio CD (Track 45).bin" BINARY
  TRACK 45 AUDIO
    INDEX 01 00:00:00
FILE "Audio CD (Track 46).bin" BINARY
  TRACK 46 AUDIO
    INDEX 01 00:00:00
FILE "Audio CD (Track 47).bin" BINARY
  TRACK 47 AUDIO
    INDEX 01 00:00:00

    Write Offset: -1505

logs
https://mega.nz/file/g5QngQKK#suGj7_H-H … 3jVCg-KpgY

13

(0 replies, posted in Verifications)

http://redump.org/disc/2594/

Common Disc Info:
    Title: Might and Magic
    Foreign Title (Non-latin): マイト・アンド・マジック
    Disc Number / Letter: (OPTIONAL)
    Disc Title: (OPTIONAL)
    System: NEC PC Engine CD & TurboGrafx CD
    Media Type: CD-ROM
    Category: Games
    Region: Japan
    Languages: Japanese
    Disc Serial: NAPR-1022

    Ringcode Information:

Data Side Mastering Code (laser branded/etched): TFTTFNA10221105-9<Tab>RAG4


    Barcode: 4 988041 700317
    Error Count: 0
    Comments: (OPTIONAL)
    Contents: (OPTIONAL)

Version and Editions:
    Version: (REQUIRED, IF EXISTS)
    Edition/Release: Original

Extras:
    Primary Volume Descriptor (PVD): Disc has no PVD

Tracks and Write Offsets:
    DAT:

<rom name="Audio CD (Track 01).bin" size="7914480" crc="b979500c" md5="a25a2c129b7100092cc40e9b6e176a63" sha1="9ac3f1a11d434d186466917f1c7955bf7670c910" />
<rom name="Audio CD (Track 02).bin" size="39497136" crc="8946b773" md5="bc9102287240880014c690770af7f36b" sha1="da49481c65a7ab29aa6181606f4056a3cee01f6f" />
<rom name="Audio CD (Track 03).bin" size="11734128" crc="215f819c" md5="40b60f71949b27e20b73f4c24e095ba7" sha1="e1749659d88c9f1d823f0275390a8876609172f2" />
<rom name="Audio CD (Track 04).bin" size="15516144" crc="0e44627f" md5="c7f52237e09532b9bac9af0d3c403d98" sha1="aecf959426cd757804c8ff51e9e1ed1ea8382483" />
<rom name="Audio CD (Track 05).bin" size="44184672" crc="ee627a90" md5="762641e8dd727b07ff2afcdd9329184f" sha1="e2626f8e90a10275a7bace7cca8ecf4240e87125" />
<rom name="Audio CD (Track 06).bin" size="41656272" crc="1106510f" md5="1366dfecbb9cf70d58999715631b87b3" sha1="4bba5de56c8ee990a1b3f3e821b31a1f2050184e" />
<rom name="Audio CD (Track 07).bin" size="37700208" crc="64f655ef" md5="d908d75fe8ca6ccaba73735d37e9e814" sha1="7caa06725fa0a21a9c72a1a76cd7d3f2785d0a70" />
<rom name="Audio CD (Track 08).bin" size="11409552" crc="1678fb94" md5="0dedc84b03ede2294aaf96fee12c6102" sha1="a3aac0c41429b379b614f28ff58cfe11d691cff9" />
<rom name="Audio CD (Track 09).bin" size="36209040" crc="b7805c58" md5="adb90185a0ada4448b04ff29f956458f" sha1="da931dcc9f439e7e28c4b693fff335afea88b38b" />
<rom name="Audio CD (Track 10).bin" size="754992" crc="d9dee9a0" md5="2f02483b6e3feb7e33cf8b081439896b" sha1="bf1b785e5c9500bb622054d674919300db52326f" />
<rom name="Audio CD (Track 11).bin" size="39151392" crc="e6af43ba" md5="769f6057d2c02fc96f2f7ce6db69c2cc" sha1="8e42384a5885e904bce12643292dad910402834d" />

    Cuesheet:

CATALOG 0000000000000
FILE "Audio CD (Track 01).bin" BINARY
  TRACK 01 AUDIO
    INDEX 01 00:00:00
FILE "Audio CD (Track 02).bin" BINARY
  TRACK 02 MODE1/2352
    INDEX 00 00:00:00
    INDEX 01 00:03:00
FILE "Audio CD (Track 03).bin" BINARY
  TRACK 03 AUDIO
    INDEX 00 00:00:00
    INDEX 01 00:02:00
FILE "Audio CD (Track 04).bin" BINARY
  TRACK 04 AUDIO
    INDEX 01 00:00:00
FILE "Audio CD (Track 05).bin" BINARY
  TRACK 05 AUDIO
    INDEX 01 00:00:00
FILE "Audio CD (Track 06).bin" BINARY
  TRACK 06 AUDIO
    INDEX 01 00:00:00
FILE "Audio CD (Track 07).bin" BINARY
  TRACK 07 AUDIO
    INDEX 01 00:00:00
FILE "Audio CD (Track 08).bin" BINARY
  TRACK 08 AUDIO
    INDEX 01 00:00:00
FILE "Audio CD (Track 09).bin" BINARY
  TRACK 09 AUDIO
    INDEX 01 00:00:00
FILE "Audio CD (Track 10).bin" BINARY
  TRACK 10 AUDIO
    INDEX 01 00:00:00
FILE "Audio CD (Track 11).bin" BINARY
  TRACK 11 MODE1/2352
    INDEX 00 00:00:00
    INDEX 01 00:03:00

    Write Offset: -1081

logs
https://mega.nz/file/J8ZinKTZ#_XzNziIoY … HioEiU4piU

http://redump.org/disc/91803/

Common Disc Info:
    Title: Angelic Vale: Nameless Brave Saga: Episode V: Roots of "Diabolic Embryo"
    Foreign Title (Non-latin): エンジェリック・ヴェール
    Disc Number / Letter: (OPTIONAL)
    Disc Title: (OPTIONAL)
    System: IBM PC compatible
    Media Type: CD-ROM
    Category: Games
    Region: Japan
    Languages: Japanese
    Disc Serial: EMW-4126

    Ringcode Information:

Data Side Mastering Code (laser branded/etched): EMW-4126<Tab>1
Data Side Mastering SID Code: IFPI L153

Data Side Mould SID Code: IFPI 28R0

    Barcode: 4 938833 012661
    Error Count: 0
    Comments:

[T:VOL] ANGELICVALE
(OPTIONAL)

    Contents: (OPTIONAL)

Version and Editions:
    Version: (REQUIRED, IF EXISTS)
    Edition/Release: Original

Extras:
    Primary Volume Descriptor (PVD):

0320 : 20 20 20 20 20 20 20 20  20 20 20 20 20 32 30 30                200
0330 : 33 30 32 32 37 30 39 33  35 35 36 30 30 24 32 30   3022709355600$20
0340 : 30 33 30 32 32 37 30 39  33 35 35 36 30 30 24 30   03022709355600$0
0350 : 30 30 30 30 30 30 30 30  30 30 30 30 30 30 30 00   000000000000000.
0360 : 30 30 30 30 30 30 30 30  30 30 30 30 30 30 30 30   0000000000000000
0370 : 00 01 00 00 00 00 00 00  00 00 00 00 00 00 00 00   ................

Copy Protection:
    Copy Protection: None found [OMIT FROM SUBMISSION]
    SubIntention Data (SecuROM/LibCrypt): 

Tracks and Write Offsets:
    DAT:

<rom name="ANGELICVALE.bin" size="511270704" crc="28d5e090" md5="eb8bfe944f9364c7c9a805b8f0c657ab" sha1="9e23a0c9c83c26858afe8d84790a128e6a407308" />

    Cuesheet:

FILE "ANGELICVALE.bin" BINARY
  TRACK 01 MODE1/2352
    INDEX 01 00:00:00

    Write Offset: -12

logs
https://mega.nz/file/opwhjQQL#ooU6h0qpf … 4GWmhxjOwM

http://redump.org/disc/102760/

Common Disc Info:
    Title: Saikyou Densetsu: Mahjong Haou 2: Kanzenban
    Foreign Title (Non-latin): 最強伝説麻雀覇王2-完全版-
    Disc Number / Letter: (OPTIONAL)
    Disc Title: (OPTIONAL)
    System: IBM PC compatible
    Media Type: CD-ROM
    Category: Games
    Region: Japan
    Languages: Japanese
    Disc Serial: MCM-0004

    Ringcode Information:

Data Side Mastering Code (laser branded/etched): TDE-2561M<Tab>CB0T4
Data Side Mastering SID Code: IFPI L441
Data Side Toolstamp or Mastering Code (engraved/stamped): (REQUIRED, IF EXISTS)
Data Side Mould SID Code: (REQUIRED, IF EXISTS)
Data Side Additional Mould: (REQUIRED, IF EXISTS)
Label Side Mould SID Code: (REQUIRED, IF EXISTS)

    Barcode: 4 938833 900166
    Error Count: 0
    Comments:

[T:VOL] HAOH2COMPLETE
[T:G] Mahjong (麻雀)

    Contents: (OPTIONAL)

Version and Editions:
    Version: 1.04
    Edition/Release: Best Selections

Extras:
    Primary Volume Descriptor (PVD):

0320 : 20 20 20 20 20 20 20 20  20 20 20 20 20 32 30 30                200
0330 : 32 31 31 30 35 31 37 33  36 34 36 34 35 24 30 30   2110517364645$00
0340 : 30 30 30 30 30 30 30 30  30 30 30 30 30 30 24 30   00000000000000$0
0350 : 30 30 30 30 30 30 30 30  30 30 30 30 30 30 30 24   000000000000000$
0360 : 30 30 30 30 30 30 30 30  30 30 30 30 30 30 30 30   0000000000000000
0370 : 24 01 00 00 00 00 00 00  00 00 00 00 00 00 00 00   $...............

Copy Protection:
    Copy Protection: None found [OMIT FROM SUBMISSION]
    SubIntention Data (SecuROM/LibCrypt):

Tracks and Write Offsets:
    DAT:

<rom name="HAOH2COMPLETE.bin" size="56198688" crc="44625585" md5="e812bc4fcd44664f606d3927b8863c12" sha1="fc12f8e77f07418c32696e70564e996fdffc4864" />

    Cuesheet:

CATALOG 0000000000000
FILE "HAOH2COMPLETE.bin" BINARY
  TRACK 01 MODE1/2352
    FLAGS DCP
    INDEX 01 00:00:00

    Write Offset: 0

logs
https://mega.nz/file/V5JHxJpI#7rUS7QyhQ … 6pF6Np_qCU

http://redump.org/disc/84545/

Common Disc Info:
    Title: Microsoft Flight Simulator 98
    Foreign Title (Non-latin): マイクロソフトフライトシミュレータ98
    Disc Number / Letter: (OPTIONAL)
    Disc Title: (OPTIONAL)
    System: IBM PC compatible
    Media Type: CD-ROM
    Category: Games
    Region: Japan
    Languages: Japanese
    Disc Serial: EMWB-7041

    Ringcode Information:

Data Side Mastering Code (laser branded/etched): EMWB-7041<Tab>03509-D
Data Side Mastering SID Code: IFPI LJ76
Data Side Toolstamp or Mastering Code (engraved/stamped): (REQUIRED, IF EXISTS)
Data Side Mould SID Code: IFPI 9907
Data Side Additional Mould: (REQUIRED, IF EXISTS)
Label Side Mould SID Code: (REQUIRED, IF EXISTS)

    Barcode: 4 938833 012760
    Error Count: 0
    Comments:

[T:VOL] FLTSIM98
[T:G] Flight Simulation (フライトシミュレーション)
ID: HIP (03.05) (Manual), EASQ 0306 (Enquête Card)
(OPTIONAL)

    Contents: (OPTIONAL)

Version and Editions:
    Version: (REQUIRED, IF EXISTS)
    Edition/Release: Best Selections

Extras:
    Primary Volume Descriptor (PVD):

0320 : 20 20 20 20 20 20 20 20  20 20 20 20 20 31 39 39                199
0330 : 37 30 39 32 36 32 32 30  35 30 36 00 00 04 31 39   70926220506...19
0340 : 39 37 30 39 32 36 32 32  30 35 30 36 00 00 04 32   970926220506...2
0350 : 39 39 37 30 39 32 36 32  32 30 35 30 36 00 00 04   9970926220506...
0360 : 31 39 39 37 30 39 32 36  32 32 30 35 30 36 00 00   19970926220506..
0370 : 04 01 00 00 00 00 00 00  00 00 00 00 00 00 00 00   ................

Copy Protection:
    Copy Protection: None found [OMIT FROM SUBMISSION]
    SubIntention Data (SecuROM/LibCrypt):

Tracks and Write Offsets:
    DAT:

<rom name="FLTSIM98.bin" size="604873248" crc="8df354f6" md5="17b039c304c10de78b8bc0fa5118bc35" sha1="6acd59f2eee129d78b78221dd2590aac6b24676f" />

    Cuesheet:

FILE "FLTSIM98.bin" BINARY
  TRACK 01 MODE1/2352
    INDEX 01 00:00:00

    Write Offset: -22

logs
https://mega.nz/file/d1Bzha6C#wgq5YVdXl … AMYsJk5IFc

17

(0 replies, posted in Verifications)

http://redump.org/disc/28055/

Common Disc Info:
    Title: NBA Live 2001
    Foreign Title (Non-latin): NBAライブ2001
    Disc Number / Letter: (OPTIONAL)
    Disc Title: (OPTIONAL)
    System: IBM PC compatible
    Media Type: CD-ROM
    Category: Games
    Region: Japan
    Languages: Japanese
    Disc Serial: EMWB-7059

    Ringcode Information:

Data Side Mastering Code (laser branded/etched): EMWB-7032<Tab>03227-F
Data Side Mastering SID Code: IFPI LJ76
Data Side Toolstamp or Mastering Code (engraved/stamped): (REQUIRED, IF EXISTS)
Data Side Mould SID Code: IFPI 9922
Data Side Additional Mould: (REQUIRED, IF EXISTS)
Label Side Mould SID Code: (REQUIRED, IF EXISTS)

    Barcode: 4 938833 013217
    Error Count: 582
    Comments:

[T:VOL] NBA LIVE PCCD
[T:G] Sports(Basketball) スポーツ(バスケットボール)
NBA Hologram ID: 553684922
(OPTIONAL)

    Contents: (OPTIONAL)

Version and Editions:
    Version: 1.0.0.1
    Edition/Release: EA Best Selections

Extras:
    Primary Volume Descriptor (PVD):

0320 : 20 20 20 20 20 20 20 20  20 20 20 20 20 32 30 30                200
0330 : 31 30 32 31 37 31 36 35  35 32 31 30 30 00 32 30   1021716552100.20
0340 : 30 31 30 32 31 37 31 36  35 35 32 31 30 30 00 30   01021716552100.0
0350 : 30 30 30 30 30 30 30 30  30 30 30 30 30 30 30 00   000000000000000.
0360 : 30 30 30 30 30 30 30 30  30 30 30 30 30 30 30 30   0000000000000000
0370 : 00 01 00 00 00 00 00 00  00 00 00 00 00 00 00 00   ................

Copy Protection:
    Copy Protection: EA CdKey Registration Module 2.0.0.2, SafeDisc 2.10.030

Tracks and Write Offsets:
    DAT:

<rom name="NBA LIVE PCCD.bin" size="739689888" crc="a743cc67" md5="2376f9138fad8e2b0259ec0fc7e7c0bb" sha1="304cb4fbae8b3166de2f4f2d76628583eaf83fe1" />

    Cuesheet:

FILE "NBA LIVE PCCD.bin" BINARY
  TRACK 01 MODE1/2352
    INDEX 01 00:00:00

    Write Offset: -12

logs
https://mega.nz/file/J5QhxboL#4kqKckS_F … nQDQLr4Snk

http://redump.org/disc/73389/

Common Disc Info:
    Title: Phantasy Star Online 2: Mini Sound Track
    Foreign Title (Non-latin): ファンタシースターオンライン2ミニサウントドラック
    Disc Number / Letter: (OPTIONAL)
    Disc Title: (OPTIONAL)
    System: Audio CD
    Media Type: CD-ROM
    Category: Audio
    Region: Japan
    Languages: Japanese
    Disc Serial: 673-05241

    Ringcode Information:

Data Side Mastering Code (laser branded/etched): HCJ-0427-02840 MT H03
Data Side Mastering SID Code: IFPI L267
Data Side Mould SID Code: IFPI 4498


    Barcode: 4 974365 204273
    Error Count: 0
    Comments:

<b>Universal Hash (SHA-1)</b>: 02b032ef7ce88d5880956b1e74387ac37649e46a
<b>Ring non-zero data start</b>: +23622
[T:SID] [T:SID]673-05241(Disc), 673-0883(Manual), 673-05242(Pack) ,HCJ-0427 673-05244, (Promo Card)

    Contents: (OPTIONAL)

Version and Editions:
    Version: (REQUIRED, IF EXISTS)
    Edition/Release: Add-on

Extras:
    Primary Volume Descriptor (PVD): Disc has no PVD

Tracks and Write Offsets:
    DAT:

<rom name="PS2M (Track 01).bin" size="13095936" crc="0faa7ee6" md5="e29e26d18894f7b14afc404aef577b96" sha1="86b6de0a5ffbe472f6939a741fe0fac92d3ae9dc" />
<rom name="PS2M (Track 02).bin" size="40550832" crc="16832ab5" md5="d3b7898cb1dd4bf17f0740492cbd27b6" sha1="91ea2e8d54a8950e9696c6359307644de0c2d9a7" />
<rom name="PS2M (Track 03).bin" size="35879760" crc="ea80ce18" md5="19837e3f14dd2148c8e5a4a2cfa2497d" sha1="e4815b785404621eb2af582d19b4a4e9c7120ff9" />
<rom name="PS2M (Track 04).bin" size="35120064" crc="777ba7ad" md5="98a9e0103dfd6c4bb58dd491ef3f3e60" sha1="68d98aea85724991feac1a01394d4ad6e39adf05" />
<rom name="PS2M (Track 05).bin" size="37185120" crc="6e6d7742" md5="d1d7d46414937a0f86bb0fd6d2e09306" sha1="6710b3e0840d65a706ebc072f685afdf0d58a9dc" />
<rom name="PS2M (Track 06).bin" size="32850384" crc="120333ec" md5="adfaf5e75a6f9d072c98b763d02db955" sha1="37335a051f4344713b5662352c217ab4aa284503" />
<rom name="PS2M (Track 07).bin" size="32608128" crc="f448c0f4" md5="94995053bd0f2189ab4dfe9d8a967980" sha1="59bf23215f51d9038120957a888dbf725c534b8d" />
<rom name="PS2M (Track 08).bin" size="36270192" crc="b2724d14" md5="efd8e7e001ceb018c966ae8a130bf0f5" sha1="3069ad08e48134ffe13c647e2b137f4eb6eaa2a0" />
<rom name="PS2M (Track 09).bin" size="36860544" crc="6efe098c" md5="ea0e01f79c25064ad1b1de8aacfea589" sha1="b2e6e5198de4733fd7b9033e854515134a5ef9a7" />
<rom name="PS2M (Track 10).bin" size="37521456" crc="530a05a7" md5="3164f39ffbe89f85084bbdb38751bf0e" sha1="4838618cdf3d66ffa03b19347687e80e60a1805d" />

    Cuesheet:

FILE "PS2M (Track 01).bin" BINARY
  TRACK 01 AUDIO
    INDEX 01 00:00:00
FILE "PS2M (Track 02).bin" BINARY
  TRACK 02 AUDIO
    INDEX 00 00:00:00
    INDEX 01 00:02:20
FILE "PS2M (Track 03).bin" BINARY
  TRACK 03 AUDIO
    INDEX 00 00:00:00
    INDEX 01 00:02:20
FILE "PS2M (Track 04).bin" BINARY
  TRACK 04 AUDIO
    INDEX 00 00:00:00
    INDEX 01 00:02:20
FILE "PS2M (Track 05).bin" BINARY
  TRACK 05 AUDIO
    INDEX 00 00:00:00
    INDEX 01 00:02:20
FILE "PS2M (Track 06).bin" BINARY
  TRACK 06 AUDIO
    INDEX 00 00:00:00
    INDEX 01 00:02:20
FILE "PS2M (Track 07).bin" BINARY
  TRACK 07 AUDIO
    INDEX 00 00:00:00
    INDEX 01 00:02:20
FILE "PS2M (Track 08).bin" BINARY
  TRACK 08 AUDIO
    INDEX 00 00:00:00
    INDEX 01 00:02:20
FILE "PS2M (Track 09).bin" BINARY
  TRACK 09 AUDIO
    INDEX 00 00:00:00
    INDEX 01 00:02:20
FILE "PS2M (Track 10).bin" BINARY
  TRACK 10 AUDIO
    INDEX 00 00:00:00
    INDEX 01 00:02:20

    Write Offset: 0

Dumping Info:
    Dumping Program: Redumper v2024.02.06 build_314
    Date: 2024-03-27 22:59:14
    Manufacturer: PLEXTOR
    Model: CD-R PX-W4012A
    Firmware: 1.07 (03/22/06 09:00)
    Reported Disc Type: CD-ROM

logs
https://mega.nz/file/A1glkDzb#HBi7vt1H7 … _THX1TB7II

http://redump.org/disc/73388/

Common Disc Info:
    Title: Phantasy Star Online 2: Premium Package Vol. 2
    Foreign Title (Non-latin): ファンタシースターオンライン2プレミアムパッケージvol.2
    Disc Number / Letter: 2
    Disc Title: (OPTIONAL)
    System: IBM PC compatible
    Media Type: DVD-ROM-9
    Category: Games
    Region: Japan
    Languages: Japanese
    Disc Serial: HCJ-0427

    Ringcode Information:

Layer 0 (Inner) Mastering Code (laser branded/etched): HCJ-0427-00478/0 MT C02
Layer 0 (Inner) Mastering SID Code:  IFPI L264
Layer 0 (Inner) Toolstamp or Mastering Code (engraved/stamped): (REQUIRED, IF EXISTS)
Data Side Mould SID Code:  IFPI 44E1

Layer 1 (Outer) Mastering Code (laser branded/etched): HCJ-0427-00478/1 MT C01
Layer 1 (Outer) Mastering SID Code:  IFPI L264
Layer 1 (Outer) Toolstamp or Mastering Code (engraved/stamped): (REQUIRED, IF EXISTS)
Label Side Mould SID Code:  IFPI 44B2

    Barcode: 4 974365 204273
    Comments:

[T:VOL] PSO2_PP2_DISC2
[T:SID]673-05240(Disc), 673-0883(Manual), 673-05242(Pack) ,HCJ-0427 673-05244, (Promo Card)

    Contents: (OPTIONAL)

Version and Editions:
    Version: 2.0
    Edition/Release: Original
Extras:
    Primary Volume Descriptor (PVD):

0320 : 20 20 20 20 20 20 20 20  20 20 20 20 20 32 30 31                201
0330 : 33 30 36 30 34 31 30 35  34 35 39 30 30 24 30 30   3060410545900$00
0340 : 30 30 30 30 30 30 30 30  30 30 30 30 30 30 00 30   00000000000000.0
0350 : 30 30 30 30 30 30 30 30  30 30 30 30 30 30 30 00   000000000000000.
0360 : 30 30 30 30 30 30 30 30  30 30 30 30 30 30 30 30   0000000000000000
0370 : 00 01 00 00 00 00 00 00  00 00 00 00 00 00 00 00   ................

Copy Protection:
    Copy Protection: None found [OMIT FROM SUBMISSION]
    SubIntention Data (SecuROM/LibCrypt):

Size & Checksum:
    Layerbreak: 1573136
    Size: 4782784512
    CRC32: a44d0c5e
    MD5: 917fbd7a8d84f55c197c25d9c61da8a1
    SHA1: f87c8a7ceb9e31a637b6d0be52065265a8c0b055

Dumping Info:
    Dumping Program: Redumper v2024.02.06 build_314
    Date: 2024-03-29 16:05:21
    Manufacturer: ATAPI
    Model: iHAS324 B
    Firmware: AL1B (2011/09/06 15:01)
    Reported Disc Type: DVD-ROM

logs
https://mega.nz/file/Z1hUVaDR#ZhFRH9CWO … XQ5MecTBRY

http://redump.org/disc/73387/

Common Disc Info:
    Title: Phantasy Star Online 2: Premium Package Vol. 2
    Foreign Title (Non-latin): ファンタシースターオンライン2プレミアムパッケージvol.2
    Disc Number / Letter: 1
    Disc Title: (OPTIONAL)
    System: IBM PC compatible
    Media Type: DVD-ROM-9
    Category: Games
    Region: Japan
    Languages: Japanese
    Disc Serial: HCJ-0427

    Ringcode Information:

Layer 0 (Inner) Mastering Code (laser branded/etched): HCJ-0427-00477/0 MT C02
Layer 0 (Inner) Mastering SID Code: IFPI L264
Layer 0 (Inner) Toolstamp or Mastering Code (engraved/stamped): (REQUIRED, IF EXISTS)
Data Side Mould SID Code: IFPI 44F1

Layer 1 (Outer) Mastering Code (laser branded/etched): HCJ-0427-00477/1 MT C02
Layer 1 (Outer) Mastering SID Code: IFPI L264
Layer 1 (Outer) Toolstamp or Mastering Code (engraved/stamped): T3FG
Label Side Mould SID Code: IFPI 44B2

    Barcode: 4 974365 204273
    Comments:

[T:VOL] PSO2_PP2_DISC1
[T:SID]673-05239(Disc), 673-0883(Manual), 673-05242(Pack) ,HCJ-0427 673-05244, (Promo Card)

    Contents: (OPTIONAL)

Version and Editions:
    Version: 2.0
    Edition/Release: Original

Extras:
    Primary Volume Descriptor (PVD):

0320 : 20 20 20 20 20 20 20 20  20 20 20 20 20 32 30 31                201
0330 : 33 30 36 30 33 32 30 31  37 35 32 30 30 24 30 30   3060320175200$00
0340 : 30 30 30 30 30 30 30 30  30 30 30 30 30 30 00 30   00000000000000.0
0350 : 30 30 30 30 30 30 30 30  30 30 30 30 30 30 30 00   000000000000000.
0360 : 30 30 30 30 30 30 30 30  30 30 30 30 30 30 30 30   0000000000000000
0370 : 00 01 00 00 00 00 00 00  00 00 00 00 00 00 00 00   ................

Copy Protection:
    Copy Protection: None found [OMIT FROM SUBMISSION]
    SubIntention Data (SecuROM/LibCrypt):

Size & Checksum:
    Layerbreak: 1573152
    Size: 6443073536
    CRC32: 3d6dc928
    MD5: 3c670d5ac51a1100b4ba4c0ce326e9db
    SHA1: fd0d9fb92423ef36e8c81c7bd02b55079f321531

Dumping Info:
    Dumping Program: Redumper v2024.02.06 build_314
    Date: 2024-03-29 15:27:41
    Manufacturer: ATAPI
    Model: iHAS324 B
    Firmware: AL1B (2011/09/06 15:01)
    Reported Disc Type: DVD-ROM

log
https://mega.nz/file/p55zyaQb#YCuEoMc93 … Q1VxPlaThE

http://redump.org/disc/104948/

All data matched except Edition, Barcode and Mould SID Code

Common Disc Info:
    Title: Melty Blood: Act Cadenza Ver. B
    Foreign Title (Non-latin): メルティブラッドアクトカデンツァVer.B
    Disc Number / Letter: (OPTIONAL)
    Disc Title: (OPTIONAL)
    System: IBM PC compatible
    Media Type: DVD-ROM-5
    Category: Games
    Region: Japan
    Languages: Japanese
    Disc Serial: (REQUIRED, IF EXISTS)

    Ringcode Information:

Data Side Mastering Code (laser branded/etched): ECMB011G YR706A
Data Side Mastering SID Code: IFPI L465
Data Side Toolstamp or Mastering Code (engraved/stamped): (REQUIRED, IF EXISTS)
Data Side Mould SID Code: IFPI L7862
Data Side Additional Mould: (REQUIRED, IF EXISTS)
Label Side Mould SID Code: (REQUIRED, IF EXISTS)

    Barcode: 4 512433 000150
    Comments:

[T:ALT] Through the Looking Glass, Northern Light transparently
[T:VOL] MBACverB
Shokai Geiten-ban bundle with Original Sound Tract 2CD

(OPTIONAL)

    Contents: (OPTIONAL)

Version and Editions:
    Version: (REQUIRED, IF EXISTS)
    Edition/Release: Shokai Geiten-ban

Extras:
    Primary Volume Descriptor (PVD):

0320 : 20 20 20 20 20 20 20 20  20 20 20 20 20 32 30 30                200
0330 : 37 30 37 30 35 31 34 32  35 34 37 30 30 00 00 00   7070514254700...
0340 : 00 00 00 00 00 00 00 00  00 00 00 00 00 00 00 00   ................
0350 : 00 00 00 00 00 00 00 00  00 00 00 00 00 00 00 00   ................
0360 : 00 00 00 00 00 00 00 00  00 00 00 00 00 00 00 00   ................
0370 : 00 01 00 00 00 00 00 00  00 00 00 00 00 00 00 00   ................

Copy Protection:
    Copy Protection: Alpha-ROM
    SubIntention Data (SecuROM/LibCrypt):

Size & Checksum:
    Size: 2533425152
    CRC32: f2a45326
    MD5: 6c30b93130944a582c0fc67d44d085bc
    SHA1: 06eb115327eb70fc503069a3466a47f8e3aca181

logs redumper
https://mega.nz/file/R0pgkSZR#SVLzOlqf4 … 0D2V-lPOxM

22

(3,506 replies, posted in General discussion)

one Alpha-DVD log of redumper contribution, took me five hours for dumping,

no reply and no complain, please.

https://www.suruga-ya.jp/product/detail/186028357

log of redumper
https://mega.nz/file/M9pTjZQT#MPhH40YQG … X7JA30zwYU

http://redump.org/disc/38164/

All data matched except JASRAC ID

Common Disc Info:
    Title: TBS All Star Kanshasai Vol. 1: Chou Gouka! Quiz Ketteiban
    Foreign Title (Non-latin): TBSオールスター感謝祭Vol.1超豪華!クイズ決定版
    Disc Number / Letter: (OPTIONAL)
    Disc Title: (OPTIONAL)
    System: Sony PlayStation 2
    Media Type: DVD-ROM-5
    Category: Games
    Region: Japan
    Languages: Japanese
    Disc Serial: SLPM 65261

    Ringcode Information:

Data Side Mastering Code (laser branded/etched): SLPM-65261<Tab>1
Data Side Mastering SID Code: (REQUIRED, IF EXISTS)
Data Side Toolstamp or Mastering Code (engraved/stamped): (REQUIRED, IF EXISTS)
Data Side Mould SID Code: IFPI 45W6
Data Side Additional Mould: (REQUIRED, IF EXISTS)
Label Side Mould SID Code: (REQUIRED, IF EXISTS)

    Barcode: 4 988607 050603
    EXE/Build Date: 2003-03-10
    Comments:

[T:ISN] SLPM-65261
JASRAC ID: 025201

    Contents: (OPTIONAL)

Version and Editions:
    Version: 1.02
    Edition/Release: Original

Extras:
    Primary Volume Descriptor (PVD):

0320 : 20 20 20 20 20 20 20 20  20 20 20 20 20 32 30 30                200
0330 : 33 30 33 31 30 31 39 32  35 33 37 30 30 24 30 30   3031019253700$00
0340 : 30 30 30 30 30 30 30 30  30 30 30 30 30 30 00 30   00000000000000.0
0350 : 30 30 30 30 30 30 30 30  30 30 30 30 30 30 30 00   000000000000000.
0360 : 30 30 30 30 30 30 30 30  30 30 30 30 30 30 30 30   0000000000000000
0370 : 00 01 00 00 00 00 00 00  00 00 00 00 00 00 00 00   ................

Size & Checksum:
    Size: 1238466560
    CRC32: 716adca3
    MD5: a6273fb09273db72e2e7cbeaa05ce353
    SHA1: dd8671a341acc6e47a3cd2a30223e4f8c6c6eba5

logs redumper
https://mega.nz/file/1kpxUa6A#3WxerqJuN … ZruPy9F-EA

24

(0 replies, posted in Verifications)

http://redump.org/disc/1781/
match the data except ringcode and error count

Users who wish to submit this information to Redump must ensure that all of the fields below are accurate for the exact media they have.
Please double-check to ensure that there are no fields that need verification, such as the version or copy protection.
If there are no fields in need of verification or all fields are accurate, this preamble can be removed before submission.

Common Disc Info:
    Title: Street Fighter Zero
    Foreign Title (Non-latin): ストリートファイターZERO
    Disc Number / Letter: (OPTIONAL)
    Disc Title: (OPTIONAL)
    System: Sony PlayStation
    Media Type: CD-ROM
    Category: Games
    Region: Japan
    Languages: Japanese
    Disc Serial: SLPS 00176

    Ringcode Information:

Data Side Mastering Code (laser branded/etched): (REQUIRED, IF EXISTS)
Data Side Mastering SID Code: IFPI 4540
Data Side Toolstamp or Mastering Code (engraved/stamped): (REQUIRED, IF EXISTS)
Data Side Mould SID Code: (REQUIRED, IF EXISTS)
Data Side Additional Mould: (REQUIRED, IF EXISTS)
Label Side Mould SID Code: (REQUIRED, IF EXISTS)

    Barcode: 4 976219 154451
    EXE/Build Date: 1995-11-17
    Error Count: 1
    Comments:

[T:ISN] SLPS-00176
[T:VOL] STREET_FIGHTER_ZERO
QSOUND certificated

    Contents: (OPTIONAL)

Version and Editions:
    Version: (REQUIRED, IF EXISTS)
    Edition/Release: Original

EDC:
    EDC: No

Extras:
    Primary Volume Descriptor (PVD):

0320 : 20 20 20 20 20 20 20 20  20 20 20 20 20 31 39 39                199
0330 : 35 31 31 33 30 32 31 30  30 30 30 30 30 00 30 30   5113021000000.00
0340 : 30 30 30 30 30 30 30 30  30 30 30 30 30 30 00 30   00000000000000.0
0350 : 30 30 30 30 30 30 30 30  30 30 30 30 30 30 30 00   000000000000000.
0360 : 30 30 30 30 30 30 30 30  30 30 30 30 30 30 30 30   0000000000000000
0370 : 00 01 00 00 00 00 00 00  00 00 00 00 00 00 00 00   ................

Copy Protection:
    Anti-modchip: No
    LibCrypt: No
    SubIntention Data (SecuROM/LibCrypt): 

Tracks and Write Offsets:
    DAT:

<rom name="STREET_FIGHTER_ZERO (Track 01).bin" size="113556912" crc="468da926" md5="eb562c91c5c65cff2ee504c275b9049b" sha1="fcb3dc84d52eb6cd9368109347c54b20e38e5236" />
<rom name="STREET_FIGHTER_ZERO (Track 02).bin" size="8100288" crc="e2c0ae66" md5="db5521935ad1e7fee3561792fb6c2d03" sha1="08de7a8db953806034103724202cf437e12f3cfd" />
<rom name="STREET_FIGHTER_ZERO (Track 03).bin" size="1472352" crc="5c3b9212" md5="36efe8106e6808e0bacb19f046dfb3ac" sha1="3fa473005e4e9e3680226ab9449f296988bbc2bb" />
<rom name="STREET_FIGHTER_ZERO (Track 04).bin" size="1502928" crc="0931293f" md5="deaf1c14d93a4a06ff101fce3f3893bd" sha1="fbc98d3bad7283ca4a101d335f6a88a6f4399cce" />
<rom name="STREET_FIGHTER_ZERO (Track 05).bin" size="1239504" crc="a9268c8b" md5="681c9f60111e743c885a9496e9305dea" sha1="b31f26b257533642f6a3db5a0d4d1189d300aff1" />
<rom name="STREET_FIGHTER_ZERO (Track 06).bin" size="4765152" crc="e3af8de7" md5="f741b59b54a1758309c90938103b6dd5" sha1="0d065996accb9dae530cb5280131a84c002fe796" />
<rom name="STREET_FIGHTER_ZERO (Track 07).bin" size="4762800" crc="b89319a7" md5="c432c8e69540116441dcec1bbbfcff7b" sha1="643e96dd551a3ac9535bc077b8c40e8caa9abb3a" />
<rom name="STREET_FIGHTER_ZERO (Track 08).bin" size="3027024" crc="4874f385" md5="68ea0f34da7c03d13d54606b300f4de8" sha1="b908813ab8ce421fb158b9bddf93cfbbccea80ed" />
<rom name="STREET_FIGHTER_ZERO (Track 09).bin" size="1385328" crc="c29da2f9" md5="c2a4b9172e24252d61303fbbb9f8086d" sha1="015afbccedda14b61decf0cf8d682777f42c2a4b" />
<rom name="STREET_FIGHTER_ZERO (Track 10).bin" size="15690192" crc="701e4d0a" md5="16af91074702e47e18f7a1b4ad26c96c" sha1="e4bfae0a708712e5eec37881a17e2925d936bab2" />
<rom name="STREET_FIGHTER_ZERO (Track 11).bin" size="15685488" crc="b27e00ee" md5="386c33f9b91e748e5211b1fc4a8336e2" sha1="e302fd980fee6a4e3d8f3c0d41d8d741e32fd39f" />
<rom name="STREET_FIGHTER_ZERO (Track 12).bin" size="11630640" crc="a867da53" md5="0e277e2e48bfa7468a411146b1cd21c6" sha1="c9ec277381cbd412992947f59fe57f4eaf7336c2" />
<rom name="STREET_FIGHTER_ZERO (Track 13).bin" size="12576144" crc="dedc10d3" md5="d6a272fd465b47beb15709d1aff0b8f8" sha1="7b03c547b43743383e01820c6aee8171ebfb6c6e" />
<rom name="STREET_FIGHTER_ZERO (Track 14).bin" size="11426016" crc="c653d8f8" md5="932de96590a594a974dafeb0cefddc5f" sha1="d28c65a175b7d219270731095aaa58bbdc591ffd" />
<rom name="STREET_FIGHTER_ZERO (Track 15).bin" size="10638096" crc="e8cfbb9a" md5="2c32858871b2cd7231af19b60e663188" sha1="9614aa3676d49ac9381bedc7be7b1435fb11964e" />
<rom name="STREET_FIGHTER_ZERO (Track 16).bin" size="9438576" crc="835592ae" md5="109a3a6944e56d10b1addb2addead43b" sha1="00e147a1001e45685e5f2fbf1e44b7bd546c669d" />
<rom name="STREET_FIGHTER_ZERO (Track 17).bin" size="10656912" crc="e908791d" md5="b01f8e81721415377de25f99d1c4e4d0" sha1="0c2f40aefcb0b5efcfb29c7bd44a2a32cbe8591c" />
<rom name="STREET_FIGHTER_ZERO (Track 18).bin" size="11816448" crc="0edadd9d" md5="7a25c415b5ca3dfbaaaa7c12eb36bbd3" sha1="b3c43b7bdc17101b78438ced78363ff617b0d58b" />
<rom name="STREET_FIGHTER_ZERO (Track 19).bin" size="13244112" crc="1ef5d00e" md5="3660c4576aa95384113dcc0f34f5feb4" sha1="c9981a309c0e375a1e24098e22d8a815fcfa1646" />
<rom name="STREET_FIGHTER_ZERO (Track 20).bin" size="10374672" crc="7ac38f9a" md5="d4c0caf0738f604323729b55ba3ce165" sha1="21166d98a084bb79b01492b4d1329e18e447e976" />
<rom name="STREET_FIGHTER_ZERO (Track 21).bin" size="14551824" crc="80c3f9c3" md5="e3d655c816e4d3d86fd50f2ae3e0cb11" sha1="3aced958e17d1f9fc70a504550d48e03f343788a" />
<rom name="STREET_FIGHTER_ZERO (Track 22).bin" size="10685136" crc="6abd8338" md5="4c760e8d4001a2dac448ff9a0bde60c8" sha1="c2e2e1dd69b2f7228fed80f489bc1bbccbafec0b" />
<rom name="STREET_FIGHTER_ZERO (Track 23).bin" size="10398192" crc="b8dd67a3" md5="409c04f5365fede1f1b3674e64aee0a8" sha1="6f1b33dd77551d8fca9a556a0ae7dab2f5474304" />
<rom name="STREET_FIGHTER_ZERO (Track 24).bin" size="11938752" crc="2b8790b3" md5="b3451f5bab2558cc1d2f1e3376d7c080" sha1="3a543eeb71d91914824f8e25c556ca2f6173d3c5" />
<rom name="STREET_FIGHTER_ZERO (Track 25).bin" size="23110752" crc="cc336120" md5="7290779f045c41b41925147241eb9598" sha1="50827b94c4bcea31cd8280126bc8a71504104017" />
<rom name="STREET_FIGHTER_ZERO (Track 26).bin" size="16061808" crc="3c1594a3" md5="1855de27d94b155dffc3f387fcf95072" sha1="ed5871bdf9020a3bf2b9a62038b44de84fc2727e" />
<rom name="STREET_FIGHTER_ZERO (Track 27).bin" size="18190368" crc="697e485d" md5="e3541be519c8f509df52e55632b040bb" sha1="a117f7e71de179e270eac6e50fbe02a9b1035816" />
<rom name="STREET_FIGHTER_ZERO (Track 28).bin" size="12992448" crc="238db051" md5="b4f54ee11661a227849d8e45a7600c8c" sha1="7e3897ff3465f289a24035c3656c23dcd9d09610" />
<rom name="STREET_FIGHTER_ZERO (Track 29).bin" size="16242912" crc="b7ee0b6a" md5="ccf81b29885a2cb82c113e17c2d0dabd" sha1="514c9c657ba3a1189ffce2eb6205e4082f93b4a2" />
<rom name="STREET_FIGHTER_ZERO (Track 30).bin" size="25189920" crc="baf81ff5" md5="04fa3ad1a383558391015c0c2c6ce407" sha1="045032dae49190dec7722025c0687fd4df4b881e" />
<rom name="STREET_FIGHTER_ZERO (Track 31).bin" size="21040992" crc="fab321bf" md5="e6cdaf289fa54a42b286f41e2f5d966d" sha1="6fe38ca996c0903d82669276d815e9a143c4c04b" />
<rom name="STREET_FIGHTER_ZERO (Track 32).bin" size="18754848" crc="10d4707c" md5="539021b3d5a07e3197751f217bb7b9d1" sha1="edd06343b666425976592e8ef5bf8af7a176ef35" />
<rom name="STREET_FIGHTER_ZERO (Track 33).bin" size="13700400" crc="f0990359" md5="fae0e59b91c18c82a63198bdb94949ec" sha1="af33246f1481bba9a27abc6208d0598395d76475" />
<rom name="STREET_FIGHTER_ZERO (Track 34).bin" size="17181360" crc="67f09cf3" md5="b469a18b61c1bd26f846542aaaa1e109" sha1="297584d0aa1dfda85f353145ec2c526a8f718bd4" />
<rom name="STREET_FIGHTER_ZERO (Track 35).bin" size="23647008" crc="3f71bd31" md5="9f0c71490825ff34cbbcd7f3c14846b5" sha1="5ef557a1b32f11b2d64ff00ac0a65de8223ffd7c" />
<rom name="STREET_FIGHTER_ZERO (Track 36).bin" size="20979840" crc="67b33770" md5="785e22efcea06774fb9cb3b453ab924a" sha1="7e23ea38ee1cdfdb27e9716f9d334ac1a74b2b66" />
<rom name="STREET_FIGHTER_ZERO (Track 37).bin" size="22101744" crc="1b7b7990" md5="da74135514448d2fc15b08c2984f263e" sha1="879ee378af5739258bdd5716e938be21cc79e2c3" />
<rom name="STREET_FIGHTER_ZERO (Track 38).bin" size="4412352" crc="a567bbc3" md5="183c227dcadca5cfae4e8f82eeeea52e" sha1="5cbd72fdbe4d414d2147d91bd7a3863a75a71126" />
<rom name="STREET_FIGHTER_ZERO (Track 39).bin" size="3885504" crc="9f8cb3f6" md5="d29776a9546b1752528eda9ba82ede7a" sha1="3c77a49cbf2de2c8f47356eaab34581331575697" />
<rom name="STREET_FIGHTER_ZERO (Track 40).bin" size="4412352" crc="0e6f60cd" md5="3596e51932669fe9014438b3f64d0457" sha1="dfac649886fc75bfbe70b6ee485744aa3708eb47" />
<rom name="STREET_FIGHTER_ZERO (Track 41).bin" size="5115600" crc="df39529e" md5="c49059f72f04ccf2b501b72a25b54ccf" sha1="ded85a7aed87dacfdbf0a46b10589780a2fccb2f" />
<rom name="STREET_FIGHTER_ZERO (Track 42).bin" size="5722416" crc="123e0e0c" md5="63d217eac4de775d731b11d872287bd0" sha1="72a55369f94b6b68d5896c0000417d3eafa76e08" />
<rom name="STREET_FIGHTER_ZERO (Track 43).bin" size="5644800" crc="dc13e74f" md5="11f053507b95021604ff4e782cf2a149" sha1="a4f5df594c833419b7e231cf8f0cc2ae2d9c7452" />
<rom name="STREET_FIGHTER_ZERO (Track 44).bin" size="6625584" crc="32bec198" md5="c85ba3cd917aca07370c232ef9c12f4d" sha1="c8e9a851dc593fa08148211ad74e09e4fcb375c0" />
<rom name="STREET_FIGHTER_ZERO (Track 45).bin" size="7552272" crc="6edffa23" md5="bd168ec4ea794613b835e5c2085a2bd1" sha1="0afe1ac5e17d1053f0ca729eff1ed326334afcc3" />
<rom name="STREET_FIGHTER_ZERO (Track 46).bin" size="5470752" crc="bc28a1a7" md5="09f3bbfbd940b07e4bf36bc5fd6ad8d7" sha1="b862bf271121c8afa23a8ef1f995f3c708498cfa" />
<rom name="STREET_FIGHTER_ZERO (Track 47).bin" size="4052496" crc="8ea0ced9" md5="40687774f33b45a3808a308cf5c2c4a9" sha1="0cf9093c7a45e50802fdbd6255c47e24d8250564" />
<rom name="STREET_FIGHTER_ZERO (Track 48).bin" size="7594608" crc="e90bcbd3" md5="2118175c346fbbd03d4d88187ed40863" sha1="3431a4d2a934be1a630c271ac758247216042a47" />
<rom name="STREET_FIGHTER_ZERO (Track 49).bin" size="19192320" crc="3bd16af6" md5="05c738f0901a9492f9e3d1beb8073a76" sha1="a6d0ecd2d1522aac37978b7d6bb41700d118eeb3" />
<rom name="STREET_FIGHTER_ZERO (Track 50).bin" size="4943904" crc="5be7545d" md5="b122c7bf4cb5a8130479627b9e7d764b" sha1="257ac4abfcbbd5eafeff56c74c97ed55b569b4a2" />
<rom name="STREET_FIGHTER_ZERO (Track 51).bin" size="5381376" crc="794e7003" md5="4ded13a093240e873e0f5b90d3d1a6c5" sha1="9f4ed6dbdf9617c3949df406ce1f3e0c7644e128" />
<rom name="STREET_FIGHTER_ZERO (Track 52).bin" size="37396800" crc="7976083e" md5="2d7b5e8e94a91bf5423b2356f6a34863" sha1="d9f92af296360772e62caa4cb276de3fa74f5538" />

    Cuesheet:

FILE "STREET_FIGHTER_ZERO (Track 01).bin" BINARY
  TRACK 01 MODE2/2352
    INDEX 01 00:00:00
FILE "STREET_FIGHTER_ZERO (Track 02).bin" BINARY
  TRACK 02 AUDIO
    INDEX 00 00:00:00
    INDEX 01 00:02:00
FILE "STREET_FIGHTER_ZERO (Track 03).bin" BINARY
  TRACK 03 AUDIO
    INDEX 00 00:00:00
    INDEX 01 00:02:00
FILE "STREET_FIGHTER_ZERO (Track 04).bin" BINARY
  TRACK 04 AUDIO
    INDEX 00 00:00:00
    INDEX 01 00:02:00
FILE "STREET_FIGHTER_ZERO (Track 05).bin" BINARY
  TRACK 05 AUDIO
    INDEX 00 00:00:00
    INDEX 01 00:02:00
FILE "STREET_FIGHTER_ZERO (Track 06).bin" BINARY
  TRACK 06 AUDIO
    INDEX 00 00:00:00
    INDEX 01 00:02:00
FILE "STREET_FIGHTER_ZERO (Track 07).bin" BINARY
  TRACK 07 AUDIO
    INDEX 00 00:00:00
    INDEX 01 00:02:00
FILE "STREET_FIGHTER_ZERO (Track 08).bin" BINARY
  TRACK 08 AUDIO
    INDEX 00 00:00:00
    INDEX 01 00:02:00
FILE "STREET_FIGHTER_ZERO (Track 09).bin" BINARY
  TRACK 09 AUDIO
    INDEX 00 00:00:00
    INDEX 01 00:02:00
FILE "STREET_FIGHTER_ZERO (Track 10).bin" BINARY
  TRACK 10 AUDIO
    INDEX 00 00:00:00
    INDEX 01 00:02:00
FILE "STREET_FIGHTER_ZERO (Track 11).bin" BINARY
  TRACK 11 AUDIO
    INDEX 00 00:00:00
    INDEX 01 00:02:00
FILE "STREET_FIGHTER_ZERO (Track 12).bin" BINARY
  TRACK 12 AUDIO
    INDEX 00 00:00:00
    INDEX 01 00:02:00
FILE "STREET_FIGHTER_ZERO (Track 13).bin" BINARY
  TRACK 13 AUDIO
    INDEX 00 00:00:00
    INDEX 01 00:02:00
FILE "STREET_FIGHTER_ZERO (Track 14).bin" BINARY
  TRACK 14 AUDIO
    INDEX 00 00:00:00
    INDEX 01 00:02:00
FILE "STREET_FIGHTER_ZERO (Track 15).bin" BINARY
  TRACK 15 AUDIO
    INDEX 00 00:00:00
    INDEX 01 00:02:00
FILE "STREET_FIGHTER_ZERO (Track 16).bin" BINARY
  TRACK 16 AUDIO
    INDEX 00 00:00:00
    INDEX 01 00:02:00
FILE "STREET_FIGHTER_ZERO (Track 17).bin" BINARY
  TRACK 17 AUDIO
    INDEX 00 00:00:00
    INDEX 01 00:02:00
FILE "STREET_FIGHTER_ZERO (Track 18).bin" BINARY
  TRACK 18 AUDIO
    INDEX 00 00:00:00
    INDEX 01 00:02:00
FILE "STREET_FIGHTER_ZERO (Track 19).bin" BINARY
  TRACK 19 AUDIO
    INDEX 00 00:00:00
    INDEX 01 00:02:00
FILE "STREET_FIGHTER_ZERO (Track 20).bin" BINARY
  TRACK 20 AUDIO
    INDEX 00 00:00:00
    INDEX 01 00:02:00
FILE "STREET_FIGHTER_ZERO (Track 21).bin" BINARY
  TRACK 21 AUDIO
    INDEX 00 00:00:00
    INDEX 01 00:02:00
FILE "STREET_FIGHTER_ZERO (Track 22).bin" BINARY
  TRACK 22 AUDIO
    INDEX 00 00:00:00
    INDEX 01 00:02:00
FILE "STREET_FIGHTER_ZERO (Track 23).bin" BINARY
  TRACK 23 AUDIO
    INDEX 00 00:00:00
    INDEX 01 00:02:00
FILE "STREET_FIGHTER_ZERO (Track 24).bin" BINARY
  TRACK 24 AUDIO
    INDEX 00 00:00:00
    INDEX 01 00:02:00
FILE "STREET_FIGHTER_ZERO (Track 25).bin" BINARY
  TRACK 25 AUDIO
    INDEX 00 00:00:00
    INDEX 01 00:02:00
FILE "STREET_FIGHTER_ZERO (Track 26).bin" BINARY
  TRACK 26 AUDIO
    INDEX 00 00:00:00
    INDEX 01 00:02:00
FILE "STREET_FIGHTER_ZERO (Track 27).bin" BINARY
  TRACK 27 AUDIO
    INDEX 00 00:00:00
    INDEX 01 00:02:00
FILE "STREET_FIGHTER_ZERO (Track 28).bin" BINARY
  TRACK 28 AUDIO
    INDEX 00 00:00:00
    INDEX 01 00:02:00
FILE "STREET_FIGHTER_ZERO (Track 29).bin" BINARY
  TRACK 29 AUDIO
    INDEX 00 00:00:00
    INDEX 01 00:02:00
FILE "STREET_FIGHTER_ZERO (Track 30).bin" BINARY
  TRACK 30 AUDIO
    INDEX 00 00:00:00
    INDEX 01 00:02:00
FILE "STREET_FIGHTER_ZERO (Track 31).bin" BINARY
  TRACK 31 AUDIO
    INDEX 00 00:00:00
    INDEX 01 00:02:00
FILE "STREET_FIGHTER_ZERO (Track 32).bin" BINARY
  TRACK 32 AUDIO
    INDEX 00 00:00:00
    INDEX 01 00:02:00
FILE "STREET_FIGHTER_ZERO (Track 33).bin" BINARY
  TRACK 33 AUDIO
    INDEX 00 00:00:00
    INDEX 01 00:02:00
FILE "STREET_FIGHTER_ZERO (Track 34).bin" BINARY
  TRACK 34 AUDIO
    INDEX 00 00:00:00
    INDEX 01 00:02:00
FILE "STREET_FIGHTER_ZERO (Track 35).bin" BINARY
  TRACK 35 AUDIO
    INDEX 00 00:00:00
    INDEX 01 00:02:00
FILE "STREET_FIGHTER_ZERO (Track 36).bin" BINARY
  TRACK 36 AUDIO
    INDEX 00 00:00:00
    INDEX 01 00:02:00
FILE "STREET_FIGHTER_ZERO (Track 37).bin" BINARY
  TRACK 37 AUDIO
    INDEX 00 00:00:00
    INDEX 01 00:02:00
FILE "STREET_FIGHTER_ZERO (Track 38).bin" BINARY
  TRACK 38 AUDIO
    INDEX 00 00:00:00
    INDEX 01 00:02:00
FILE "STREET_FIGHTER_ZERO (Track 39).bin" BINARY
  TRACK 39 AUDIO
    INDEX 00 00:00:00
    INDEX 01 00:02:00
FILE "STREET_FIGHTER_ZERO (Track 40).bin" BINARY
  TRACK 40 AUDIO
    INDEX 00 00:00:00
    INDEX 01 00:02:00
FILE "STREET_FIGHTER_ZERO (Track 41).bin" BINARY
  TRACK 41 AUDIO
    INDEX 00 00:00:00
    INDEX 01 00:02:00
FILE "STREET_FIGHTER_ZERO (Track 42).bin" BINARY
  TRACK 42 AUDIO
    INDEX 00 00:00:00
    INDEX 01 00:02:00
FILE "STREET_FIGHTER_ZERO (Track 43).bin" BINARY
  TRACK 43 AUDIO
    INDEX 00 00:00:00
    INDEX 01 00:02:00
FILE "STREET_FIGHTER_ZERO (Track 44).bin" BINARY
  TRACK 44 AUDIO
    INDEX 00 00:00:00
    INDEX 01 00:02:00
FILE "STREET_FIGHTER_ZERO (Track 45).bin" BINARY
  TRACK 45 AUDIO
    INDEX 00 00:00:00
    INDEX 01 00:02:00
FILE "STREET_FIGHTER_ZERO (Track 46).bin" BINARY
  TRACK 46 AUDIO
    INDEX 00 00:00:00
    INDEX 01 00:02:00
FILE "STREET_FIGHTER_ZERO (Track 47).bin" BINARY
  TRACK 47 AUDIO
    INDEX 00 00:00:00
    INDEX 01 00:02:00
FILE "STREET_FIGHTER_ZERO (Track 48).bin" BINARY
  TRACK 48 AUDIO
    INDEX 00 00:00:00
    INDEX 01 00:02:00
FILE "STREET_FIGHTER_ZERO (Track 49).bin" BINARY
  TRACK 49 AUDIO
    INDEX 00 00:00:00
    INDEX 01 00:02:00
FILE "STREET_FIGHTER_ZERO (Track 50).bin" BINARY
  TRACK 50 AUDIO
    INDEX 00 00:00:00
    INDEX 01 00:02:00
FILE "STREET_FIGHTER_ZERO (Track 51).bin" BINARY
  TRACK 51 AUDIO
    INDEX 00 00:00:00
    INDEX 01 00:02:00
FILE "STREET_FIGHTER_ZERO (Track 52).bin" BINARY
  TRACK 52 AUDIO
    INDEX 00 00:00:00
    INDEX 01 00:02:00

    Write Offset: +2

Dumping Info:
    Dumping Program: Redumper v2024.01.08 build_311
    Date: 2024-03-01 07:23:16
    Manufacturer: PLEXTOR
    Model: CD-R PX-W4012A
    Firmware: 1.07 (03/22/06 09:00)
    Reported Disc Type: CD-ROM

logs of redumper
https://mega.nz/file/lloUmIQT#YDA3XgR7A … 8C7dU_INOU

http://redump.org/disc/89803/

matched

Common Disc Info:
    Title: Final Fantasy VII
    Foreign Title (Non-latin): 太空戰士 七
    Disc Number / Letter: (OPTIONAL)
    Disc Title: DISK 3
    System: IBM PC compatible
    Media Type: CD-ROM
    Category: Games
    Region: Taiwan
    Languages: English
    Disc Serial: (REQUIRED, IF EXISTS)

    Ringcode Information:

Data Side Mastering Code (laser branded/etched): EACD56-4 FF7 DISK4 98.06.25
Data Side Mastering SID Code: IFPI LB80
Data Side Toolstamp or Mastering Code (engraved/stamped): (REQUIRED, IF EXISTS)
Data Side Mould SID Code: (REQUIRED, IF EXISTS)
Data Side Additional Mould: (REQUIRED, IF EXISTS)
Label Side Mould SID Code: IFPI 6D02

    Barcode: (OPTIONAL)
    Error Count: 0
    Comments:

[T:VOL] FF7DISC3
(OPTIONAL)

    Contents: (OPTIONAL)

Version and Editions:
    Version: (REQUIRED, IF EXISTS)
    Edition/Release: Original

Extras:
    Primary Volume Descriptor (PVD):

0320 : 20 20 20 20 20 20 20 20  20 20 20 20 20 31 39 39                199
0330 : 38 30 36 31 37 31 35 31  37 32 30 30 30 30 31 39   8061715172000019
0340 : 39 38 30 36 31 37 31 35  31 37 32 30 30 30 30 30   9806171517200000
0350 : 30 30 30 30 30 30 30 30  30 30 30 30 30 30 30 30   0000000000000000
0360 : 31 39 39 38 30 36 31 37  31 35 31 37 32 30 30 30   1998061715172000
0370 : 30 01 00 00 00 00 00 00  00 00 00 00 00 00 00 00   0...............

Copy Protection:
    Copy Protection: None found [OMIT FROM SUBMISSION]
    SubIntention Data (SecuROM/LibCrypt):

Tracks and Write Offsets:
    DAT:

<rom name="FF7DISC3.bin" size="543951744" crc="4346d81c" md5="7393c49e438aed2e3c1aae11b2caa788" sha1="7c6790920496edcb2c2e3cf4acfb92e9c93b26ad" />

    Cuesheet:

FILE "FF7DISC3.bin" BINARY
  TRACK 01 MODE1/2352
    INDEX 01 00:00:00

    Write Offset: -12

Dumping Info:
    Dumping Program: Redumper v2024.01.08 build_311
    Date: 2024-02-20 14:47:46
    Manufacturer: PLEXTOR
    Model: CD-R PX-W4012A
    Firmware: 1.07 (03/22/06 09:00)
    Reported Disc Type: CD-ROM

logs of redumper
https://mega.nz/file/Y1Y0XYIR#gNGuovjrf … OZ1fsjpAP4