1 (edited by pepsidrinker 2007-12-28 19:32:44)

Topic: Correcting pre-gap manually

NEW* I went to a different computer and dumped the game and EAC worked better on this drive but not properly it gave  track 02 a 1 second pre-gap, so I checked 75th sector and it wasn't the right one so I went to 150 sectors and that was the right one, so is there a way to check all the pre-gaps and if others in error is there an easy way to fix the image? The checksums matach and all and there is no errors. The game in question is Betrayal at Krondor. When EAC figures out the pre-gap does it dump the audio a certain way or does it just effect the cue and I would be able to go and manually find the gap like I did for track 2 and change it?

Three years and still going strong.

2 (edited by ssjkakaroto 2007-12-28 16:26:00)

Re: Correcting pre-gap manually

I'm also wondering about that too pepsidrinker, if I can manually detect/add/remove some pregaps I'll be able to dump at least 2 discs (Quake II and Hexen)

Re: Correcting pre-gap manually

I don't know if you need more information to help me so I will provide the log and cue see if that helps.

Exact Audio Copy V0.99 prebeta 3 from 28. July 2007

EAC extraction logfile from 28. December 2007, 1:34

Unknown Artist / Unknown Title

Used drive  : LITE-ON CD-ROM LTN-4891S   Adapter: 1  ID: 0

Read mode               : Secure
Utilize accurate stream : Yes
Defeat audio cache      : No
Make use of C2 pointers : Yes

Read offset correction                      : 6
Overread into Lead-In and Lead-Out          : Yes
Fill up missing offset samples with silence : Yes
Delete leading and trailing silent blocks   : No
Null samples used in CRC calculations       : Yes
Used interface                              : Native Win32 interface for Win NT & 2000
Gap handling                                : Appended to next track

Used output format : Microsoft PCM Converter
Sample format      : 44.100 kHz, 16 Bit, Stereo


TOC of the extracted CD

     Track |   Start  |  Length  | Start sector | End sector 
    ---------------------------------------------------------
        1  |  0:00.00 | 12:15.07 |         0    |    55131   
        2  | 12:15.07 |  1:39.66 |     55132    |    62622   
        3  | 13:54.73 |  1:56.03 |     62623    |    71325   
        4  | 15:51.01 |  1:05.26 |     71326    |    76226   
        5  | 16:56.27 |  0:53.06 |     76227    |    80207   
        6  | 17:49.33 |  1:26.55 |     80208    |    86712   
        7  | 19:16.13 |  0:45.19 |     86713    |    90106   
        8  | 20:01.32 |  0:28.62 |     90107    |    92268   
        9  | 20:30.19 |  0:35.46 |     92269    |    94939   
       10  | 21:05.65 |  0:15.33 |     94940    |    96097   
       11  | 21:21.23 |  1:09.04 |     96098    |   101276   
       12  | 22:30.27 |  0:54.06 |    101277    |   105332   
       13  | 23:24.33 |  0:50.09 |    105333    |   109091   
       14  | 24:14.42 |  0:51.30 |    109092    |   112946   
       15  | 25:05.72 |  1:07.05 |    112947    |   117976   
       16  | 26:13.02 |  0:49.17 |    117977    |   121668   
       17  | 27:02.19 |  0:54.32 |    121669    |   125750   
       18  | 27:56.51 |  1:19.65 |    125751    |   131740   
       19  | 29:16.41 |  1:15.44 |    131741    |   137409   
       20  | 30:32.10 |  0:59.60 |    137410    |   141894   
       21  | 31:31.70 |  1:07.45 |    141895    |   146964   
       22  | 32:39.40 |  1:19.65 |    146965    |   152954   
       23  | 33:59.30 |  1:01.12 |    152955    |   157541   
       24  | 35:00.42 |  1:48.17 |    157542    |   165658   
       25  | 36:48.59 |  1:14.12 |    165659    |   171220   
       26  | 38:02.71 |  0:58.70 |    171221    |   175640   
       27  | 39:01.66 |  0:47.63 |    175641    |   179228   
       28  | 39:49.54 |  0:46.09 |    179229    |   182687   
       29  | 40:35.63 |  0:50.37 |    182688    |   186474   
       30  | 41:26.25 |  0:47.73 |    186475    |   190072   
       31  | 42:14.23 |  0:37.18 |    190073    |   192865   
       32  | 42:51.41 |  1:22.65 |    192866    |   199080   
       33  | 44:14.31 |  0:55.38 |    199081    |   203243   
       34  | 45:09.69 |  0:58.57 |    203244    |   207650   
       35  | 46:08.51 |  1:15.29 |    207651    |   213304   
       36  | 47:24.05 |  0:15.24 |    213305    |   214453   
       37  | 47:39.29 |  0:44.04 |    214454    |   217757   
       38  | 48:23.33 |  1:11.45 |    217758    |   223127   
       39  | 49:35.03 |  1:05.60 |    223128    |   228062   
       40  | 50:40.63 |  0:32.66 |    228063    |   230528   
       41  | 51:13.54 |  0:39.47 |    230529    |   233500   
       42  | 51:53.26 |  1:34.17 |    233501    |   240567   
       43  | 53:27.43 |  0:46.65 |    240568    |   244082   
       44  | 54:14.33 |  1:10.15 |    244083    |   249347   
       45  | 55:24.48 |  0:53.12 |    249348    |   253334   
       46  | 56:17.60 |  0:56.43 |    253335    |   257577   
       47  | 57:14.28 |  0:11.55 |    257578    |   258457   
       48  | 57:26.08 |  0:11.44 |    258458    |   259326   
       49  | 57:37.52 |  0:13.71 |    259327    |   260372   
       50  | 57:51.48 |  0:12.02 |    260373    |   261274   
       51  | 58:03.50 |  0:18.19 |    261275    |   262643   
       52  | 58:21.69 |  0:18.65 |    262644    |   264058   
       53  | 58:40.59 |  0:18.52 |    264059    |   265460   
       54  | 58:59.36 |  0:17.11 |    265461    |   266746   
       55  | 59:16.47 |  0:16.54 |    266747    |   268000   
       56  | 59:33.26 |  0:14.56 |    268001    |   269106   
       57  | 59:48.07 |  1:18.01 |    269107    |   274957   
       58  | 61:06.08 |  0:57.35 |    274958    |   279267   
       59  | 62:03.43 |  1:03.22 |    279268    |   284014   
       60  | 63:06.65 |  0:12.33 |    284015    |   284947   
       61  | 63:19.23 |  1:00.21 |    284948    |   289468   
       62  | 64:19.44 |  1:17.55 |    289469    |   295298   
       63  | 65:37.24 |  1:24.35 |    295299    |   301633   


Track  2

     Filename C:\Documents and Settings\Student\Desktop\a1\Track02.bin

     Pre-gap length  0:00:01.00

     Peak level 99.9 %
     Track quality 100.0 %
     Test CRC 52FB614E
     Copy CRC 52FB614E
     Copy OK

Track  3

     Filename C:\Documents and Settings\Student\Desktop\a1\Track03.bin

     Pre-gap length  0:00:01.74

     Peak level 97.1 %
     Track quality 100.0 %
     Test CRC A65882FC
     Copy CRC A65882FC
     Copy OK

Track  4

     Filename C:\Documents and Settings\Student\Desktop\a1\Track04.bin

     Pre-gap length  0:00:01.74

     Peak level 99.9 %
     Track quality 99.6 %
     Test CRC 12F7AA24
     Copy CRC 12F7AA24
     Copy OK

Track  5

     Filename C:\Documents and Settings\Student\Desktop\a1\Track05.bin

     Pre-gap length  0:00:01.74

     Peak level 66.3 %
     Track quality 100.0 %
     Test CRC 9803DB6F
     Copy CRC 9803DB6F
     Copy OK

Track  6

     Filename C:\Documents and Settings\Student\Desktop\a1\Track06.bin

     Pre-gap length  0:00:01.74

     Peak level 87.5 %
     Track quality 100.0 %
     Test CRC D0A820D2
     Copy CRC D0A820D2
     Copy OK

Track  7

     Filename C:\Documents and Settings\Student\Desktop\a1\Track07.bin

     Peak level 100.0 %
     Track quality 100.0 %
     Test CRC 8D823E4D
     Copy CRC 8D823E4D
     Copy OK

Track  8

     Filename C:\Documents and Settings\Student\Desktop\a1\Track08.bin

     Pre-gap length  0:00:01.74

     Peak level 34.8 %
     Track quality 100.0 %
     Test CRC CF8CE25E
     Copy CRC CF8CE25E
     Copy OK

Track  9

     Filename C:\Documents and Settings\Student\Desktop\a1\Track09.bin

     Pre-gap length  0:00:01.74

     Peak level 34.8 %
     Track quality 100.0 %
     Test CRC 803C6A0F
     Copy CRC 803C6A0F
     Copy OK

Track 10

     Filename C:\Documents and Settings\Student\Desktop\a1\Track10.bin

     Pre-gap length  0:00:01.74

     Peak level 100.0 %
     Track quality 100.0 %
     Test CRC DFEC379B
     Copy CRC DFEC379B
     Copy OK

Track 11

     Filename C:\Documents and Settings\Student\Desktop\a1\Track11.bin

     Pre-gap length  0:00:01.74

     Peak level 81.9 %
     Track quality 100.0 %
     Test CRC 1157AC0C
     Copy CRC 1157AC0C
     Copy OK

Track 12

     Filename C:\Documents and Settings\Student\Desktop\a1\Track12.bin

     Pre-gap length  0:00:01.74

     Peak level 82.8 %
     Track quality 100.0 %
     Test CRC 07B3390D
     Copy CRC 07B3390D
     Copy OK

Track 13

     Filename C:\Documents and Settings\Student\Desktop\a1\Track13.bin

     Pre-gap length  0:00:01.74

     Peak level 99.9 %
     Track quality 100.0 %
     Test CRC 1DCD72F5
     Copy CRC 1DCD72F5
     Copy OK

Track 14

     Filename C:\Documents and Settings\Student\Desktop\a1\Track14.bin

     Pre-gap length  0:00:01.74

     Peak level 99.9 %
     Track quality 100.0 %
     Test CRC CAD45536
     Copy CRC CAD45536
     Copy OK

Track 15

     Filename C:\Documents and Settings\Student\Desktop\a1\Track15.bin

     Pre-gap length  0:00:01.73

     Peak level 86.8 %
     Track quality 100.0 %
     Test CRC 7AE27F1E
     Copy CRC 7AE27F1E
     Copy OK

Track 16

     Filename C:\Documents and Settings\Student\Desktop\a1\Track16.bin

     Peak level 99.9 %
     Track quality 100.0 %
     Test CRC 866B1682
     Copy CRC 866B1682
     Copy OK

Track 17

     Filename C:\Documents and Settings\Student\Desktop\a1\Track17.bin

     Pre-gap length  0:00:01.74

     Peak level 100.0 %
     Track quality 100.0 %
     Test CRC 34596F3A
     Copy CRC 34596F3A
     Copy OK

Track 18

     Filename C:\Documents and Settings\Student\Desktop\a1\Track18.bin

     Pre-gap length  0:00:01.74

     Peak level 68.7 %
     Track quality 100.0 %
     Test CRC 5051CCA1
     Copy CRC 5051CCA1
     Copy OK

Track 19

     Filename C:\Documents and Settings\Student\Desktop\a1\Track19.bin

     Pre-gap length  0:00:01.74

     Peak level 56.3 %
     Track quality 100.0 %
     Test CRC 9807ABFA
     Copy CRC 9807ABFA
     Copy OK

Track 20

     Filename C:\Documents and Settings\Student\Desktop\a1\Track20.bin

     Pre-gap length  0:00:01.74

     Peak level 64.8 %
     Track quality 100.0 %
     Test CRC 08B97603
     Copy CRC 08B97603
     Copy OK

Track 21

     Filename C:\Documents and Settings\Student\Desktop\a1\Track21.bin

     Pre-gap length  0:00:01.73

     Peak level 99.9 %
     Track quality 100.0 %
     Test CRC BCB60DB4
     Copy CRC BCB60DB4
     Copy OK

Track 22

     Filename C:\Documents and Settings\Student\Desktop\a1\Track22.bin

     Peak level 99.9 %
     Track quality 100.0 %
     Test CRC E4D3C079
     Copy CRC E4D3C079
     Copy OK

Track 23

     Filename C:\Documents and Settings\Student\Desktop\a1\Track23.bin

     Pre-gap length  0:00:01.74

     Peak level 80.2 %
     Track quality 100.0 %
     Test CRC 93E064E2
     Copy CRC 93E064E2
     Copy OK

Track 24

     Filename C:\Documents and Settings\Student\Desktop\a1\Track24.bin

     Pre-gap length  0:00:01.74

     Peak level 99.9 %
     Track quality 100.0 %
     Test CRC BE926040
     Copy CRC BE926040
     Copy OK

Track 25

     Filename C:\Documents and Settings\Student\Desktop\a1\Track25.bin

     Pre-gap length  0:00:01.74

     Peak level 100.0 %
     Track quality 100.0 %
     Test CRC 625FD832
     Copy CRC 625FD832
     Copy OK

Track 26

     Filename C:\Documents and Settings\Student\Desktop\a1\Track26.bin

     Peak level 60.5 %
     Track quality 100.0 %
     Test CRC A56B7FFD
     Copy CRC A56B7FFD
     Copy OK

Track 27

     Filename C:\Documents and Settings\Student\Desktop\a1\Track27.bin

     Pre-gap length  0:00:01.74

     Peak level 99.9 %
     Track quality 100.0 %
     Test CRC F0731333
     Copy CRC F0731333
     Copy OK

Track 28

     Filename C:\Documents and Settings\Student\Desktop\a1\Track28.bin

     Pre-gap length  0:00:01.74

     Peak level 100.0 %
     Track quality 100.0 %
     Test CRC 63E545B6
     Copy CRC 63E545B6
     Copy OK

Track 29

     Filename C:\Documents and Settings\Student\Desktop\a1\Track29.bin

     Pre-gap length  0:00:01.74

     Peak level 99.9 %
     Track quality 100.0 %
     Test CRC 7F02FB07
     Copy CRC 7F02FB07
     Copy OK

Track 30

     Filename C:\Documents and Settings\Student\Desktop\a1\Track30.bin

     Pre-gap length  0:00:01.74

     Peak level 99.9 %
     Track quality 100.0 %
     Test CRC 7D584F89
     Copy CRC 7D584F89
     Copy OK

Track 31

     Filename C:\Documents and Settings\Student\Desktop\a1\Track31.bin

     Pre-gap length  0:00:01.74

     Peak level 99.9 %
     Track quality 100.0 %
     Test CRC 868EF028
     Copy CRC 868EF028
     Copy OK

Track 32

     Filename C:\Documents and Settings\Student\Desktop\a1\Track32.bin

     Pre-gap length  0:00:01.74

     Peak level 100.0 %
     Track quality 99.7 %
     Test CRC 991E0A38
     Copy CRC 991E0A38
     Copy OK

Track 33

     Filename C:\Documents and Settings\Student\Desktop\a1\Track33.bin

     Pre-gap length  0:00:01.74

     Peak level 66.1 %
     Track quality 100.0 %
     Test CRC BB1653D4
     Copy CRC BB1653D4
     Copy OK

Track 34

     Filename C:\Documents and Settings\Student\Desktop\a1\Track34.bin

     Pre-gap length  0:00:01.74

     Peak level 60.7 %
     Track quality 100.0 %
     Test CRC C3623FB8
     Copy CRC C3623FB8
     Copy OK

Track 35

     Filename C:\Documents and Settings\Student\Desktop\a1\Track35.bin

     Pre-gap length  0:00:01.74

     Peak level 100.0 %
     Track quality 100.0 %
     Test CRC E54E1883
     Copy CRC E54E1883
     Copy OK

Track 36

     Filename C:\Documents and Settings\Student\Desktop\a1\Track36.bin

     Pre-gap length  0:00:01.74

     Peak level 100.0 %
     Track quality 100.0 %
     Test CRC 19094E0C
     Copy CRC 19094E0C
     Copy OK

Track 37

     Filename C:\Documents and Settings\Student\Desktop\a1\Track37.bin

     Pre-gap length  0:00:01.74

     Peak level 99.9 %
     Track quality 100.0 %
     Test CRC 39F944AD
     Copy CRC 39F944AD
     Copy OK

Track 38

     Filename C:\Documents and Settings\Student\Desktop\a1\Track38.bin

     Pre-gap length  0:00:01.74

     Peak level 99.9 %
     Track quality 100.0 %
     Test CRC CFD516D0
     Copy CRC CFD516D0
     Copy OK

Track 39

     Filename C:\Documents and Settings\Student\Desktop\a1\Track39.bin

     Pre-gap length  0:00:01.74

     Peak level 99.9 %
     Track quality 100.0 %
     Test CRC ABDEA4DF
     Copy CRC ABDEA4DF
     Copy OK

Track 40

     Filename C:\Documents and Settings\Student\Desktop\a1\Track40.bin

     Pre-gap length  0:00:01.74

     Peak level 34.8 %
     Track quality 100.0 %
     Test CRC 6C1F2E19
     Copy CRC 6C1F2E19
     Copy OK

Track 41

     Filename C:\Documents and Settings\Student\Desktop\a1\Track41.bin

     Pre-gap length  0:00:01.74

     Peak level 37.4 %
     Track quality 100.0 %
     Test CRC AC671B9D
     Copy CRC AC671B9D
     Copy OK

Track 42

     Filename C:\Documents and Settings\Student\Desktop\a1\Track42.bin

     Pre-gap length  0:00:01.74

     Peak level 99.9 %
     Track quality 100.0 %
     Test CRC 93615475
     Copy CRC 93615475
     Copy OK

Track 43

     Filename C:\Documents and Settings\Student\Desktop\a1\Track43.bin

     Pre-gap length  0:00:01.74

     Peak level 93.9 %
     Track quality 99.5 %
     Test CRC F0B3FE7F
     Copy CRC F0B3FE7F
     Copy OK

Track 44

     Filename C:\Documents and Settings\Student\Desktop\a1\Track44.bin

     Pre-gap length  0:00:01.74

     Peak level 90.7 %
     Track quality 100.0 %
     Test CRC E7DA3551
     Copy CRC E7DA3551
     Copy OK

Track 45

     Filename C:\Documents and Settings\Student\Desktop\a1\Track45.bin

     Pre-gap length  0:00:01.73

     Peak level 79.4 %
     Track quality 99.6 %
     Test CRC ACE7AD32
     Copy CRC ACE7AD32
     Copy OK

Track 46

     Filename C:\Documents and Settings\Student\Desktop\a1\Track46.bin

     Peak level 100.0 %
     Track quality 100.0 %
     Test CRC 049962BD
     Copy CRC 049962BD
     Copy OK

Track 47

     Filename C:\Documents and Settings\Student\Desktop\a1\Track47.bin

     Pre-gap length  0:00:01.73

     Peak level 26.4 %
     Track quality 98.4 %
     Test CRC 2DDAD0E0
     Copy CRC 2DDAD0E0
     Copy OK

Track 48

     Filename C:\Documents and Settings\Student\Desktop\a1\Track48.bin

     Peak level 27.0 %
     Track quality 100.0 %
     Test CRC 8117D04A
     Copy CRC 8117D04A
     Copy OK

Track 49

     Filename C:\Documents and Settings\Student\Desktop\a1\Track49.bin

     Pre-gap length  0:00:01.74

     Peak level 26.5 %
     Track quality 100.0 %
     Test CRC 6CAE4D0B
     Copy CRC 6CAE4D0B
     Copy OK

Track 50

     Filename C:\Documents and Settings\Student\Desktop\a1\Track50.bin

     Pre-gap length  0:00:01.73

     Peak level 33.0 %
     Track quality 100.0 %
     Test CRC E63FE145
     Copy CRC E63FE145
     Copy OK

Track 51

     Filename C:\Documents and Settings\Student\Desktop\a1\Track51.bin

     Pre-gap length  0:00:01.74

     Peak level 34.8 %
     Track quality 100.0 %
     Test CRC B3E29F0D
     Copy CRC B3E29F0D
     Copy OK

Track 52

     Filename C:\Documents and Settings\Student\Desktop\a1\Track52.bin

     Pre-gap length  0:00:01.74

     Peak level 32.0 %
     Track quality 100.0 %
     Test CRC 7BDA65ED
     Copy CRC 7BDA65ED
     Copy OK

Track 53

     Filename C:\Documents and Settings\Student\Desktop\a1\Track53.bin

     Pre-gap length  0:00:01.74

     Peak level 33.4 %
     Track quality 100.0 %
     Test CRC 5E08302A
     Copy CRC 5E08302A
     Copy OK

Track 54

     Filename C:\Documents and Settings\Student\Desktop\a1\Track54.bin

     Pre-gap length  0:00:01.74

     Peak level 34.8 %
     Track quality 100.0 %
     Test CRC 4D6C9BAE
     Copy CRC 4D6C9BAE
     Copy OK

Track 55

     Filename C:\Documents and Settings\Student\Desktop\a1\Track55.bin

     Pre-gap length  0:00:01.74

     Peak level 25.6 %
     Track quality 100.0 %
     Test CRC 1283BD50
     Copy CRC 1283BD50
     Copy OK

Track 56

     Filename C:\Documents and Settings\Student\Desktop\a1\Track56.bin

     Pre-gap length  0:00:01.74

     Peak level 34.0 %
     Track quality 100.0 %
     Test CRC 0F68989C
     Copy CRC 0F68989C
     Copy OK

Track 57

     Filename C:\Documents and Settings\Student\Desktop\a1\Track57.bin

     Pre-gap length  0:00:01.74

     Peak level 100.0 %
     Track quality 100.0 %
     Test CRC C8966F5F
     Copy CRC C8966F5F
     Copy OK

Track 58

     Filename C:\Documents and Settings\Student\Desktop\a1\Track58.bin

     Pre-gap length  0:00:01.74

     Peak level 76.0 %
     Track quality 100.0 %
     Test CRC 9E8A0630
     Copy CRC 9E8A0630
     Copy OK

Track 59

     Filename C:\Documents and Settings\Student\Desktop\a1\Track59.bin

     Pre-gap length  0:00:01.74

     Peak level 61.8 %
     Track quality 100.0 %
     Test CRC 0E05E215
     Copy CRC 0E05E215
     Copy OK

Track 60

     Filename C:\Documents and Settings\Student\Desktop\a1\Track60.bin

     Peak level 21.8 %
     Track quality 100.0 %
     Test CRC 8DA28DED
     Copy CRC 8DA28DED
     Copy OK

Track 61

     Filename C:\Documents and Settings\Student\Desktop\a1\Track61.bin

     Pre-gap length  0:00:01.74

     Peak level 69.9 %
     Track quality 100.0 %
     Test CRC 633842D7
     Copy CRC 633842D7
     Copy OK

Track 62

     Filename C:\Documents and Settings\Student\Desktop\a1\Track62.bin

     Pre-gap length  0:00:01.74

     Peak level 67.6 %
     Track quality 100.0 %
     Test CRC 5ADE92CC
     Copy CRC 5ADE92CC
     Copy OK

Track 63

     Filename C:\Documents and Settings\Student\Desktop\a1\Track63.bin

     Pre-gap length  0:00:01.74

     Peak level 99.9 %
     Track quality 100.0 %
     Test CRC 5C4DD0E3
     Copy CRC 5C4DD0E3
     Copy OK

No errors occurred

End of status report
REM DISCID CF0FB53F
REM COMMENT "ExactAudioCopy v0.99pb3"
PERFORMER "Unknown Artist"
TITLE "Unknown Title"
FILE "<Filename>.iso" BINARY
  TRACK 01 MODEx/2xxx
    TITLE "Track01"
    PERFORMER "Unknown Artist"
    INDEX 01 00:00:00
FILE "Track02.wav" WAVE
  TRACK 02 AUDIO
    TITLE "Track02"
    PERFORMER "Unknown Artist"
    INDEX 00 00:00:00
    INDEX 01 00:01:00
FILE "Track03.wav" WAVE
  TRACK 03 AUDIO
    TITLE "Track03"
    PERFORMER "Unknown Artist"
    INDEX 00 00:00:00
    INDEX 01 00:01:74
FILE "Track04.wav" WAVE
  TRACK 04 AUDIO
    TITLE "Track04"
    PERFORMER "Unknown Artist"
    INDEX 00 00:00:00
    INDEX 01 00:01:74
FILE "Track05.wav" WAVE
  TRACK 05 AUDIO
    TITLE "Track05"
    PERFORMER "Unknown Artist"
    INDEX 00 00:00:00
    INDEX 01 00:01:74
FILE "Track06.wav" WAVE
  TRACK 06 AUDIO
    TITLE "Track06"
    PERFORMER "Unknown Artist"
    INDEX 00 00:00:00
    INDEX 01 00:01:74
FILE "Track07.wav" WAVE
  TRACK 07 AUDIO
    TITLE "Track07"
    PERFORMER "Unknown Artist"
    INDEX 01 00:00:00
FILE "Track08.wav" WAVE
  TRACK 08 AUDIO
    TITLE "Track08"
    PERFORMER "Unknown Artist"
    INDEX 00 00:00:00
    INDEX 01 00:01:74
FILE "Track09.wav" WAVE
  TRACK 09 AUDIO
    TITLE "Track09"
    PERFORMER "Unknown Artist"
    INDEX 00 00:00:00
    INDEX 01 00:01:74
FILE "Track10.wav" WAVE
  TRACK 10 AUDIO
    TITLE "Track10"
    PERFORMER "Unknown Artist"
    INDEX 00 00:00:00
    INDEX 01 00:01:74
FILE "Track11.wav" WAVE
  TRACK 11 AUDIO
    TITLE "Track11"
    PERFORMER "Unknown Artist"
    INDEX 00 00:00:00
    INDEX 01 00:01:74
FILE "Track12.wav" WAVE
  TRACK 12 AUDIO
    TITLE "Track12"
    PERFORMER "Unknown Artist"
    INDEX 00 00:00:00
    INDEX 01 00:01:74
FILE "Track13.wav" WAVE
  TRACK 13 AUDIO
    TITLE "Track13"
    PERFORMER "Unknown Artist"
    INDEX 00 00:00:00
    INDEX 01 00:01:74
FILE "Track14.wav" WAVE
  TRACK 14 AUDIO
    TITLE "Track14"
    PERFORMER "Unknown Artist"
    INDEX 00 00:00:00
    INDEX 01 00:01:74
FILE "Track15.wav" WAVE
  TRACK 15 AUDIO
    TITLE "Track15"
    PERFORMER "Unknown Artist"
    INDEX 00 00:00:00
    INDEX 01 00:01:73
FILE "Track16.wav" WAVE
  TRACK 16 AUDIO
    TITLE "Track16"
    PERFORMER "Unknown Artist"
    INDEX 01 00:00:00
FILE "Track17.wav" WAVE
  TRACK 17 AUDIO
    TITLE "Track17"
    PERFORMER "Unknown Artist"
    INDEX 00 00:00:00
    INDEX 01 00:01:74
FILE "Track18.wav" WAVE
  TRACK 18 AUDIO
    TITLE "Track18"
    PERFORMER "Unknown Artist"
    INDEX 00 00:00:00
    INDEX 01 00:01:74
FILE "Track19.wav" WAVE
  TRACK 19 AUDIO
    TITLE "Track19"
    PERFORMER "Unknown Artist"
    INDEX 00 00:00:00
    INDEX 01 00:01:74
FILE "Track20.wav" WAVE
  TRACK 20 AUDIO
    TITLE "Track20"
    PERFORMER "Unknown Artist"
    INDEX 00 00:00:00
    INDEX 01 00:01:74
FILE "Track21.wav" WAVE
  TRACK 21 AUDIO
    TITLE "Track21"
    PERFORMER "Unknown Artist"
    INDEX 00 00:00:00
    INDEX 01 00:01:73
FILE "Track22.wav" WAVE
  TRACK 22 AUDIO
    TITLE "Track22"
    PERFORMER "Unknown Artist"
    INDEX 01 00:00:00
FILE "Track23.wav" WAVE
  TRACK 23 AUDIO
    TITLE "Track23"
    PERFORMER "Unknown Artist"
    INDEX 00 00:00:00
    INDEX 01 00:01:74
FILE "Track24.wav" WAVE
  TRACK 24 AUDIO
    TITLE "Track24"
    PERFORMER "Unknown Artist"
    INDEX 00 00:00:00
    INDEX 01 00:01:74
FILE "Track25.wav" WAVE
  TRACK 25 AUDIO
    TITLE "Track25"
    PERFORMER "Unknown Artist"
    INDEX 00 00:00:00
    INDEX 01 00:01:74
FILE "Track26.wav" WAVE
  TRACK 26 AUDIO
    TITLE "Track26"
    PERFORMER "Unknown Artist"
    INDEX 01 00:00:00
FILE "Track27.wav" WAVE
  TRACK 27 AUDIO
    TITLE "Track27"
    PERFORMER "Unknown Artist"
    INDEX 00 00:00:00
    INDEX 01 00:01:74
FILE "Track28.wav" WAVE
  TRACK 28 AUDIO
    TITLE "Track28"
    PERFORMER "Unknown Artist"
    INDEX 00 00:00:00
    INDEX 01 00:01:74
FILE "Track29.wav" WAVE
  TRACK 29 AUDIO
    TITLE "Track29"
    PERFORMER "Unknown Artist"
    INDEX 00 00:00:00
    INDEX 01 00:01:74
FILE "Track30.wav" WAVE
  TRACK 30 AUDIO
    TITLE "Track30"
    PERFORMER "Unknown Artist"
    INDEX 00 00:00:00
    INDEX 01 00:01:74
FILE "Track31.wav" WAVE
  TRACK 31 AUDIO
    TITLE "Track31"
    PERFORMER "Unknown Artist"
    INDEX 00 00:00:00
    INDEX 01 00:01:74
FILE "Track32.wav" WAVE
  TRACK 32 AUDIO
    TITLE "Track32"
    PERFORMER "Unknown Artist"
    INDEX 00 00:00:00
    INDEX 01 00:01:74
FILE "Track33.wav" WAVE
  TRACK 33 AUDIO
    TITLE "Track33"
    PERFORMER "Unknown Artist"
    INDEX 00 00:00:00
    INDEX 01 00:01:74
FILE "Track34.wav" WAVE
  TRACK 34 AUDIO
    TITLE "Track34"
    PERFORMER "Unknown Artist"
    INDEX 00 00:00:00
    INDEX 01 00:01:74
FILE "Track35.wav" WAVE
  TRACK 35 AUDIO
    TITLE "Track35"
    PERFORMER "Unknown Artist"
    INDEX 00 00:00:00
    INDEX 01 00:01:74
FILE "Track36.wav" WAVE
  TRACK 36 AUDIO
    TITLE "Track36"
    PERFORMER "Unknown Artist"
    INDEX 00 00:00:00
    INDEX 01 00:01:74
FILE "Track37.wav" WAVE
  TRACK 37 AUDIO
    TITLE "Track37"
    PERFORMER "Unknown Artist"
    INDEX 00 00:00:00
    INDEX 01 00:01:74
FILE "Track38.wav" WAVE
  TRACK 38 AUDIO
    TITLE "Track38"
    PERFORMER "Unknown Artist"
    INDEX 00 00:00:00
    INDEX 01 00:01:74
FILE "Track39.wav" WAVE
  TRACK 39 AUDIO
    TITLE "Track39"
    PERFORMER "Unknown Artist"
    INDEX 00 00:00:00
    INDEX 01 00:01:74
FILE "Track40.wav" WAVE
  TRACK 40 AUDIO
    TITLE "Track40"
    PERFORMER "Unknown Artist"
    INDEX 00 00:00:00
    INDEX 01 00:01:74
FILE "Track41.wav" WAVE
  TRACK 41 AUDIO
    TITLE "Track41"
    PERFORMER "Unknown Artist"
    INDEX 00 00:00:00
    INDEX 01 00:01:74
FILE "Track42.wav" WAVE
  TRACK 42 AUDIO
    TITLE "Track42"
    PERFORMER "Unknown Artist"
    INDEX 00 00:00:00
    INDEX 01 00:01:74
FILE "Track43.wav" WAVE
  TRACK 43 AUDIO
    TITLE "Track43"
    PERFORMER "Unknown Artist"
    INDEX 00 00:00:00
    INDEX 01 00:01:74
FILE "Track44.wav" WAVE
  TRACK 44 AUDIO
    TITLE "Track44"
    PERFORMER "Unknown Artist"
    INDEX 00 00:00:00
    INDEX 01 00:01:74
FILE "Track45.wav" WAVE
  TRACK 45 AUDIO
    TITLE "Track45"
    PERFORMER "Unknown Artist"
    INDEX 00 00:00:00
    INDEX 01 00:01:73
FILE "Track46.wav" WAVE
  TRACK 46 AUDIO
    TITLE "Track46"
    PERFORMER "Unknown Artist"
    INDEX 01 00:00:00
FILE "Track47.wav" WAVE
  TRACK 47 AUDIO
    TITLE "Track47"
    PERFORMER "Unknown Artist"
    INDEX 00 00:00:00
    INDEX 01 00:01:73
FILE "Track48.wav" WAVE
  TRACK 48 AUDIO
    TITLE "Track48"
    PERFORMER "Unknown Artist"
    INDEX 01 00:00:00
FILE "Track49.wav" WAVE
  TRACK 49 AUDIO
    TITLE "Track49"
    PERFORMER "Unknown Artist"
    INDEX 00 00:00:00
    INDEX 01 00:01:74
FILE "Track50.wav" WAVE
  TRACK 50 AUDIO
    TITLE "Track50"
    PERFORMER "Unknown Artist"
    INDEX 00 00:00:00
    INDEX 01 00:01:73
FILE "Track51.wav" WAVE
  TRACK 51 AUDIO
    TITLE "Track51"
    PERFORMER "Unknown Artist"
    INDEX 00 00:00:00
    INDEX 01 00:01:74
FILE "Track52.wav" WAVE
  TRACK 52 AUDIO
    TITLE "Track52"
    PERFORMER "Unknown Artist"
    INDEX 00 00:00:00
    INDEX 01 00:01:74
FILE "Track53.wav" WAVE
  TRACK 53 AUDIO
    TITLE "Track53"
    PERFORMER "Unknown Artist"
    INDEX 00 00:00:00
    INDEX 01 00:01:74
FILE "Track54.wav" WAVE
  TRACK 54 AUDIO
    TITLE "Track54"
    PERFORMER "Unknown Artist"
    INDEX 00 00:00:00
    INDEX 01 00:01:74
FILE "Track55.wav" WAVE
  TRACK 55 AUDIO
    TITLE "Track55"
    PERFORMER "Unknown Artist"
    INDEX 00 00:00:00
    INDEX 01 00:01:74
FILE "Track56.wav" WAVE
  TRACK 56 AUDIO
    TITLE "Track56"
    PERFORMER "Unknown Artist"
    INDEX 00 00:00:00
    INDEX 01 00:01:74
FILE "Track57.wav" WAVE
  TRACK 57 AUDIO
    TITLE "Track57"
    PERFORMER "Unknown Artist"
    INDEX 00 00:00:00
    INDEX 01 00:01:74
FILE "Track58.wav" WAVE
  TRACK 58 AUDIO
    TITLE "Track58"
    PERFORMER "Unknown Artist"
    INDEX 00 00:00:00
    INDEX 01 00:01:74
FILE "Track59.wav" WAVE
  TRACK 59 AUDIO
    TITLE "Track59"
    PERFORMER "Unknown Artist"
    INDEX 00 00:00:00
    INDEX 01 00:01:74
FILE "Track60.wav" WAVE
  TRACK 60 AUDIO
    TITLE "Track60"
    PERFORMER "Unknown Artist"
    INDEX 01 00:00:00
FILE "Track61.wav" WAVE
  TRACK 61 AUDIO
    TITLE "Track61"
    PERFORMER "Unknown Artist"
    INDEX 00 00:00:00
    INDEX 01 00:01:74
FILE "Track62.wav" WAVE
  TRACK 62 AUDIO
    TITLE "Track62"
    PERFORMER "Unknown Artist"
    INDEX 00 00:00:00
    INDEX 01 00:01:74
FILE "Track63.wav" WAVE
  TRACK 63 AUDIO
    TITLE "Track63"
    PERFORMER "Unknown Artist"
    INDEX 00 00:00:00
    INDEX 01 00:01:74

What's the likely hood of EAC only being wrong on 1 track?

Three years and still going strong.

Re: Correcting pre-gap manually

I was getting only a 1 frame difference with different drives but 75 frames seems too much for EAC to miss...

5 (edited by gigadeath 2007-12-29 01:49:38)

Re: Correcting pre-gap manually

pepsidrinker wrote:

What's the likely hood of EAC only being wrong on 1 track?

Sadly it is more than likely, especially for track2 gap detection, sometimes out of 4 drives you get 3 different results!

But you said "I went to 150 sectors and that was the right one", so the pregap should be the common 2.00 one.

You could do as I did with a couple Sega CD games before getting PerfectRip, you can dump track2 in EAC using the "Leave out gaps" option instead of "Append to next track", and then manually adding a 2.00 pregap with psxt001z. Still you have to clearly state in the dumping comments that you dumped track2 that way, so we'll know why an eventual redump won't match (my Sega CD dumps were fine and confirmed by both Themabus and later PerfectRip redumps).

PerfectRip doesn't work on your drive? I discovered that PerfectRip doesn't strictly need a Plextor, it depends on how strange the CD layout is, for example strange Japanese Sega CD discs with absurd offsets require a Plextor, but I can dump standard PC games with my LG drive if they have regular offsets and gaps. Keep in my that PerfectRip doesn't always get track2 pregap always correct either, sometimes I get 0.00 pregap when it's 2.00.

Re: Correcting pre-gap manually

ssjkakaroto wrote:

I was getting only a 1 frame difference with different drives but 75 frames seems too much for EAC to miss...

You have a PX-W2410, use PerfectRip to dump with it. I had major problem with EAC dumping Vay and Shining Force CD, the gaps were horrible, 2.01, 2.02 etc, while with PerfectRip I got the regular 2.00 and 1.74 gaps.

7 (edited by pepsidrinker 2007-12-29 02:49:17)

Re: Correcting pre-gap manually

gigadeath are you saying since the track 02 was really 2 seconds that the rest should be also?

I also emailed you.

I know track 2 is 2 seconds, it's the other tracks I am worried about.

I used resize on track 1 as if there was 2 second pregap and there was no errors if I took stuff out that was supposed to be in track 1 wouldn't I have gotten an error in cdmage?

Three years and still going strong.

8 (edited by gigadeath 2007-12-29 02:52:22)

Re: Correcting pre-gap manually

pepsidrinker wrote:

gigadeath are you saying since the track 02 was really 2 seconds that the rest should be also?

I also emailed you.

No! I only said that track2 should have 2.00 pregap because you said that the end of the data track was 150 sectors back instead of 75 sectors back like EAC reports (isn't it what you said?)

The following audio tracks can have a different pregap than 2.00. I see many 1.74 and a few 1.73 in your dump, it would be better to double-check with PerfectRip, if you can't use PerfectRip then we have to keep EAC pregaps.

Re: Correcting pre-gap manually

Ah ok, yeah that's what I said I am sorry for the confusion. My dump has the 1 second pregap no? so I should redump that like you said without pregap and add it with psxt001z?

Three years and still going strong.

Re: Correcting pre-gap manually

First try PerfectRip. If the results match EAC's, then we have to keep them. The only gap we can correct with fair accuracy is track2 pregap, we depend on dumping programs for the following audio track pregaps.

Re: Correcting pre-gap manually

Perfectrip unfortunately didn't work. I dumped track 02 without pregap so how do I use psxt001z to add the pregap to track 02? I looked in the options for it and didn't see anything for pregap.

Three years and still going strong.

Re: Correcting pre-gap manually

pepsidrinker wrote:

how do I use psxt001z to add the pregap to track 02?

for a 2 sec gap use: psxt001z --gen pregap.bin 352800
and then: copy /b pregap.bin+track02.bin newtrack02.bin to add the pregap to Track02.

Re: Correcting pre-gap manually

Thanks that worked.

Three years and still going strong.