CD 1

Match: http://redump.org/disc/18316/
Logs: https://drive.google.com/open?id=1-2wrb … bDPljJw0a9

Common Disc Info:
    Title: Myst III: Exile
    Foreign Title (Non-latin): 
    Disc Number / Letter: 1
    Disc Title: (OPTIONAL)
    System: IBM PC Compatible
    Media Type: CD-ROM
    Category: Games
    Matching IDs: 18316
    Region: Europe
    Languages: English
    Disc Serial: (REQUIRED, IF EXISTS)

    Ringcode Information:
        Mastering Code (laser branded/etched): MPO    5053645CD1 25 JUL 01 @@    P01    20010725 1417 @@ 4
        Mastering SID Code: IFPI L032
        Data-Side Mould SID Code: IFPI 1236
        Label-Side Mould SID Code: (REQUIRED, IF EXISTS)
        Additional Mould: (REQUIRED, IF EXISTS)
        Toolstamp or Mastering Code (engraved/stamped): 03
    Barcode: 3 307212 312585
    Error Count: 584
    Comments: For Windows & Macintosh
    Contents: (OPTIONAL)

Version and Editions:
    Version: 1.2
    Edition/Release: Original

Extras:
    Primary Volume Descriptor (PVD):

0320 : 20 20 20 20 20 20 20 20  20 20 20 20 20 32 30 30                200
0330 : 31 30 37 31 34 31 31 34  38 31 36 30 30 00 32 30   1071411481600.20
0340 : 30 31 30 37 31 34 31 31  34 39 32 35 30 30 00 00   01071411492500..
0350 : 00 00 00 00 00 00 00 00  00 00 00 00 00 00 00 00   ................
0360 : 00 00 00 00 00 00 00 00  00 00 00 00 00 00 00 00   ................
0370 : 00 01 00 00 00 00 00 00  00 00 00 00 00 00 00 00   ................

Copy Protection:
    Copy Protection:

J:\: SafeDisc 1.5x-2.40
J:\00000001.TMP: SafeDisc 1 or greater
J:\00000409.016: SafeDisc 1
J:\00000409.256: SafeDisc 1
J:\M3.exe: SafeDisc 2.30.031
J:\data1.hdr: CD Check, CD Check
J:\drvmgt.dll: SafeDisc 1.5x-2.40
J:\secdrv.sys: SafeDisc 2.30

Tracks and Write Offsets:
    DAT:

<rom name="EXILE_DISC_1.bin" size="750059856" crc="7d52db28" md5="2ffff18f98910ccbc3d7d7761a18d09b" sha1="f9dcbf59973109bf858560186f9fd98087d54e5e" />

    Cuesheet:

FILE "EXILE_DISC_1.bin" BINARY
  TRACK 01 MODE1/2352
    INDEX 01 00:00:00

    Write Offset: -12

CD 2

Match: http://redump.org/disc/18317/
Logs: https://drive.google.com/open?id=1KSi16 … xDD9FRcl2Y

Common Disc Info:
    Title: Myst III: Exile
    Foreign Title (Non-latin): 
    Disc Number / Letter: 2
    Disc Title: (OPTIONAL)
    System: IBM PC Compatible
    Media Type: CD-ROM
    Category: Games
    Matching IDs: 18317
    Region: Europe
    Languages: English
    Disc Serial: (REQUIRED, IF EXISTS)

    Ringcode Information:
        Mastering Code (laser branded/etched): MPO    5053645CD2 24 JUL 01 @@    20010724 2139 @@ 4
        Mastering SID Code: IFPI L032
        Data-Side Mould SID Code: IFPI 1222
        Label-Side Mould SID Code: (REQUIRED, IF EXISTS)
        Additional Mould: (REQUIRED, IF EXISTS)
        Toolstamp or Mastering Code (engraved/stamped): 01
    Barcode: 3 307212 312585
    Error Count: 0
    Comments: For Windows & Macintosh
    Contents: (OPTIONAL)

Version and Editions:
    Version: 1.2
    Edition/Release: Original

Extras:
    Primary Volume Descriptor (PVD):

0320 : 20 20 20 20 20 20 20 20  20 20 20 20 20 32 30 30                200
0330 : 31 30 37 31 34 31 30 35  32 35 36 30 30 00 32 30   1071410525600.20
0340 : 30 31 30 37 31 34 31 30  35 33 32 34 30 30 00 00   01071410532400..
0350 : 00 00 00 00 00 00 00 00  00 00 00 00 00 00 00 00   ................
0360 : 00 00 00 00 00 00 00 00  00 00 00 00 00 00 00 00   ................
0370 : 00 01 00 00 00 00 00 00  00 00 00 00 00 00 00 00   ................

Copy Protection:
    Copy Protection: None found

Tracks and Write Offsets:
    DAT:

<rom name="MYST3_EXILE_DISC_2.bin" size="706834800" crc="d25e0595" md5="cab619e9bdb96922e0be8a48dce18abf" sha1="d25fcfe0a3b4d6543e8ed7ee9637d180834289cc" />

    Cuesheet:

FILE "MYST3_EXILE_DISC_2.bin" BINARY
  TRACK 01 MODE1/2352
    INDEX 01 00:00:00

    Write Offset: -12

CD 3

Match: http://redump.org/disc/18320/
Logs: https://drive.google.com/open?id=1Vc4zC … 39r4KP8VrY

Common Disc Info:
    Title: Myst III: Exile
    Foreign Title (Non-latin): 
    Disc Number / Letter: 3
    Disc Title: (OPTIONAL)
    System: IBM PC Compatible
    Media Type: CD-ROM
    Category: Games
    Matching IDs: 18320
    Region: Europe
    Languages: English
    Disc Serial: (REQUIRED, IF EXISTS)

    Ringcode Information:
        Mastering Code (laser branded/etched): MPO    5053645CD3 24 JUL 01 @@    20010724 2207 @@ 4
        Mastering SID Code: IFPI L032
        Data-Side Mould SID Code: IFPI 1206
        Label-Side Mould SID Code: (REQUIRED, IF EXISTS)
        Additional Mould: (REQUIRED, IF EXISTS)
        Toolstamp or Mastering Code (engraved/stamped): 02
    Barcode: 3 307212 312585
    Error Count: 0
    Comments: For Windows & Macintosh
    Contents: (OPTIONAL)

Version and Editions:
    Version: 1.2
    Edition/Release: Original

Extras:
    Primary Volume Descriptor (PVD):

0320 : 20 20 20 20 20 20 20 20  20 20 20 20 20 32 30 30                200
0330 : 31 30 37 31 34 31 31 30  33 32 37 30 30 00 32 30   1071411032700.20
0340 : 30 31 30 37 31 34 31 31  30 33 35 32 30 30 00 00   01071411035200..
0350 : 00 00 00 00 00 00 00 00  00 00 00 00 00 00 00 00   ................
0360 : 00 00 00 00 00 00 00 00  00 00 00 00 00 00 00 00   ................
0370 : 00 01 00 00 00 00 00 00  00 00 00 00 00 00 00 00   ................

Copy Protection:
    Copy Protection: None found

Tracks and Write Offsets:
    DAT:

<rom name="MYST3_EXILE_DISC_3.bin" size="747830160" crc="ed49ccde" md5="09aa2b3e1fd84af898a2fdfd5f1f3c3a" sha1="113253178eb8861d04f976b720f1e17d8274f429" />

    Cuesheet:

FILE "MYST3_EXILE_DISC_3.bin" BINARY
  TRACK 01 MODE1/2352
    INDEX 01 00:00:00

    Write Offset: -12

CD 4

Match: http://redump.org/disc/18322/
Logs: https://drive.google.com/open?id=1bk_zk … t8VUT5_dT0

Common Disc Info:
    Title: Myst III: Exile
    Foreign Title (Non-latin): 
    Disc Number / Letter: 4
    Disc Title: (OPTIONAL)
    System: IBM PC Compatible
    Media Type: CD-ROM
    Category: Games
    Matching IDs: 18322
    Region: Europe
    Languages: English
    Disc Serial: (REQUIRED, IF EXISTS)

    Ringcode Information:
        Mastering Code (laser branded/etched): MPO    5053645CD4 24 JUL 01 @@@    20010724 2140 @@@ 4
        Mastering SID Code: IFPI L033
        Data-Side Mould SID Code: IFPI 1224
        Label-Side Mould SID Code: (REQUIRED, IF EXISTS)
        Additional Mould: (REQUIRED, IF EXISTS)
        Toolstamp or Mastering Code (engraved/stamped): 01
    Barcode: 3 307212 312585
    Error Count: 0
    Comments: For Windows & Macintosh
    Contents: (OPTIONAL)

Version and Editions:
    Version: 1.2
    Edition/Release: Original

Extras:
    Primary Volume Descriptor (PVD):

0320 : 20 20 20 20 20 20 20 20  20 20 20 20 20 32 30 30                200
0330 : 31 30 37 31 34 31 31 31  39 31 34 30 30 00 32 30   1071411191400.20
0340 : 30 31 30 37 31 34 31 31  31 39 35 32 30 30 00 00   01071411195200..
0350 : 00 00 00 00 00 00 00 00  00 00 00 00 00 00 00 00   ................
0360 : 00 00 00 00 00 00 00 00  00 00 00 00 00 00 00 00   ................
0370 : 00 01 00 00 00 00 00 00  00 00 00 00 00 00 00 00   ................

Copy Protection:
    Copy Protection: None found

Tracks and Write Offsets:
    DAT:

<rom name="MYST3_EXILE_DISC_4.bin" size="568835904" crc="5363c092" md5="eae2dc3a76ac6b29f41add281566ce1d" sha1="d790652f4d3b0ca1e090a0ee4e88e5dab2ec104b" />

    Cuesheet:

FILE "MYST3_EXILE_DISC_4.bin" BINARY
  TRACK 01 MODE1/2352
    INDEX 01 00:00:00

    Write Offset: -12