Match: http://redump.org/disc/62721/
Logs: https://drive.google.com/open?id=1yp083 … PwPbgOw8r5

Common Disc Info:
    Title: G-Police
    Foreign Title (Non-latin): 
    Disc Number / Letter: (OPTIONAL)
    Disc Title: (OPTIONAL)
    System: IBM PC Compatible
    Media Type: CD-ROM
    Category: Games
    Matching IDs: 62721
    Region: Europe
    Languages: English
    Disc Serial: 1713320366

    Ringcode Information:
        Mastering Code (laser branded/etched): DADC AUSTRIA    A0100240677-0101    24
        Mastering SID Code: IFPI L554
        Data-Side Mould SID Code: IFPI 94V5
        Label-Side Mould SID Code: (REQUIRED, IF EXISTS)
        Additional Mould: (REQUIRED, IF EXISTS)
        Toolstamp or Mastering Code (engraved/stamped): A4
    Barcode: (OPTIONAL)
    Error Count: 1
    Comments: Last data track sector contains ECC.
    Contents: (OPTIONAL)

Version and Editions:
    Version: 1.19
    Edition/Release: Bundle Version Creative Labs OEM

Extras:
    Primary Volume Descriptor (PVD):

0320 : 20 20 20 20 20 20 20 20  20 20 20 20 20 31 39 39                199
0330 : 37 31 31 31 39 30 32 30  30 30 30 30 30 24 30 30   7111902000000$00
0340 : 30 30 30 30 30 30 30 30  30 30 30 30 30 30 00 30   00000000000000.0
0350 : 30 30 30 30 30 30 30 30  30 30 30 30 30 30 30 00   000000000000000.
0360 : 30 30 30 30 30 30 30 30  30 30 30 30 30 30 30 30   0000000000000000
0370 : 00 01 00 00 00 00 00 00  00 00 00 00 00 00 00 00   ................

Copy Protection:
    Copy Protection: 

Tracks and Write Offsets:
    DAT:

<rom name="G_POLICE (Track 01).bin" size="593762400" crc="4ba80573" md5="b3a598afd27e875719725660bfeece66" sha1="d7a786cf461598f9f6d8d1e6d87a96e09692fe87" />
<rom name="G_POLICE (Track 02).bin" size="10929744" crc="2130981e" md5="4a2f94365690d1e677edd6b1f0bfc45e" sha1="faece86cee40fa62edc8fc85cbe48f2150557619" />
<rom name="G_POLICE (Track 03).bin" size="5294352" crc="42a7b579" md5="b549cc74b0c19eedaf557a08bf341bb6" sha1="6ad10b746c1333e766a6d6041411e5c4b7dc2eed" />
<rom name="G_POLICE (Track 04).bin" size="7152432" crc="5ba6e2c0" md5="0c923dc9042eabe7e03f901b4c95f46f" sha1="c29c35d0680b45472df5ba218130f13bebd4b64a" />
<rom name="G_POLICE (Track 05).bin" size="23284800" crc="cc88c1bc" md5="2d03c84d68f4f94fe08799b792fd0d65" sha1="d06bed076c764525bfd8acee3f52e86bf1b20e98" />
<rom name="G_POLICE (Track 06).bin" size="23284800" crc="d586dc03" md5="a62268c3074e13d5823d5218a755c041" sha1="e5e1308bb475ab5d627b2676ed2ed7664c6fe68a" />
<rom name="G_POLICE (Track 07).bin" size="23284800" crc="d4f9f537" md5="902f4ddec0aea0f43c46b604159c8017" sha1="2f61b8f2603063c0e95f0741fa60c68e2689ba93" />
<rom name="G_POLICE (Track 08).bin" size="23287152" crc="d5ca39b5" md5="ee7b09c34e5a72a2e988f7f1f9fa8762" sha1="f10dfe8d3e1835c6f018b02fc6def688d24d497f" />
<rom name="G_POLICE (Track 09).bin" size="23284800" crc="77d4c6c2" md5="b2e93cd160adaf128509cefc767bfbe1" sha1="0c269b917cfbd914893c57504c59ae925d6d6c6c" />
<rom name="G_POLICE (Track 10).bin" size="23284800" crc="4de5219d" md5="d0dcc46d6b640b16087bf36929ad288d" sha1="34547d88d599255356b53b1b0710688e831509d7" />
<rom name="G_POLICE (Track 11).bin" size="25051152" crc="89d26609" md5="afa659affce1be1e2cef23958c068477" sha1="d9edaf344318674d86e493bebe862b4e65456929" />

    Cuesheet:

FILE "G_POLICE (Track 01).bin" BINARY
  TRACK 01 MODE2/2352
    INDEX 01 00:00:00
FILE "G_POLICE (Track 02).bin" BINARY
  TRACK 02 AUDIO
    INDEX 00 00:00:00
    INDEX 01 00:02:00
FILE "G_POLICE (Track 03).bin" BINARY
  TRACK 03 AUDIO
    INDEX 00 00:00:00
    INDEX 01 00:02:00
FILE "G_POLICE (Track 04).bin" BINARY
  TRACK 04 AUDIO
    INDEX 00 00:00:00
    INDEX 01 00:02:00
FILE "G_POLICE (Track 05).bin" BINARY
  TRACK 05 AUDIO
    INDEX 00 00:00:00
    INDEX 01 00:02:00
FILE "G_POLICE (Track 06).bin" BINARY
  TRACK 06 AUDIO
    INDEX 00 00:00:00
    INDEX 01 00:02:00
FILE "G_POLICE (Track 07).bin" BINARY
  TRACK 07 AUDIO
    INDEX 00 00:00:00
    INDEX 01 00:02:00
FILE "G_POLICE (Track 08).bin" BINARY
  TRACK 08 AUDIO
    INDEX 00 00:00:00
    INDEX 01 00:02:00
FILE "G_POLICE (Track 09).bin" BINARY
  TRACK 09 AUDIO
    INDEX 00 00:00:00
    INDEX 01 00:02:00
FILE "G_POLICE (Track 10).bin" BINARY
  TRACK 10 AUDIO
    INDEX 00 00:00:00
    INDEX 01 00:02:00
FILE "G_POLICE (Track 11).bin" BINARY
  TRACK 11 AUDIO
    INDEX 00 00:00:00
    INDEX 01 00:02:00

    Write Offset: -22