1 (edited by Parotaku 2019-06-20 06:51:17)

Title: Dimo's Quest
Disc Number / Letter: (OPTIONAL)
Disc Title: (OPTIONAL)
System: Philips CD-i
Media Type: CD-ROM
Category: Games
Region: US
Languages: English
Disc Serial: 310690063-2
Ringcode Information:
    Mastering Code (laser branded/etched): 06320805 02!
    Mastering SID Code: (REQUIRED, IF EXISTS)
    Data-Side Mould SID Code: IFPI 0354
    Label-Side Mould SID Code: (REQUIRED, IF EXISTS)
    Additional Mould: MADE IN USA BY PMDC
    Toolstamp or Mastering Code (engraved/stamped): (REQUIRED, IF EXISTS)
Barcode: 731069006329
Error Count: 9001
Comments: (OPTIONAL)
Contents: (OPTIONAL)
Version: (REQUIRED, IF EXISTS)
Edition/Release: Original
Primary Volume Descriptor (PVD):

Disc has no PVD
DAT:

<rom name="Disc Not Detected (Track 01).bin" size="189806400" crc="5772dbc6" md5="e5f2972c6dace6269f81f8dd29add053" sha1="12ea5afd71aef2f796f44afcd5f6edc2dd307a22" />
<rom name="Disc Not Detected (Track 02).bin" size="30870000" crc="fdaff865" md5="9e8c877a64a770b701f32a9532761bdf" sha1="5fd5f1b2fc299e5abed5bd0a3d0f7b37a5aeb6c0" />
<rom name="Disc Not Detected (Track 03).bin" size="35280000" crc="59440a0a" md5="9a59e580ef83ac3e44f70710a3a8ce39" sha1="8d789a56eb9f1193e98ea5328eff50a9aba34654" />
<rom name="Disc Not Detected (Track 04).bin" size="34750800" crc="a4c65214" md5="53789af98d07931c462a3793d77071b3" sha1="85fcb71cb85c829d990ed7f0de443cf27110db47" />
<rom name="Disc Not Detected (Track 05).bin" size="36338400" crc="1518436d" md5="34a5705019ea8d6e53d92ec3e1171bb5" sha1="5105b137a56e58cdd841bad07c4efb2fc5b86b43" />
<rom name="Disc Not Detected (Track 06).bin" size="39513600" crc="a27edf88" md5="a95d52dbaf0d527a1bacbca11c7b3771" sha1="48789fcddd173c8e16a6b995aa2139c061c9d067" />
<rom name="Disc Not Detected (Track 07).bin" size="31399200" crc="8732976c" md5="f10377a762ca29b5efaf656f4faca047" sha1="2b2e4a9d5a6322efd03063e2a9697fa0d16dcc89" />
<rom name="Disc Not Detected (Track 08).bin" size="33516000" crc="6a688ff8" md5="026799e12ce5af253efdb9908203d047" sha1="9ecbcb146b26c364cce8f5ecf9a0997916827469" />
<rom name="Disc Not Detected (Track 09).bin" size="33692400" crc="bd767233" md5="0d74cf4617c78839822f650e482a11f7" sha1="29694ec79e97a40598ef2f14cb7619b7746e26cf" />
<rom name="Disc Not Detected (Track 10).bin" size="41806800" crc="9da6bdc7" md5="f81335424af022d61a81cd4624db20b4" sha1="7a705b457fabf037b6db3f481866dcd87450afc1" />
<rom name="Disc Not Detected (Track 11).bin" size="5644800" crc="71da963b" md5="d5fa915a1fa57a3024ac87f8ef10721b" sha1="26c7ae77bae2998690aac4e98320b8d068f8b37a" />
<rom name="Disc Not Detected (Track 12).bin" size="11113200" crc="6181f764" md5="38c44ca1dcd0fd5700751664f8862797" sha1="07d871017b93203130e01f1f85d924b5e56014a6" />
<rom name="Disc Not Detected (Track 13).bin" size="13053600" crc="48e03211" md5="72dc0c30f07db300b1095975de2710f2" sha1="64155d6348cc1d9936413403dbcd2260721b3800" />
<rom name="Disc Not Detected (Track 14).bin" size="6174000" crc="5e2e198a" md5="cae18fa0744ba79204db5e1ddfa87dfe" sha1="a7fa2a749eb7e063867580a558e1f63ed5779ad5" />
<rom name="Disc Not Detected (Track 15).bin" size="4762800" crc="676b62db" md5="9a47646590aa46c40fab073ba675ed5d" sha1="8734ebfa59695c415d8ff0e413999faef6aadfa2" />
<rom name="Disc Not Detected (Track 16).bin" size="10936800" crc="121891d2" md5="5c446f1bf8f71d546c6e3fa6f384ca64" sha1="354393f85b62e2a0e48cc10b3482ee4bd2966a71" />
<rom name="Disc Not Detected (Track 17).bin" size="24696000" crc="4b8ca71a" md5="e3504487838354bbd8abcb99a0b8d499" sha1="5502ebf5ebcaab106e0f075057c60e77c2500b21" />
<rom name="Disc Not Detected (Track 18).bin" size="6703200" crc="20c4209d" md5="b03d13636d7a8311c92b8cd001f24b0b" sha1="920493b6b4ecb210946b1b3993896673d1f319d6" />
<rom name="Disc Not Detected (Track 19).bin" size="16405200" crc="fed2e752" md5="a104ac77ff1aa98f2f74b09902d3069e" sha1="cb6e4205d2ded714304874f300b8667d04235c8f" />

Cuesheet:

CATALOG 0000000000000
FILE "Disc Not Detected (Track 01).bin" BINARY
  TRACK 01 CDI/2352
    INDEX 00 00:00:00
    INDEX 01 16:42:00
FILE "Disc Not Detected (Track 02).bin" BINARY
  TRACK 02 AUDIO
    INDEX 00 00:00:00
    INDEX 01 00:02:00
FILE "Disc Not Detected (Track 03).bin" BINARY
  TRACK 03 AUDIO
    INDEX 00 00:00:00
    INDEX 01 00:02:00
FILE "Disc Not Detected (Track 04).bin" BINARY
  TRACK 04 AUDIO
    INDEX 00 00:00:00
    INDEX 01 00:02:00
FILE "Disc Not Detected (Track 05).bin" BINARY
  TRACK 05 AUDIO
    INDEX 00 00:00:00
    INDEX 01 00:02:00
FILE "Disc Not Detected (Track 06).bin" BINARY
  TRACK 06 AUDIO
    INDEX 00 00:00:00
    INDEX 01 00:02:00
FILE "Disc Not Detected (Track 07).bin" BINARY
  TRACK 07 AUDIO
    INDEX 00 00:00:00
    INDEX 01 00:02:00
FILE "Disc Not Detected (Track 08).bin" BINARY
  TRACK 08 AUDIO
    INDEX 00 00:00:00
    INDEX 01 00:02:00
FILE "Disc Not Detected (Track 09).bin" BINARY
  TRACK 09 AUDIO
    INDEX 00 00:00:00
    INDEX 01 00:02:00
FILE "Disc Not Detected (Track 10).bin" BINARY
  TRACK 10 AUDIO
    INDEX 00 00:00:00
    INDEX 01 00:02:00
FILE "Disc Not Detected (Track 11).bin" BINARY
  TRACK 11 AUDIO
    INDEX 00 00:00:00
    INDEX 01 00:02:00
FILE "Disc Not Detected (Track 12).bin" BINARY
  TRACK 12 AUDIO
    INDEX 00 00:00:00
    INDEX 01 00:02:00
FILE "Disc Not Detected (Track 13).bin" BINARY
  TRACK 13 AUDIO
    INDEX 00 00:00:00
    INDEX 01 00:02:00
FILE "Disc Not Detected (Track 14).bin" BINARY
  TRACK 14 AUDIO
    INDEX 00 00:00:00
    INDEX 01 00:02:00
FILE "Disc Not Detected (Track 15).bin" BINARY
  TRACK 15 AUDIO
    INDEX 00 00:00:00
    INDEX 01 00:02:00
FILE "Disc Not Detected (Track 16).bin" BINARY
  TRACK 16 AUDIO
    INDEX 00 00:00:00
    INDEX 01 00:02:00
FILE "Disc Not Detected (Track 17).bin" BINARY
  TRACK 17 AUDIO
    INDEX 00 00:00:00
    INDEX 01 00:02:00
FILE "Disc Not Detected (Track 18).bin" BINARY
  TRACK 18 AUDIO
    INDEX 00 00:00:00
    INDEX 01 00:02:00
FILE "Disc Not Detected (Track 19).bin" BINARY
  TRACK 19 AUDIO
    INDEX 00 00:00:00
    INDEX 01 00:02:00

Write Offset: 0

NOTE:
Thanks Sarami for DIC modifications to dump this game.

Can this be added too?

Yes, thanks... That would be nice!

I think it is dumped wrong due to incorrect DIC way of handling the CD-i Ready discs, can't be added as is (we're treating them as audio discs with all the data scrambled, these checksums are for descrambled data, as I understand).

Track 01 of Europe version has real audio track.

LBA[000000, 0000000]: P[ff], Q[010100164200000002006af5]{Audio, 2ch, Copy NG, Pre-emphasis No, Track[01], Idx[00], RMSF[16:42:00], AMSF[00:02:00]}, RtoW[0, 0, 0, 0]
LBA[000001, 0x00001]: P[ff], Q[0101001641740000020120b4]{Audio, 2ch, Copy NG, Pre-emphasis No, Track[01], Idx[00], RMSF[16:41:74], AMSF[00:02:01]}, RtoW[0, 0, 0, 0]

And Full TOC reports this track is audio.

========== FULL TOC ==========
    FirstCompleteSession: 1
     LastCompleteSession: 1
    Session 1, Ctl 0, Adr 1, Point 0xa0, FirstTrack  1, Format: CD-DA or CD-ROM

But USA version has data track.

LBA[000000, 0000000]: P[ff], Q[4101001642000000020018ef]{ Data,      Copy NG,                  Track[01], Idx[00], RMSF[16:42:00], AMSF[00:02:00]}, RtoW[0, 0, 0, 0]
LBA[000001, 0x00001]: P[ff], Q[4101001641740000020152ae]{ Data,      Copy NG,                  Track[01], Idx[00], RMSF[16:41:74], AMSF[00:02:01]}, RtoW[0, 0, 0, 0]

And Full TOC reports this track is CD-I.

========== FULL TOC ==========
    FirstCompleteSession: 1
     LastCompleteSession: 1
    Session 1, Ctl 4, Adr 1, Point 0xa0, FirstTrack  1, Format: CD-I