Match: http://redump.org/disc/22422/   
Logs: https://drive.google.com/open?id=1EQHte … 6ytsxxtN0j

Common Disc Info:
    Title: Quake II
    Foreign Title (Non-latin): 
    Disc Number / Letter: (OPTIONAL)
    Disc Title: (OPTIONAL)
    System: IBM PC Compatible
    Media Type: CD-ROM
    Category: Games
    Matching IDs: 22422
    Region: Europe
    Languages: English
    Disc Serial: 1000095.101.UK

    Ringcode Information:
        Mastering Code (laser branded/etched): NIMBUS    CDD20108 1000095.101.UK :::
        Mastering SID Code: IFPI L122
        Data-Side Mould SID Code: IFPI 2316
        Label-Side Mould SID Code: (REQUIRED, IF EXISTS)
        Additional Mould: (REQUIRED, IF EXISTS)
        Toolstamp or Mastering Code (engraved/stamped): 1:1
    Barcode: 5 030917 001352
    Error Count: 0
    Comments: [T:ISBN] (OPTIONAL)
    Contents: (OPTIONAL)

Version and Editions:
    Version: 3.05
    Edition/Release: Original

Extras:
    Primary Volume Descriptor (PVD):

0320 : 20 20 20 20 20 20 20 20  20 20 20 20 20 31 39 39                199
0330 : 37 31 31 33 30 30 39 32  38 33 35 30 30 00 31 39   7113009283500.19
0340 : 39 37 31 31 33 30 30 39  32 38 33 35 30 30 00 32   97113009283500.2
0350 : 30 30 37 31 31 32 38 30  39 32 38 33 35 30 30 00   007112809283500.
0360 : 31 39 39 37 31 31 33 30  30 39 32 38 33 35 30 30   1997113009283500
0370 : 00 01 00 00 00 00 00 00  00 00 00 00 00 00 00 00   ................

Copy Protection:
    Copy Protection: 

Tracks and Write Offsets:
    DAT:

<rom name="Quake2 (Track 01).bin" size="429204720" crc="a6b2282b" md5="e810d8702c06515e6006f33bf8dfdb84" sha1="85cb1ba17b18511078b6b1e3b548b170a4ab45b9" />
<rom name="Quake2 (Track 02).bin" size="37542624" crc="9a50791d" md5="3f1e8d932352260d528f3c9e123d0f42" sha1="abb29886085970b9360f44c41168868c3a6f1e22" />
<rom name="Quake2 (Track 03).bin" size="24641904" crc="7864861c" md5="98ef37af22cfdd9b8d81e0f920f89ab2" sha1="8c0348f8c3371cae45e578703e66ebab10ff35ad" />
<rom name="Quake2 (Track 04).bin" size="27186768" crc="d31f21dd" md5="bb1a945804483b06f62168c8ae246d48" sha1="5e0270c9d28add7a8915e190cc581b3739f60100" />
<rom name="Quake2 (Track 05).bin" size="30601872" crc="60adf513" md5="da195bd552c4a2dbeb29cc665050be0c" sha1="2fce5de07795c7b2be44c64d5c48eecf02e8a1d2" />
<rom name="Quake2 (Track 06).bin" size="27675984" crc="ec447038" md5="3ab5a65e2d237654762ae387a2fb1b67" sha1="711d1dc68ebf7e6c548e43aa878343d3a3faa848" />
<rom name="Quake2 (Track 07).bin" size="38307024" crc="7a00ba9e" md5="6d1d2eed601b288cf038ad8cd3498ef9" sha1="2272f8a259d19042e6ee7b653d3583a7469e749e" />
<rom name="Quake2 (Track 08).bin" size="32848032" crc="b06afdba" md5="14ec13d5d4bf5e1397f1006b6dd0a6e6" sha1="5477c96d6b3bf6d571f7fdca39d1cfc96f53c3f1" />
<rom name="Quake2 (Track 09).bin" size="27854736" crc="f1703e59" md5="858ff300d0b944a4443c63dba6768d1e" sha1="6b7e39493a631dc8a0093309974791640d616af4" />
<rom name="Quake2 (Track 10).bin" size="21527856" crc="790f3f89" md5="fbb28084d0da7168fbc02c356708a8ac" sha1="1490ffd301000c89ac7ea16e89ea804de7b0a79e" />
<rom name="Quake2 (Track 11).bin" size="21723072" crc="c71e22e1" md5="62a9ffbe4e69b7977eb9304cc8d96f5f" sha1="0cd1d6949ddbdd3feb457082cd257b20717b18d4" />

    Cuesheet:

FILE "Quake2 (Track 01).bin" BINARY
  TRACK 01 MODE1/2352
    INDEX 01 00:00:00
FILE "Quake2 (Track 02).bin" BINARY
  TRACK 02 AUDIO
    INDEX 00 00:00:00
    INDEX 01 00:02:00
FILE "Quake2 (Track 03).bin" BINARY
  TRACK 03 AUDIO
    INDEX 01 00:00:00
FILE "Quake2 (Track 04).bin" BINARY
  TRACK 04 AUDIO
    INDEX 01 00:00:00
FILE "Quake2 (Track 05).bin" BINARY
  TRACK 05 AUDIO
    INDEX 01 00:00:00
FILE "Quake2 (Track 06).bin" BINARY
  TRACK 06 AUDIO
    INDEX 01 00:00:00
FILE "Quake2 (Track 07).bin" BINARY
  TRACK 07 AUDIO
    INDEX 01 00:00:00
FILE "Quake2 (Track 08).bin" BINARY
  TRACK 08 AUDIO
    INDEX 01 00:00:00
FILE "Quake2 (Track 09).bin" BINARY
  TRACK 09 AUDIO
    INDEX 01 00:00:00
FILE "Quake2 (Track 10).bin" BINARY
  TRACK 10 AUDIO
    INDEX 01 00:00:00
FILE "Quake2 (Track 11).bin" BINARY
  TRACK 11 AUDIO
    INDEX 01 00:00:00

    Write Offset: -12