Match: http://redump.org/disc/58121/
Logs: https://drive.google.com/open?id=1jNi8s … -QWK2SUZ7R

Common Disc Info:
    Title: Dungeon Keeper: The Deeper Dungeons
    Foreign Title (Non-latin): 
    Disc Number / Letter: (OPTIONAL)
    Disc Title: (OPTIONAL)
    System: IBM PC Compatible
    Media Type: CD-ROM
    Category: Add-Ons
    Matching IDs: 58121
    Region: Europe
    Languages: Dutch, English, French, German, Italian, Polish, Spanish, Swedish
    Disc Serial: BFX05101415D

    Ringcode Information:
        Mastering Code (laser branded/etched): BFX05101415D 10495041 03 &
        Mastering SID Code: IFPI L134
        Data-Side Mould SID Code: IFPI 0477
        Label-Side Mould SID Code: (REQUIRED, IF EXISTS)
        Additional Mould: MADE IN THE UK BY PMDC
        Toolstamp or Mastering Code (engraved/stamped): (REQUIRED, IF EXISTS)
    Barcode: 5 030930 015374
    Error Count: 0
    Comments: Track02 pregap contains 1 scrambled data sector.
    Contents: (OPTIONAL)

Version and Editions:
    Version: (REQUIRED, IF EXISTS)
    Edition/Release: Original

Extras:
    Primary Volume Descriptor (PVD):

0320 : 20 20 20 20 20 20 20 20  20 20 20 20 20 31 39 39                199
0330 : 37 31 30 32 33 31 37 31  31 33 35 30 30 20 31 39   7102317113500 19
0340 : 39 37 31 30 32 33 31 37  31 31 33 35 30 30 20 00   97102317113500 .
0350 : 00 00 00 00 00 00 00 00  00 00 00 00 00 00 00 00   ................
0360 : 00 00 00 00 00 00 00 00  00 00 00 00 00 00 00 00   ................
0370 : 00 01 00 00 00 00 00 00  00 00 00 00 00 00 00 00   ................

Copy Protection:
    Copy Protection: 

Tracks and Write Offsets:
    DAT:

<rom name="KDDeeperDungeons (Track 1).bin" size="63861504" crc="f49601f5" md5="1e79d7344055794c4ab81583bdb88639" sha1="036b72a51a4cc0551a010c6adc4fecd235f1947c" />
<rom name="KDDeeperDungeons (Track 2).bin" size="45852240" crc="09f3d720" md5="bd6bf10e575fafa300a1321c18e0b7f3" sha1="a4d100964320a3dd1a7eda0cf97c82ec935c5f60" />
<rom name="KDDeeperDungeons (Track 3).bin" size="57685152" crc="11ef08c9" md5="b6b50f3a37bdd04bf6eff5e297ee5389" sha1="c509295fd85c027cc00ea96d9942c82a0a424948" />
<rom name="KDDeeperDungeons (Track 4).bin" size="54251232" crc="332ecbf8" md5="9ad6e34319c8b6bbd0027afc451f9eac" sha1="9fd89be5a6a57d9621e1f4c1164dc78ad50b85b5" />
<rom name="KDDeeperDungeons (Track 5).bin" size="53077584" crc="ffd4ac9b" md5="0a973d5292d3402bcb036910a0f11d6d" sha1="c4f856cdea39de0aaae4c046d06a892b77c6450f" />
<rom name="KDDeeperDungeons (Track 6).bin" size="50563296" crc="f038c5f1" md5="50bfc41e11e1b684da56f16b9a2e3bfb" sha1="fddfa268d1f3822aa05df1cf7ab704de9f30d26f" />
<rom name="KDDeeperDungeons (Track 7).bin" size="33358416" crc="e3899286" md5="517a31e78860e742e287952d9a25fcc3" sha1="5ba87b26058fa35e3dd010bd7ee53ed7b30a1809" />

    Cuesheet:

CATALOG 0000000000000
FILE "KDDeeperDungeons (Track 1).bin" BINARY
  TRACK 01 MODE1/2352
    INDEX 01 00:00:00
FILE "KDDeeperDungeons (Track 2).bin" BINARY
  TRACK 02 AUDIO
    INDEX 00 00:00:00
    INDEX 01 00:02:01
FILE "KDDeeperDungeons (Track 3).bin" BINARY
  TRACK 03 AUDIO
    INDEX 00 00:00:00
    INDEX 01 00:01:74
FILE "KDDeeperDungeons (Track 4).bin" BINARY
  TRACK 04 AUDIO
    INDEX 00 00:00:00
    INDEX 01 00:01:74
FILE "KDDeeperDungeons (Track 5).bin" BINARY
  TRACK 05 AUDIO
    INDEX 00 00:00:00
    INDEX 01 00:01:74
FILE "KDDeeperDungeons (Track 6).bin" BINARY
  TRACK 06 AUDIO
    INDEX 00 00:00:00
    INDEX 01 00:01:74
FILE "KDDeeperDungeons (Track 7).bin" BINARY
  TRACK 07 AUDIO
    INDEX 00 00:00:00
    INDEX 01 00:01:74

    Write Offset: 0