Match: http://redump.org/disc/34448/
Logs: https://drive.google.com/open?id=1fXiUb … F0Fj6NpXM8

Common Disc Info:
    Title: Commandos: Behind Enemy Lines
    Foreign Title (Non-latin): 
    Disc Number / Letter: (OPTIONAL)
    Disc Title: (OPTIONAL)
    System: IBM PC Compatible
    Media Type: CD-ROM
    Category: Games
    Matching IDs: 34448
    Region: Europe
    Languages: English
    Disc Serial: (REQUIRED, IF EXISTS)

    Ringcode Information:
        Mastering Code (laser branded/etched): NIMBUS    CDD23159 MCOMMPEN00 ·
        Mastering SID Code: IFPI L122
        Data-Side Mould SID Code: IFPI 2310
        Label-Side Mould SID Code: (REQUIRED, IF EXISTS)
        Additional Mould: (REQUIRED, IF EXISTS)
        Toolstamp or Mastering Code (engraved/stamped): 1:4
    Barcode: 5 032921 003636
    Error Count: 0
    Comments: [T:ISBN] (OPTIONAL)
    Contents: (OPTIONAL)

Version and Editions:
    Version: 1.0
    Edition/Release: Original

Extras:
    Primary Volume Descriptor (PVD):

0320 : 20 20 20 20 20 20 20 20  20 20 20 20 20 31 39 39                199
0330 : 38 30 36 30 38 30 31 34  37 30 36 34 34 AA 31 39   8060801470644.19
0340 : 39 38 30 36 30 38 30 31  34 39 31 38 32 31 01 00   98060801491821..
0350 : 00 00 00 00 00 00 00 00  00 00 00 00 00 00 00 00   ................
0360 : 00 00 00 00 00 00 00 00  00 00 00 00 00 00 00 00   ................
0370 : 00 01 00 00 00 00 00 00  00 00 00 00 00 00 00 00   ................

Copy Protection:
    Copy Protection:

J:\: CD-Lock
J:\BBVN.AFP: CD-Lock
J:\BTBW.AFP: CD-Lock
J:\CONFIG.AFP: CD-Lock
J:\ETAO.AFP: CD-Lock
J:\TBTP.AFP: CD-Lock

Tracks and Write Offsets:
    DAT:

<rom name="Commandos (Track 1).bin" size="563529792" crc="dfc2c833" md5="c07c915c40a9d9d78cbceb981fef4d1d" sha1="a2870bf457d60306655d7b905fef04f5c91d975e" />
<rom name="Commandos (Track 2).bin" size="236267808" crc="e661c54e" md5="db27a3013864dd56bd5d857863a3b008" sha1="477dd6b51fadba06aa996f4c9f4ff335611f5e32" />
<rom name="Commandos (Track 3).bin" size="3704400" crc="e9c86648" md5="77f5abcdb36d9a1fe7c4e98178c7bc7e" sha1="684f2773a7c99ee10cbf8cde1f94ce36fbbd5f76" />
<rom name="Commandos (Track 4).bin" size="3010560" crc="dce84ab1" md5="be509aa02a522619fc87530523f7c15c" sha1="0cd674855d45f1e72ca83c87c7611ad0427159b3" />

    Cuesheet:

FILE "Commandos (Track 1).bin" BINARY
  TRACK 01 MODE1/2352
    INDEX 01 00:00:00
FILE "Commandos (Track 2).bin" BINARY
  TRACK 02 AUDIO
    INDEX 00 00:00:00
    INDEX 01 00:02:00
FILE "Commandos (Track 3).bin" BINARY
  TRACK 03 AUDIO
    INDEX 01 00:00:00
FILE "Commandos (Track 4).bin" BINARY
  TRACK 04 MODE1/2352
    INDEX 00 00:00:00
    INDEX 01 00:03:00

    Write Offset: -12