https://www.dropbox.com/s/pjpqed7it1nbd … 29.7z?dl=0
It was adviced to submit it here and not using new disc form.
Please read comments section:

Common Disc Info:
    Title: Music Inspired By Wild 9
    System: Sony PlayStation / Audio CD
    Media Type: CD-ROM
    Category: Games / Audio
    Region: Europe
    Languages: English
    Disc Serial: SLUS-00425

    Ringcode Information:
        Mastering Code (laser branded/etched): DURECO FR CD-XXX-445MUS
        Mastering SID Code: IFPI L373
        Data-Side Mould SID Code: ifpi 5701
    EXE/Build Date: 1998-08-25
    Error Count: 0
    Comments: This CD is marketed as "Music Inspired By" but it really is a copy of all game audio tracks from the retail release of Wild 9. Audio tracks are mastered with wrong offset (comparing to the official game release). In addition to that the first track is a mode 2 data track and it has only one file "SLUS_004.25" which is PSX-EXE. The executable doesn't match anything known to redump.org so it could be an early build of the game. It is functional if injecting it to the retail US release of Wild 9 with valid SYSTEM.CNF and game resources.

Version and Editions:
    Edition/Release: Original

EDC:
    EDC: Yes

Extras:
    Primary Volume Descriptor (PVD):

0320 : 20 20 20 20 20 20 20 20  20 20 20 20 20 31 39 39                199
0330 : 38 30 39 30 37 30 30 33  30 30 30 30 30 00 30 30   8090700300000.00
0340 : 30 30 30 30 30 30 30 30  30 30 30 30 30 30 00 30   00000000000000.0
0350 : 30 30 30 30 30 30 30 30  30 30 30 30 30 30 30 00   000000000000000.
0360 : 30 30 30 30 30 30 30 30  30 30 30 30 30 30 30 30   0000000000000000
0370 : 00 01 00 00 00 00 00 00  00 00 00 00 00 00 00 00   ................

Copy Protection:
    Anti-modchip: No
    LibCrypt: No

Tracks and Write Offsets:
    DAT:

<rom name="Music Inspired By Wild 9 (USA) (Unl) (Track 01).bin" size="886704" crc="eba31192" md5="7007057d76d8b48cd9c86e8e462c9f7d" sha1="02d32f478ad5157c71ce6f2f91c9476eb821c46f" />
<rom name="Music Inspired By Wild 9 (USA) (Unl) (Track 02).bin" size="20114304" crc="6c46918b" md5="2bc019df7c7a2e3c916fd3ec7a853160" sha1="c42b741b78a49bbcb0f282a859ccd5a93196b5cf" />
<rom name="Music Inspired By Wild 9 (USA) (Unl) (Track 03).bin" size="31991904" crc="839fad3a" md5="8a3a3d85819de1c9596664b46375515f" sha1="d46fa29ac327bf9c2d79640e23a0757a07148f21" />
<rom name="Music Inspired By Wild 9 (USA) (Unl) (Track 04).bin" size="39360720" crc="73cad57f" md5="299e8cf8590f58eebe78b75044235ee4" sha1="fd47affa8f666e6ec6f4b72ddf56ea4ede4cd2da" />
<rom name="Music Inspired By Wild 9 (USA) (Unl) (Track 05).bin" size="14904624" crc="97cf2dfd" md5="732724c467a69c4519ca00168976d5a3" sha1="0d80bbc7c61668a69ca4292becceb2515d8b1627" />
<rom name="Music Inspired By Wild 9 (USA) (Unl) (Track 06).bin" size="37135728" crc="47c226ab" md5="b04f9eb5c93934f84262750981e7b1d5" sha1="f9f846f3b9ac0d7b9387b1f8c34bef16aca0e134" />
<rom name="Music Inspired By Wild 9 (USA) (Unl) (Track 07).bin" size="36778224" crc="04700844" md5="c8b5a77331016d27959c0d18497d0579" sha1="69d72132afe67ef5d035d93263959a7dacd4884e" />
<rom name="Music Inspired By Wild 9 (USA) (Unl) (Track 08).bin" size="49860048" crc="37d63515" md5="e6cf9a475586eb0af672da47a553602b" sha1="30d9552cc1e645d4e14073d036ddcc4be271924d" />
<rom name="Music Inspired By Wild 9 (USA) (Unl) (Track 09).bin" size="48949824" crc="b5c64502" md5="05cbccf1a7728987310584b8cd942604" sha1="d747f9f74d60997e55d0bfe03dd5186f5767c05c" />
<rom name="Music Inspired By Wild 9 (USA) (Unl) (Track 10).bin" size="25295760" crc="21519888" md5="e577589deaee94e439a2f6af36ebae84" sha1="b3f2ce48fd2c373cc961b5ebae42ad29518638b1" />
<rom name="Music Inspired By Wild 9 (USA) (Unl) (Track 11).bin" size="49558992" crc="3467723b" md5="9a5c11468f1d36ef782782111da64b0e" sha1="93b6a48eeaa08cf62c8057c09637d1683194e8c9" />
<rom name="Music Inspired By Wild 9 (USA) (Unl) (Track 12).bin" size="36241968" crc="c79b5211" md5="a42a2e097b507f318923947b5dee0650" sha1="6f0f429417b4d647379fc9816872d9c473ccd48d" />
<rom name="Music Inspired By Wild 9 (USA) (Unl) (Track 13).bin" size="32203584" crc="f438da5e" md5="6fbd64ae9f5174161d1ee4249a86491e" sha1="b6ddf41a84c29c4ba826425234dda11b55e316d1" />
<rom name="Music Inspired By Wild 9 (USA) (Unl) (Track 14).bin" size="47338704" crc="ebf26ddc" md5="a9c63115dff00f34d8383f684e191bae" sha1="ff1fa27855ab9a301cb3802b72642e60a003da54" />

    Cuesheet:

FILE "Music Inspired By Wild 9 (USA) (Unl) (Track 01).bin" BINARY
  TRACK 01 MODE2/2352
    INDEX 01 00:00:00
FILE "Music Inspired By Wild 9 (USA) (Unl) (Track 02).bin" BINARY
  TRACK 02 AUDIO
    INDEX 00 00:00:00
    INDEX 01 00:02:00
FILE "Music Inspired By Wild 9 (USA) (Unl) (Track 03).bin" BINARY
  TRACK 03 AUDIO
    INDEX 00 00:00:00
    INDEX 01 00:02:00
FILE "Music Inspired By Wild 9 (USA) (Unl) (Track 04).bin" BINARY
  TRACK 04 AUDIO
    INDEX 00 00:00:00
    INDEX 01 00:02:00
FILE "Music Inspired By Wild 9 (USA) (Unl) (Track 05).bin" BINARY
  TRACK 05 AUDIO
    INDEX 00 00:00:00
    INDEX 01 00:02:00
FILE "Music Inspired By Wild 9 (USA) (Unl) (Track 06).bin" BINARY
  TRACK 06 AUDIO
    INDEX 00 00:00:00
    INDEX 01 00:02:00
FILE "Music Inspired By Wild 9 (USA) (Unl) (Track 07).bin" BINARY
  TRACK 07 AUDIO
    INDEX 00 00:00:00
    INDEX 01 00:02:00
FILE "Music Inspired By Wild 9 (USA) (Unl) (Track 08).bin" BINARY
  TRACK 08 AUDIO
    INDEX 00 00:00:00
    INDEX 01 00:02:00
FILE "Music Inspired By Wild 9 (USA) (Unl) (Track 09).bin" BINARY
  TRACK 09 AUDIO
    INDEX 00 00:00:00
    INDEX 01 00:02:00
FILE "Music Inspired By Wild 9 (USA) (Unl) (Track 10).bin" BINARY
  TRACK 10 AUDIO
    INDEX 00 00:00:00
    INDEX 01 00:02:00
FILE "Music Inspired By Wild 9 (USA) (Unl) (Track 11).bin" BINARY
  TRACK 11 AUDIO
    INDEX 00 00:00:00
    INDEX 01 00:02:00
FILE "Music Inspired By Wild 9 (USA) (Unl) (Track 12).bin" BINARY
  TRACK 12 AUDIO
    INDEX 00 00:00:00
    INDEX 01 00:02:00
FILE "Music Inspired By Wild 9 (USA) (Unl) (Track 13).bin" BINARY
  TRACK 13 AUDIO
    INDEX 00 00:00:00
    INDEX 01 00:02:00
FILE "Music Inspired By Wild 9 (USA) (Unl) (Track 14).bin" BINARY
  TRACK 14 AUDIO
    INDEX 00 00:00:00
    INDEX 01 00:02:00

    Write Offset: -22