Match: http://redump.org/disc/2135/
Logs: https://drive.google.com/open?id=1PrBXi … vlwUs7Elvk

Common Disc Info:
    Title: Mortal Kombat 3
    Foreign Title (Non-latin): 
    Disc Number / Letter: (OPTIONAL)
    Disc Title: (OPTIONAL)
    System: IBM PC Compatible
    Media Type: CD-ROM
    Category: Games
    Matching IDs: 2135
    Region: Europe
    Languages: English
    Disc Serial: (REQUIRED, IF EXISTS)

    Ringcode Information:
        Mastering Code (laser branded/etched): ABLEX 81265 MORTAL COMBAT 3
        Mastering SID Code: IFPI L041
        Data-Side Mould SID Code: IFPI 7301
        Label-Side Mould SID Code: (REQUIRED, IF EXISTS)
        Additional Mould: (REQUIRED, IF EXISTS)
        Toolstamp or Mastering Code (engraved/stamped): :1:1:4.
    Barcode: 5 029988 000197
    Error Count: 0
    Comments: Mastering Ring says COMBAT instead of KOMBAT
    Contents: (OPTIONAL)

Version and Editions:
    Version: (REQUIRED, IF EXISTS)
    Edition/Release: Original

Extras:
    Primary Volume Descriptor (PVD):

0320 : 20 20 20 20 20 20 20 20  20 20 20 20 20 31 39 39                199
0330 : 35 30 39 32 38 31 33 32  30 31 33 30 30 00 31 39   5092813201300.19
0340 : 39 35 30 39 32 38 31 33  32 30 31 33 30 30 00 30   95092813201300.0
0350 : 30 30 30 30 30 30 30 30  30 30 30 30 30 30 30 00   000000000000000.
0360 : 30 30 30 30 30 30 30 30  30 30 30 30 30 30 30 30   0000000000000000
0370 : 00 01 00 00 00 00 00 00  00 00 00 00 00 00 00 00   ................

Copy Protection:
    Copy Protection: None found

Tracks and Write Offsets:
    DAT:

<rom name="MK3PCCDROM (Track 01).bin" size="33163200" crc="c18de70d" md5="7e762a7aae5b996f4551351b6642b491" sha1="0ebd0c75988aec1b59ccd5eff135af645aaec995" />
<rom name="MK3PCCDROM (Track 02).bin" size="18997104" crc="935bfa36" md5="7dfde8acb3c3103499b01c82a7289266" sha1="2c46a72ef706daffcdb943458dd623e406532b4a" />
<rom name="MK3PCCDROM (Track 03).bin" size="13613376" crc="aab15991" md5="aa94f49f27958758e9e9acf8ca65517a" sha1="ae5616a50528b5674db7e5eb9c5351c6a5949beb" />
<rom name="MK3PCCDROM (Track 04).bin" size="1070160" crc="fe2e6d75" md5="5c5a6cd50fc42d3a43791f5a29a117a9" sha1="b84efa16862851e4d0206185aa94db2f06b16d36" />
<rom name="MK3PCCDROM (Track 05).bin" size="1070160" crc="6b6eb9ea" md5="fed87bcef1eb8afa8402d94952b880d8" sha1="802fd89937c71c29eaa625f5b1d42f56ad080c38" />
<rom name="MK3PCCDROM (Track 06).bin" size="1206576" crc="41c0dd2d" md5="c74ee1abafd5fe00da0bc04b53ea9f58" sha1="4354656ac0122effd9ea1b8890c41d42c6ec0897" />
<rom name="MK3PCCDROM (Track 07).bin" size="1359456" crc="afc517dc" md5="5a122193e6f5a734da1a643f721d6af4" sha1="e9e5575e1f0dbf380962bcf6d6723b3f64feda75" />
<rom name="MK3PCCDROM (Track 08).bin" size="19643904" crc="504e48bd" md5="7be32af00fdb03264ff4f9f06448b7dc" sha1="76eb242b422ddbf7b6b875a182b834b21ac8a389" />
<rom name="MK3PCCDROM (Track 09).bin" size="1065456" crc="86f9f4d9" md5="5d5cc78d155adfdefcb00ddd9dd352f5" sha1="213099e244289e944b0afb70f1ea774e7a7523c5" />
<rom name="MK3PCCDROM (Track 10).bin" size="10475808" crc="263806fb" md5="d752ce295802064a4c8822cc30f6018a" sha1="595af78846adeda2950f0d6e25cec53a5818a9d7" />
<rom name="MK3PCCDROM (Track 11).bin" size="1067808" crc="58760a36" md5="9d4ef1f66d6971ddc6f15a4ea1affe33" sha1="198e581a880b63e78ba4babfed83349fdcf2fdd0" />
<rom name="MK3PCCDROM (Track 12).bin" size="13900320" crc="32511ca2" md5="db1b41debafae267945b04b8086f3f33" sha1="720120e0cc19262b381dfa2db93632e6833725fe" />
<rom name="MK3PCCDROM (Track 13).bin" size="1220688" crc="aae92963" md5="f8adaea21304e6717a6eca100f2f6ac4" sha1="2f9047bf9c714f4d1465aaa80e69f402874e98e4" />
<rom name="MK3PCCDROM (Track 14).bin" size="11955216" crc="f4ad7400" md5="e88b201d1763277d035dea6b528b6394" sha1="fdcef0ea477550b7ce73ee68f3b64cb4db543694" />
<rom name="MK3PCCDROM (Track 15).bin" size="2401392" crc="b12bd4c5" md5="49d9e49cffe7412a28e161ace80449fe" sha1="fedf6be11874563a29d83867c655edf8e8de9be8" />
<rom name="MK3PCCDROM (Track 16).bin" size="4036032" crc="e648faa1" md5="c9b6ca2db2f30a86fb15ec0cbaba5c7c" sha1="114ea829643251627d875525dce5a10218c1b2c2" />
<rom name="MK3PCCDROM (Track 17).bin" size="1067808" crc="de07de8e" md5="459f02bb00dc1844adb07f8f67eeb430" sha1="3c25cde9ecaeeff8d85c415e6cbf4d022f4dbf4f" />
<rom name="MK3PCCDROM (Track 18).bin" size="18825408" crc="9d29d4dc" md5="39e418dcd872e7fd7511af7f9b4b4f72" sha1="d454655e807b561e9bdc8ea7f01ce9aff69b8f23" />
<rom name="MK3PCCDROM (Track 19).bin" size="3596208" crc="5d69ba7b" md5="fd7bb991ea613136c782f40f7ad94af8" sha1="4d82be4c9e2252dc96cd91aee9f634b357b1863d" />
<rom name="MK3PCCDROM (Track 20).bin" size="1072512" crc="078efda7" md5="b07fcaecd02e9eca3346a79346df3153" sha1="1b3957b9294f7cac332c6246d7e63a2881c654f0" />
<rom name="MK3PCCDROM (Track 21).bin" size="18686640" crc="729155e9" md5="d3a7cc77e2cdb9ba97b690e7be294208" sha1="6695aab968d9b360102ffa65e5b1ac859385253b" />
<rom name="MK3PCCDROM (Track 22).bin" size="3927840" crc="eff0b8ac" md5="8d6f8d3bda8985b1c3bf5f5b05df6423" sha1="a0771351d13f61b478e66edfb40cefc49c09e8a8" />
<rom name="MK3PCCDROM (Track 23).bin" size="1086624" crc="c571aba0" md5="7a8533e42ad71ec093d52ce221442d79" sha1="decf8d40a5b6cc39bf835722228f9ba3db90603d" />
<rom name="MK3PCCDROM (Track 24).bin" size="20064912" crc="4caf1640" md5="a0cefb7d08bea936326ad050f07af3af" sha1="cdf748265e9f78bd73f67fa63845ca0913a96a5e" />
<rom name="MK3PCCDROM (Track 25).bin" size="2836512" crc="ef515812" md5="1017c822edad37a15bcadc39e555eb08" sha1="45034c9e01be15024af6c682170b668a01030801" />
<rom name="MK3PCCDROM (Track 26).bin" size="1093680" crc="724f640b" md5="93563ac635ea78c809b14d0c933a8e35" sha1="3e033e9352b37d582088cd8729b979e1338e9036" />
<rom name="MK3PCCDROM (Track 27).bin" size="3257520" crc="b3d6c9db" md5="f419f41137ab17621a8b595605862ec0" sha1="50fcbcf5410d9f9893331d46f0f7c4759a6dd0e4" />
<rom name="MK3PCCDROM (Track 28).bin" size="1432368" crc="56942081" md5="306bcc85b8f30960b1781d53000007da" sha1="59b6b08f028d636052271a9d359f1517230e4353" />
<rom name="MK3PCCDROM (Track 29).bin" size="18719568" crc="ab2b47f7" md5="dbe7089b0e1d35bc75238f44af3cc1df" sha1="84cc39b7b7d1c246482a1360656b01d63d04246a" />
<rom name="MK3PCCDROM (Track 30).bin" size="3114048" crc="a6d11bf6" md5="a1d22c48f03fbc6ca87e628a7d1837d1" sha1="18485262450af5a9fdc1eda6114ae3277c28e7d0" />
<rom name="MK3PCCDROM (Track 31).bin" size="1121904" crc="d4452341" md5="deb9c6aac00c9d9a0593fe3e04a79cba" sha1="958d303a42a32f4e010efd67dc2341d1049cfbb8" />
<rom name="MK3PCCDROM (Track 32).bin" size="4593456" crc="ace7026a" md5="3c77d2360b5faaf42903e621b24d1a1f" sha1="95ff47d67bae7e0c387aa460d8fb4ecb996e1981" />
<rom name="MK3PCCDROM (Track 33).bin" size="1077216" crc="2104b4fd" md5="350abf67141ff131808b8cf13665459c" sha1="3ce347d575a3cedb092b1920984f63c7c4a0fbaf" />
<rom name="MK3PCCDROM (Track 34).bin" size="22028832" crc="cbecd891" md5="013448156f62cab29577147121bec570" sha1="00b05839d6f5ecfb29dfb6a2d865a022160b8534" />
<rom name="MK3PCCDROM (Track 35).bin" size="2573088" crc="2c1734fe" md5="839b2c9880cae5a38004976794bb778d" sha1="fd7c9894357b4e468ef46e1e4a0078b0d4e4d26f" />
<rom name="MK3PCCDROM (Track 36).bin" size="1110144" crc="53f14d50" md5="294b0ad001d6a3f4ccb020b45097b989" sha1="8ab9ec47628a7589021238b21613d23281cccd62" />
<rom name="MK3PCCDROM (Track 37).bin" size="20885760" crc="19bdc534" md5="0aae1a151358110b9bc97982e158e47e" sha1="78f5043aec56fb1995b0ffcdcddec3dba68b61d2" />
<rom name="MK3PCCDROM (Track 38).bin" size="2791824" crc="b99508fe" md5="a4d31cf59dfef78a90bef51427fa2774" sha1="356c152bcfaa33018283fbb235658be063db92a7" />
<rom name="MK3PCCDROM (Track 39).bin" size="1077216" crc="b05422b9" md5="58494fedcde515afa84749fe31c40b80" sha1="a81d43a267e562f36c128e005212f18c0821a1bf" />
<rom name="MK3PCCDROM (Track 40).bin" size="24886512" crc="cccc5d63" md5="7a7fa134e2319172acfd444a7e121ebe" sha1="5c0d4db90385fb25dd74680d4ef24272696d7c9f" />
<rom name="MK3PCCDROM (Track 41).bin" size="2845920" crc="9c68e055" md5="c7f1cee485625fd9f3aeebc904c7331f" sha1="511da1402f8bc5531eeb6411c47b284cedb5f2b1" />
<rom name="MK3PCCDROM (Track 42).bin" size="1070160" crc="fe21cb2a" md5="63448920d70a9e8c5ee1a490ec319a2d" sha1="5c3a87777066a9c86062e211ef8f98720962de2b" />
<rom name="MK3PCCDROM (Track 43).bin" size="20017872" crc="efb2a404" md5="71ebd0f39e8a795a8e9ac4137f70e062" sha1="5be49f6dbaaacc34d27c2819eb1230507d0afc15" />
<rom name="MK3PCCDROM (Track 44).bin" size="2657760" crc="3531e68f" md5="a70024701e000660e9283f6969d57ff4" sha1="516fc78f024c4955151abf197479588cadc88cdb" />
<rom name="MK3PCCDROM (Track 45).bin" size="1077216" crc="630d7f5b" md5="ac019ea795b23412830adbe91528a334" sha1="b350c3202fb262faed201ebedba54f8e4f57d3b5" />
<rom name="MK3PCCDROM (Track 46).bin" size="26015472" crc="97b48119" md5="ff1ee7d60d54830ae80effc4a6ce2e60" sha1="1155ebf3a0bbc6694e4a1025e4dda3fb204cad2b" />
<rom name="MK3PCCDROM (Track 47).bin" size="15372672" crc="f00c7c64" md5="6a9fa6d335f67d974d206d3b81072a80" sha1="a7a42b208178670bfaea211e3422ed616a1c45d7" />

    Cuesheet:

FILE "MK3PCCDROM (Track 01).bin" BINARY
  TRACK 01 MODE1/2352
    INDEX 01 00:00:00
FILE "MK3PCCDROM (Track 02).bin" BINARY
  TRACK 02 AUDIO
    INDEX 00 00:00:00
    INDEX 01 00:02:00
FILE "MK3PCCDROM (Track 03).bin" BINARY
  TRACK 03 AUDIO
    INDEX 00 00:00:00
    INDEX 01 00:01:74
FILE "MK3PCCDROM (Track 04).bin" BINARY
  TRACK 04 AUDIO
    INDEX 00 00:00:00
    INDEX 01 00:01:74
FILE "MK3PCCDROM (Track 05).bin" BINARY
  TRACK 05 AUDIO
    INDEX 00 00:00:00
    INDEX 01 00:01:74
FILE "MK3PCCDROM (Track 06).bin" BINARY
  TRACK 06 AUDIO
    INDEX 00 00:00:00
    INDEX 01 00:01:74
FILE "MK3PCCDROM (Track 07).bin" BINARY
  TRACK 07 AUDIO
    INDEX 00 00:00:00
    INDEX 01 00:01:74
FILE "MK3PCCDROM (Track 08).bin" BINARY
  TRACK 08 AUDIO
    INDEX 00 00:00:00
    INDEX 01 00:01:74
FILE "MK3PCCDROM (Track 09).bin" BINARY
  TRACK 09 AUDIO
    INDEX 00 00:00:00
    INDEX 01 00:01:74
FILE "MK3PCCDROM (Track 10).bin" BINARY
  TRACK 10 AUDIO
    INDEX 00 00:00:00
    INDEX 01 00:01:74
FILE "MK3PCCDROM (Track 11).bin" BINARY
  TRACK 11 AUDIO
    INDEX 00 00:00:00
    INDEX 01 00:01:74
FILE "MK3PCCDROM (Track 12).bin" BINARY
  TRACK 12 AUDIO
    INDEX 00 00:00:00
    INDEX 01 00:01:74
FILE "MK3PCCDROM (Track 13).bin" BINARY
  TRACK 13 AUDIO
    INDEX 00 00:00:00
    INDEX 01 00:01:74
FILE "MK3PCCDROM (Track 14).bin" BINARY
  TRACK 14 AUDIO
    INDEX 00 00:00:00
    INDEX 01 00:01:74
FILE "MK3PCCDROM (Track 15).bin" BINARY
  TRACK 15 AUDIO
    INDEX 00 00:00:00
    INDEX 01 00:01:74
FILE "MK3PCCDROM (Track 16).bin" BINARY
  TRACK 16 AUDIO
    INDEX 00 00:00:00
    INDEX 01 00:01:74
FILE "MK3PCCDROM (Track 17).bin" BINARY
  TRACK 17 AUDIO
    INDEX 00 00:00:00
    INDEX 01 00:01:74
FILE "MK3PCCDROM (Track 18).bin" BINARY
  TRACK 18 AUDIO
    INDEX 00 00:00:00
    INDEX 01 00:01:74
FILE "MK3PCCDROM (Track 19).bin" BINARY
  TRACK 19 AUDIO
    INDEX 00 00:00:00
    INDEX 01 00:01:74
FILE "MK3PCCDROM (Track 20).bin" BINARY
  TRACK 20 AUDIO
    INDEX 00 00:00:00
    INDEX 01 00:01:74
FILE "MK3PCCDROM (Track 21).bin" BINARY
  TRACK 21 AUDIO
    INDEX 00 00:00:00
    INDEX 01 00:01:74
FILE "MK3PCCDROM (Track 22).bin" BINARY
  TRACK 22 AUDIO
    INDEX 00 00:00:00
    INDEX 01 00:01:74
FILE "MK3PCCDROM (Track 23).bin" BINARY
  TRACK 23 AUDIO
    INDEX 00 00:00:00
    INDEX 01 00:01:74
FILE "MK3PCCDROM (Track 24).bin" BINARY
  TRACK 24 AUDIO
    INDEX 00 00:00:00
    INDEX 01 00:01:74
FILE "MK3PCCDROM (Track 25).bin" BINARY
  TRACK 25 AUDIO
    INDEX 00 00:00:00
    INDEX 01 00:01:74
FILE "MK3PCCDROM (Track 26).bin" BINARY
  TRACK 26 AUDIO
    INDEX 00 00:00:00
    INDEX 01 00:01:74
FILE "MK3PCCDROM (Track 27).bin" BINARY
  TRACK 27 AUDIO
    INDEX 00 00:00:00
    INDEX 01 00:01:74
FILE "MK3PCCDROM (Track 28).bin" BINARY
  TRACK 28 AUDIO
    INDEX 00 00:00:00
    INDEX 01 00:01:74
FILE "MK3PCCDROM (Track 29).bin" BINARY
  TRACK 29 AUDIO
    INDEX 00 00:00:00
    INDEX 01 00:01:74
FILE "MK3PCCDROM (Track 30).bin" BINARY
  TRACK 30 AUDIO
    INDEX 00 00:00:00
    INDEX 01 00:01:74
FILE "MK3PCCDROM (Track 31).bin" BINARY
  TRACK 31 AUDIO
    INDEX 00 00:00:00
    INDEX 01 00:01:74
FILE "MK3PCCDROM (Track 32).bin" BINARY
  TRACK 32 AUDIO
    INDEX 00 00:00:00
    INDEX 01 00:01:74
FILE "MK3PCCDROM (Track 33).bin" BINARY
  TRACK 33 AUDIO
    INDEX 00 00:00:00
    INDEX 01 00:01:74
FILE "MK3PCCDROM (Track 34).bin" BINARY
  TRACK 34 AUDIO
    INDEX 00 00:00:00
    INDEX 01 00:01:74
FILE "MK3PCCDROM (Track 35).bin" BINARY
  TRACK 35 AUDIO
    INDEX 00 00:00:00
    INDEX 01 00:01:74
FILE "MK3PCCDROM (Track 36).bin" BINARY
  TRACK 36 AUDIO
    INDEX 00 00:00:00
    INDEX 01 00:01:74
FILE "MK3PCCDROM (Track 37).bin" BINARY
  TRACK 37 AUDIO
    INDEX 00 00:00:00
    INDEX 01 00:01:74
FILE "MK3PCCDROM (Track 38).bin" BINARY
  TRACK 38 AUDIO
    INDEX 00 00:00:00
    INDEX 01 00:01:74
FILE "MK3PCCDROM (Track 39).bin" BINARY
  TRACK 39 AUDIO
    INDEX 00 00:00:00
    INDEX 01 00:01:74
FILE "MK3PCCDROM (Track 40).bin" BINARY
  TRACK 40 AUDIO
    INDEX 00 00:00:00
    INDEX 01 00:01:74
FILE "MK3PCCDROM (Track 41).bin" BINARY
  TRACK 41 AUDIO
    INDEX 00 00:00:00
    INDEX 01 00:01:74
FILE "MK3PCCDROM (Track 42).bin" BINARY
  TRACK 42 AUDIO
    INDEX 00 00:00:00
    INDEX 01 00:01:74
FILE "MK3PCCDROM (Track 43).bin" BINARY
  TRACK 43 AUDIO
    INDEX 00 00:00:00
    INDEX 01 00:01:74
FILE "MK3PCCDROM (Track 44).bin" BINARY
  TRACK 44 AUDIO
    INDEX 00 00:00:00
    INDEX 01 00:01:74
FILE "MK3PCCDROM (Track 45).bin" BINARY
  TRACK 45 AUDIO
    INDEX 00 00:00:00
    INDEX 01 00:01:74
FILE "MK3PCCDROM (Track 46).bin" BINARY
  TRACK 46 AUDIO
    INDEX 00 00:00:00
    INDEX 01 00:01:74
FILE "MK3PCCDROM (Track 47).bin" BINARY
  TRACK 47 AUDIO
    INDEX 00 00:00:00
    INDEX 01 00:01:74

    Write Offset: -22

https://gyazo.com/e38b96b7691fef8083d6880926268c0e