Match: http://redump.org/disc/2142/
Logs: https://drive.google.com/open?id=1-F0eX … M0gW8py0_S

Common Disc Info:
    Title: Command & Conquer: The Covert Operations
    Foreign Title (Non-latin): 
    Disc Number / Letter: (OPTIONAL)
    Disc Title: (OPTIONAL)
    System: IBM PC Compatible
    Media Type: CD-ROM
    Category: Add-Ons
    Matching IDs: 2142
    Region: Europe
    Languages: English
    Disc Serial: (REQUIRED, IF EXISTS)

    Ringcode Information:
        Mastering Code (laser branded/etched): ·MASTERED BY NIMBUS·    CDD11264 COVERT OPS ENG :
        Mastering SID Code: IFPI L123
        Data-Side Mould SID Code: IFPI 2322
        Label-Side Mould SID Code: (REQUIRED, IF EXISTS)
        Additional Mould: (REQUIRED, IF EXISTS)
        Toolstamp or Mastering Code (engraved/stamped): 1:2
    Barcode: 5 028587 005503
    Error Count: 0
    Comments: [T:ISBN] (OPTIONAL)
    Contents: (OPTIONAL)

Version and Editions:
    Version: 1.20
    Edition/Release: Original

Extras:
    Primary Volume Descriptor (PVD):

0320 : 20 20 20 20 20 20 20 20  20 20 20 20 20 30 30 30                000
0330 : 30 30 30 30 30 30 30 30  30 30 30 30 30 00 30 30   0000000000000.00
0340 : 30 30 30 30 30 30 30 30  30 30 30 30 30 30 00 30   00000000000000.0
0350 : 30 30 30 30 30 30 30 30  30 30 30 30 30 30 30 00   000000000000000.
0360 : 30 30 30 30 30 30 30 30  30 30 30 30 30 30 30 30   0000000000000000
0370 : 00 01 00 00 00 00 00 00  00 00 00 00 00 00 00 00   ................

Copy Protection:
    Copy Protection: None found

Tracks and Write Offsets:
    DAT:

<rom name="COVERT (Track 1).bin" size="355961088" crc="6aab1c1f" md5="20c40a8666541bdcead5c9e5e1521651" sha1="9ed886bde4a0072db2843280ce2ecda91707388c" />
<rom name="COVERT (Track 2).bin" size="54298272" crc="e664ce0c" md5="665b60dc081effdbceaf2c16261a1f52" sha1="78b6adc2c550a9c47c25a079eecc8c4d2694a8f6" />
<rom name="COVERT (Track 3).bin" size="45188976" crc="6aea6681" md5="d0680d331b6d743c99b09eadc0b27fd2" sha1="8e24f600da31e0ebc5a5b5c3f4cc0e59469b76f9" />
<rom name="COVERT (Track 4).bin" size="39177264" crc="0cc8808f" md5="b6e1f9013c7e0585de5e5ed3862ba40f" sha1="3b7f4a9299361897f056714d89e57005dfbe3efc" />
<rom name="COVERT (Track 5).bin" size="47893776" crc="f3d246d5" md5="663d69fd0ba424166d29bb3e4a639cb0" sha1="d64e71886e57494a60e816275ce9e8357f0e9956" />
<rom name="COVERT (Track 6).bin" size="37432080" crc="de200fee" md5="eeb1c568d041d247d5d8a019fe87904d" sha1="bee06dfb0bb6a96af2b6811d4430a1bb5ad38e26" />
<rom name="COVERT (Track 7).bin" size="46085088" crc="1e34a3fb" md5="fc678933190954da604a59663a5459d5" sha1="ce462d1fb6635f172cd9a71d0c915fdfe62b0f47" />
<rom name="COVERT (Track 8).bin" size="48500592" crc="dfa694f8" md5="f332cd4b2138e73070a723f3aaf1415e" sha1="4d60c61b95ceda92085a9b950862b8939822d654" />

    Cuesheet:

CATALOG 0000000000000
FILE "COVERT (Track 1).bin" BINARY
  TRACK 01 MODE1/2352
    INDEX 01 00:00:00
FILE "COVERT (Track 2).bin" BINARY
  TRACK 02 AUDIO
    INDEX 00 00:00:00
    INDEX 01 00:02:00
FILE "COVERT (Track 3).bin" BINARY
  TRACK 03 AUDIO
    INDEX 01 00:00:00
FILE "COVERT (Track 4).bin" BINARY
  TRACK 04 AUDIO
    INDEX 01 00:00:00
FILE "COVERT (Track 5).bin" BINARY
  TRACK 05 AUDIO
    INDEX 01 00:00:00
FILE "COVERT (Track 6).bin" BINARY
  TRACK 06 AUDIO
    INDEX 01 00:00:00
FILE "COVERT (Track 7).bin" BINARY
  TRACK 07 AUDIO
    INDEX 01 00:00:00
FILE "COVERT (Track 8).bin" BINARY
  TRACK 08 AUDIO
    INDEX 01 00:00:00

    Write Offset: 0