Match: http://redump.org/disc/30671/
Logs: https://drive.google.com/open?id=1d1P0s … aj7xD72N4e

Common Disc Info:
    Title: Screamer 2
    Foreign Title (Non-latin): 
    Disc Number / Letter: (OPTIONAL)
    Disc Title: (OPTIONAL)
    System: IBM PC Compatible
    Media Type: CD-ROM
    Category: Games
    Matching IDs: 30671
    Region: Europe
    Languages: English
    Disc Serial: (REQUIRED, IF EXISTS)

    Ringcode Information:
        Mastering Code (laser branded/etched): AAF0041 0532-01VIE    ·
        Mastering SID Code: IFPI L122
        Data-Side Mould SID Code: (REQUIRED, IF EXISTS)
        Label-Side Mould SID Code: (REQUIRED, IF EXISTS)
        Additional Mould: (REQUIRED, IF EXISTS)
        Toolstamp or Mastering Code (engraved/stamped): 1:1
    Barcode: 5 028587 007354
    Error Count: 0
    Comments: [T:ISBN] (OPTIONAL)
    Contents: (OPTIONAL)

Version and Editions:
    Version: (REQUIRED, IF EXISTS)
    Edition/Release: Original

Extras:
    Primary Volume Descriptor (PVD):

0320 : 20 20 20 20 20 20 20 20  20 20 20 20 20 30 30 30                000
0330 : 30 30 30 30 30 30 30 30  30 30 30 30 30 00 30 30   0000000000000.00
0340 : 30 30 30 30 30 30 30 30  30 30 30 30 30 30 00 30   00000000000000.0
0350 : 30 30 30 30 30 30 30 30  30 30 30 30 30 30 30 00   000000000000000.
0360 : 30 30 30 30 30 30 30 30  30 30 30 30 30 30 30 30   0000000000000000
0370 : 00 01 00 00 00 00 00 00  00 00 00 00 00 00 00 00   ................

Copy Protection:
    Copy Protection: None found

Tracks and Write Offsets:
    DAT:

<rom name="SCREAMER2 (Track 1).bin" size="229564608" crc="a9defd9e" md5="290e3d638692d6ade60209977a6b3c88" sha1="9cc1eae66105504cb24a278162d397f4d7eef815" />
<rom name="SCREAMER2 (Track 2).bin" size="43192128" crc="ac857abc" md5="fd547fdc89851ee66b1f6dbadf142583" sha1="694337943396fea9c7b25ff712932796c9b69632" />
<rom name="SCREAMER2 (Track 3).bin" size="43443792" crc="66cb69fa" md5="01618c5548ac163d27db5b3c0d3c80d7" sha1="e71203fb568686038c08d642a7a5ad3ee512f269" />
<rom name="SCREAMER2 (Track 4).bin" size="43514352" crc="a97c5d88" md5="8ed29a2f8ff529d931283eb6300e5bf0" sha1="d2e6e7890cd44345ca47fff85a634d321d6173fc" />
<rom name="SCREAMER2 (Track 5).bin" size="42547680" crc="ab53c6b4" md5="20dba6815ca5d8ea5a310f123166de44" sha1="c5fed175ac73361cd6566c788c10774e4abed47d" />
<rom name="SCREAMER2 (Track 6).bin" size="40781328" crc="f9d2ed38" md5="d71de7d5c560dc4ae56b24a6a007ce9e" sha1="beea493aa884014881c0b47f1048ed1a872feef0" />
<rom name="SCREAMER2 (Track 7).bin" size="37554384" crc="bec5029f" md5="b22de79ee37f85c477bb4534b9d4ee80" sha1="a2df97dacff280600ae04db67da2e5a8e661ff5f" />
<rom name="SCREAMER2 (Track 8).bin" size="43535520" crc="69dddb65" md5="d9a2623e54865a8ea69f688751da909c" sha1="9133c6015b628ef1a11dcf20d5bd193fc09a73db" />
<rom name="SCREAMER2 (Track 9).bin" size="43469664" crc="2f9d58d5" md5="d542fe4abd3d35d208f0c6b424aeefcd" sha1="930a99dfd64d0ae777a09147f3e81c6e732d3e9c" />

    Cuesheet:

CATALOG 0000000000000
FILE "SCREAMER2 (Track 1).bin" BINARY
  TRACK 01 MODE1/2352
    INDEX 01 00:00:00
FILE "SCREAMER2 (Track 2).bin" BINARY
  TRACK 02 AUDIO
    INDEX 00 00:00:00
    INDEX 01 00:02:00
FILE "SCREAMER2 (Track 3).bin" BINARY
  TRACK 03 AUDIO
    INDEX 01 00:00:00
FILE "SCREAMER2 (Track 4).bin" BINARY
  TRACK 04 AUDIO
    INDEX 01 00:00:00
FILE "SCREAMER2 (Track 5).bin" BINARY
  TRACK 05 AUDIO
    INDEX 01 00:00:00
FILE "SCREAMER2 (Track 6).bin" BINARY
  TRACK 06 AUDIO
    INDEX 01 00:00:00
FILE "SCREAMER2 (Track 7).bin" BINARY
  TRACK 07 AUDIO
    INDEX 01 00:00:00
FILE "SCREAMER2 (Track 8).bin" BINARY
  TRACK 08 AUDIO
    INDEX 01 00:00:00
FILE "SCREAMER2 (Track 9).bin" BINARY
  TRACK 09 AUDIO
    INDEX 01 00:00:00

    Write Offset: 0