Match: http://redump.org/disc/1719/
Logs: https://drive.google.com/open?id=1J5gTj … rVXesWuI4f

Common Disc Info:
    Title: Screamer
    Foreign Title (Non-latin): 
    Disc Number / Letter: (OPTIONAL)
    Disc Title: (OPTIONAL)
    System: IBM PC Compatible
    Media Type: CD-ROM
    Category: Games
    Matching IDs: 1719
    Region: Europe
    Languages: English
    Disc Serial: (REQUIRED, IF EXISTS)

    Ringcode Information:
        Mastering Code (laser branded/etched): PROSOFT LOGISTICS 0076-01VIE SCREAMER ENGLISH
        Mastering SID Code: IFPI L041
        Data-Side Mould SID Code: (REQUIRED, IF EXISTS)
        Label-Side Mould SID Code: (REQUIRED, IF EXISTS)
        Additional Mould: (REQUIRED, IF EXISTS)
        Toolstamp or Mastering Code (engraved/stamped): (REQUIRED, IF EXISTS)
    Barcode: 5 028587 002564
    Error Count: 0
    Comments: [T:ISBN] (OPTIONAL)
    Contents: (OPTIONAL)

Version and Editions:
    Version: (REQUIRED, IF EXISTS)
    Edition/Release: Original

Extras:
    Primary Volume Descriptor (PVD):

0320 : 20 20 20 20 20 20 20 20  20 20 20 20 20 30 30 30                000
0330 : 30 30 30 30 30 30 30 30  30 30 30 30 30 00 30 30   0000000000000.00
0340 : 30 30 30 30 30 30 30 30  30 30 30 30 30 30 00 30   00000000000000.0
0350 : 30 30 30 30 30 30 30 30  30 30 30 30 30 30 30 00   000000000000000.
0360 : 30 30 30 30 30 30 30 30  30 30 30 30 30 30 30 30   0000000000000000
0370 : 00 01 00 00 00 00 00 00  00 00 00 00 00 00 00 00   ................

Copy Protection:
    Copy Protection: None found

Tracks and Write Offsets:
    DAT:

<rom name="SCREAMER1 (Track 1).bin" size="38212944" crc="6fab5f8d" md5="0ce371f7aea0ad65d39eaff4239976be" sha1="f702bddc2d88be778893a631f249e227d121fb7b" />
<rom name="SCREAMER1 (Track 2).bin" size="55065024" crc="d3a27827" md5="39dea25b7b2d6bd646e5f7465ed1f1b2" sha1="d36603447a8ee12501638ca3821610eaf62a6ea3" />
<rom name="SCREAMER1 (Track 3).bin" size="56048160" crc="10505e15" md5="eb4e91e7b96f7f9c3308fe9899286e08" sha1="0d28b39df411c1fb4bee09539ceb4b48be53d85c" />
<rom name="SCREAMER1 (Track 4).bin" size="55208496" crc="66170a0f" md5="28072ffbda38e8d73d2297b25b43cae6" sha1="d3a8a7f7fd3676fa869f2784feb6b0f41e219bf6" />
<rom name="SCREAMER1 (Track 5).bin" size="51741648" crc="c4d09333" md5="80c53e9e70dcc1f437e3f45d0e7d87a9" sha1="539bffba756be83d216cda7e9e63884e2fa3170f" />
<rom name="SCREAMER1 (Track 6).bin" size="55311984" crc="886c1f67" md5="febe4d59304d4ceb3ff91d23d505ca22" sha1="24b03378120bc47430c3b5ad67705ee067e9eef9" />
<rom name="SCREAMER1 (Track 7).bin" size="55928208" crc="c5225d0c" md5="f08e4751fda0110669a9890b2b2dfcf9" sha1="f21d046ecca7ce73605ffcca112d82cca104cec0" />
<rom name="SCREAMER1 (Track 8).bin" size="53188128" crc="1b004354" md5="269c6b6040fd236d9679b7e06a57a48f" sha1="7ca8ba0f3717e9236cced6e56166271ab1ac3ebe" />

    Cuesheet:

FILE "SCREAMER1 (Track 1).bin" BINARY
  TRACK 01 MODE1/2352
    INDEX 01 00:00:00
FILE "SCREAMER1 (Track 2).bin" BINARY
  TRACK 02 AUDIO
    INDEX 00 00:00:00
    INDEX 01 00:02:00
FILE "SCREAMER1 (Track 3).bin" BINARY
  TRACK 03 AUDIO
    INDEX 00 00:00:00
    INDEX 01 00:01:73
FILE "SCREAMER1 (Track 4).bin" BINARY
  TRACK 04 AUDIO
    INDEX 00 00:00:00
    INDEX 01 00:01:73
FILE "SCREAMER1 (Track 5).bin" BINARY
  TRACK 05 AUDIO
    INDEX 00 00:00:00
    INDEX 01 00:01:73
FILE "SCREAMER1 (Track 6).bin" BINARY
  TRACK 06 AUDIO
    INDEX 00 00:00:00
    INDEX 01 00:01:73
FILE "SCREAMER1 (Track 7).bin" BINARY
  TRACK 07 AUDIO
    INDEX 00 00:00:00
    INDEX 01 00:01:73
FILE "SCREAMER1 (Track 8).bin" BINARY
  TRACK 08 AUDIO
    INDEX 00 00:00:00
    INDEX 01 00:01:73

    Write Offset: -22