CD1

Match: http://redump.org/disc/35518/
Logs: https://drive.google.com/open?id=1eqt3y … lbVbKrvNrr

Common Disc Info:
    Title: Screamer
    Foreign Title (Non-latin): 
    Disc Number / Letter: (OPTIONAL)
    Disc Title: Disc 1
    System: IBM PC Compatible
    Media Type: CD-ROM
    Category: Games
    Matching IDs: 35518
    Region: Europe
    Languages: English
    Disc Serial: (REQUIRED, IF EXISTS)

    Ringcode Information:
        Mastering Code (laser branded/etched): 14970 02 %
        Mastering SID Code: IFPI L132
        Data-Side Mould SID Code:  IFPI 0448
        Label-Side Mould SID Code: (REQUIRED, IF EXISTS)
        Additional Mould: MADE IN UK BY PMDC
        Toolstamp or Mastering Code (engraved/stamped): (REQUIRED, IF EXISTS)
    Barcode: 5 028587 101229
    Error Count: 0
    Comments: [T:ISBN] (OPTIONAL)
    Contents: [+]Patches for Screamer 2 & Screamer Rally

Version and Editions:
    Version: (REQUIRED, IF EXISTS)
    Edition/Release: Screamer Injection

Extras:
    Primary Volume Descriptor (PVD):

0320 : 20 20 20 20 20 20 20 20  20 20 20 20 20 31 39 39                199
0330 : 38 30 35 30 36 31 32 30  30 34 34 30 30 00 31 39   8050612004400.19
0340 : 39 38 30 35 30 36 31 32  30 30 34 34 30 30 00 32   98050612004400.2
0350 : 30 31 38 30 35 30 33 31  33 30 30 30 30 30 30 00   018050313000000.
0360 : 31 39 39 38 30 35 30 36  31 32 30 30 34 34 30 30   1998050612004400
0370 : 00 01 00 00 00 00 00 00  00 00 00 00 00 00 00 00   ................

Copy Protection:
    Copy Protection: None found

Tracks and Write Offsets:
    DAT:

<rom name="SCREAMER (Track 1).bin" size="58463664" crc="12332e82" md5="b044dad438b3efa89b20bba924f57b61" sha1="3493d155886b40f572581a55c97fa527b637f4a5" />
<rom name="SCREAMER (Track 2).bin" size="55422528" crc="3e957b29" md5="f3b81b504f7ff0b77b55a728a857f32f" sha1="4ec0be0fc61094e871af2063e6060e5e3696d1a6" />
<rom name="SCREAMER (Track 3).bin" size="56405664" crc="3c3ea660" md5="7dc6e40b931bb9f859d6062f8eccb85e" sha1="509a7eda785be0bdcc061b86a6ff90c3e083a8b5" />
<rom name="SCREAMER (Track 4).bin" size="55566000" crc="17e91d1d" md5="6a7a95e043ab2840711e0c4a9e1f40f3" sha1="1ec4adae96587d21d4269fc76f95bfc63b087317" />
<rom name="SCREAMER (Track 5).bin" size="52099152" crc="c1bf8698" md5="7ebe265c15b3841bc67d0ba001be62ae" sha1="a00f8ed311f192de9d1725ec2dee5d1e1d141da4" />
<rom name="SCREAMER (Track 6).bin" size="55669488" crc="8d94be6e" md5="9368bbcc80eba6ad0b4392e4ff4dbb32" sha1="4594a7dc63768ab7e35c27b553030e9c4e19f2b6" />
<rom name="SCREAMER (Track 7).bin" size="56285712" crc="ec7e48ec" md5="586683560415dd578a97bafd3c8517b5" sha1="365c292dc398342ae98c3c69251000388c855121" />
<rom name="SCREAMER (Track 8).bin" size="53195184" crc="615a2c99" md5="4a9404ba6ee87b273a261a6a14c44935" sha1="f371ff3e919ec0e21a866e8e730c4aa360ff1aa7" />

    Cuesheet:

CATALOG 0000000000000
FILE "SCREAMER (Track 1).bin" BINARY
  TRACK 01 MODE1/2352
    INDEX 01 00:00:00
FILE "SCREAMER (Track 2).bin" BINARY
  TRACK 02 AUDIO
    INDEX 00 00:00:00
    INDEX 01 00:02:01
FILE "SCREAMER (Track 3).bin" BINARY
  TRACK 03 AUDIO
    INDEX 00 00:00:00
    INDEX 01 00:01:74
FILE "SCREAMER (Track 4).bin" BINARY
  TRACK 04 AUDIO
    INDEX 00 00:00:00
    INDEX 01 00:01:74
FILE "SCREAMER (Track 5).bin" BINARY
  TRACK 05 AUDIO
    INDEX 00 00:00:00
    INDEX 01 00:01:74
FILE "SCREAMER (Track 6).bin" BINARY
  TRACK 06 AUDIO
    INDEX 00 00:00:00
    INDEX 01 00:01:74
FILE "SCREAMER (Track 7).bin" BINARY
  TRACK 07 AUDIO
    INDEX 00 00:00:00
    INDEX 01 00:01:74
FILE "SCREAMER (Track 8).bin" BINARY
  TRACK 08 AUDIO
    INDEX 00 00:00:00
    INDEX 01 00:01:74

    Write Offset: 0

CD2

Match: http://redump.org/disc/31705/
Logs: https://drive.google.com/open?id=1M-Lf0 … UaVsfsJab7

Common Disc Info:
    Title: Screamer Rally
    Foreign Title (Non-latin): 
    Disc Number / Letter: (OPTIONAL)
    Disc Title: Disc 2
    System: IBM PC Compatible
    Media Type: CD-ROM
    Category: Games
    Matching IDs: 31705
    Region: Europe
    Languages: English
    Disc Serial: (REQUIRED, IF EXISTS)

    Ringcode Information:
        Mastering Code (laser branded/etched): VIE031   10494471 01 &
        Mastering SID Code: IFPI L134
        Data-Side Mould SID Code: IFPI 0482
        Label-Side Mould SID Code: (REQUIRED, IF EXISTS)
        Additional Mould: MADE IN UK BY PMDC
        Toolstamp or Mastering Code (engraved/stamped): (REQUIRED, IF EXISTS)
    Barcode: 5 028587 101229
    Error Count: 0
    Comments: [T:ISBN] (OPTIONAL)
    Contents: (OPTIONAL)

Version and Editions:
    Version: (REQUIRED, IF EXISTS)
    Edition/Release: Screamer Injection

Extras:
    Primary Volume Descriptor (PVD):

0320 : 20 20 20 20 20 20 20 20  20 20 20 20 20 30 30 30                000
0330 : 30 30 30 30 30 30 30 30  30 30 30 30 30 00 30 30   0000000000000.00
0340 : 30 30 30 30 30 30 30 30  30 30 30 30 30 30 00 30   00000000000000.0
0350 : 30 30 30 30 30 30 30 30  30 30 30 30 30 30 30 00   000000000000000.
0360 : 30 30 30 30 30 30 30 30  30 30 30 30 30 30 30 30   0000000000000000
0370 : 00 01 00 00 00 00 00 00  00 00 00 00 00 00 00 00   ................

Copy Protection:
    Copy Protection: 

Tracks and Write Offsets:
    DAT:

<rom name="SRALLY (Track 1).bin" size="193075680" crc="47df2538" md5="b415705573d216566035335b57bf1fc6" sha1="c07c1efdea7ee362a720b19a498ea9ae8faa5a97" />
<rom name="SRALLY (Track 2).bin" size="46912992" crc="86c6bde5" md5="e59069506975b25562a8705dac4e7e37" sha1="68875e0753cc761e05e972e1c12cc3f43f5e0140" />
<rom name="SRALLY (Track 3).bin" size="42884016" crc="0f615c33" md5="c8ecde23ed09e5be730fb2853be92a0b" sha1="a73dc44f1210d9e1403eb4836d9ba1163402fbfd" />
<rom name="SRALLY (Track 4).bin" size="45000816" crc="d8b6e837" md5="5d0860a8b27ac14363d74b9d3d4cf981" sha1="235c63700c0e19b9eb9321cfed723b56334bcf71" />
<rom name="SRALLY (Track 5).bin" size="44556288" crc="3a48c757" md5="8fc968aa1c99d909e78aa4376d8bce41" sha1="9e8e98cafe131f3ba77f418e7529e09b75e55551" />
<rom name="SRALLY (Track 6).bin" size="31239264" crc="58724dd5" md5="5723c8ac8ec1501cc3212fce8a5e3882" sha1="2fa71f35b769ca62a093215c455ff224a22fe585" />
<rom name="SRALLY (Track 7).bin" size="45951024" crc="1b84ffb6" md5="1201e172a5788d247e9b3b2db01ad47a" sha1="23836fe4f24943cedc3209a1e2fb440cc7143b20" />
<rom name="SRALLY (Track 8).bin" size="49161504" crc="7ab0c8bb" md5="47114466218114dd5795f01798abb9b9" sha1="ea5f65324892eee544730fbfe70c3bb7ba3ce92f" />
<rom name="SRALLY (Track 9).bin" size="61692960" crc="f1ea73ca" md5="a308ac2f378bae395d749559872b9b6e" sha1="4afcdbbe3e8ed38446d3bad43267567fd8c58824" />

    Cuesheet:

CATALOG 0000000000000
FILE "SRALLY (Track 1).bin" BINARY
  TRACK 01 MODE1/2352
    INDEX 01 00:00:00
FILE "SRALLY (Track 2).bin" BINARY
  TRACK 02 AUDIO
    INDEX 00 00:00:00
    INDEX 01 00:02:01
FILE "SRALLY (Track 3).bin" BINARY
  TRACK 03 AUDIO
    INDEX 00 00:00:00
    INDEX 01 00:01:74
FILE "SRALLY (Track 4).bin" BINARY
  TRACK 04 AUDIO
    INDEX 00 00:00:00
    INDEX 01 00:01:74
FILE "SRALLY (Track 5).bin" BINARY
  TRACK 05 AUDIO
    INDEX 00 00:00:00
    INDEX 01 00:01:74
FILE "SRALLY (Track 6).bin" BINARY
  TRACK 06 AUDIO
    INDEX 00 00:00:00
    INDEX 01 00:01:74
FILE "SRALLY (Track 7).bin" BINARY
  TRACK 07 AUDIO
    INDEX 00 00:00:00
    INDEX 01 00:01:74
FILE "SRALLY (Track 8).bin" BINARY
  TRACK 08 AUDIO
    INDEX 00 00:00:00
    INDEX 01 00:01:74
FILE "SRALLY (Track 9).bin" BINARY
  TRACK 09 AUDIO
    INDEX 00 00:00:00
    INDEX 01 00:01:74

    Write Offset: 0