Match: http://redump.org/disc/31991/
Logs: https://drive.google.com/open?id=1OmnyC … K07gLkLRSc

Common Disc Info:
    Title: Worms 2
    Foreign Title (Non-latin): 
    Disc Number / Letter: (OPTIONAL)
    Disc Title: (OPTIONAL)
    System: IBM PC Compatible
    Media Type: CD-ROM
    Category: Games
    Matching IDs: 31991
    Region: Europe
    Languages: Dutch, English, French, Italian, Portuguese, Spanish, Swedish
    Disc Serial: TMX93417D01R

    Ringcode Information:
        Mastering Code (laser branded/etched): NIMBUS    CDD19769 TMX93417D01R    :
        Mastering SID Code: IFPI L123
        Data-Side Mould SID Code: IFPI 2331
        Label-Side Mould SID Code: (REQUIRED, IF EXISTS)
        Additional Mould: (REQUIRED, IF EXISTS)
        Toolstamp or Mastering Code (engraved/stamped): 1:2
    Barcode: 5 022358 171039
    Error Count: 0
    Comments: [T:ISBN] (OPTIONAL)
    Contents: (OPTIONAL)

Version and Editions:
    Version: 1.0
    Edition/Release: Original

Extras:
    Primary Volume Descriptor (PVD):

0320 : 20 20 20 20 20 20 20 20  20 20 20 20 20 31 39 39                199
0330 : 37 31 31 31 34 32 32 33  30 34 30 30 30 00 31 39   7111422304000.19
0340 : 39 37 31 31 31 34 32 32  33 30 34 30 30 30 00 30   97111422304000.0
0350 : 30 30 30 30 30 30 30 30  30 30 30 30 30 30 30 00   000000000000000.
0360 : 30 30 30 30 30 30 30 30  30 30 30 30 30 30 30 30   0000000000000000
0370 : 00 01 00 00 00 00 00 00  00 00 00 00 00 00 00 00   ................

Copy Protection:
    Copy Protection: 

Tracks and Write Offsets:
    DAT:

<rom name="WORMS2 (Track 01).bin" size="363805008" crc="15c0b5f9" md5="5f9e04d2e2e6856d05b30b81b59030ba" sha1="e77b9efee5926c8ae8dde92146b8edc09d8cf287" />
<rom name="WORMS2 (Track 02).bin" size="1594656" crc="2785847a" md5="0bc5fbc7825b63da44b64100382b2026" sha1="22e589e9a9c185225b58b2ae1b18ebc88f5dfaae" />
<rom name="WORMS2 (Track 03).bin" size="45906336" crc="9ac165fb" md5="4672a46ad8c179b2008a5d4eaf8230d7" sha1="9d03d60249f2190610f66477a9f8b9ede9d2cb70" />
<rom name="WORMS2 (Track 04).bin" size="36735888" crc="8120ed9a" md5="957acbc3e8b4f989ea86ef97d213cc98" sha1="41437a4edddffc7fee8e49fd871fa1c73a0ef948" />
<rom name="WORMS2 (Track 05).bin" size="37206288" crc="eea778f6" md5="3cd16e789598b2f3ef3f63ec22efe354" sha1="4d4e5f3fd5e88591408c0692b68175f6a5976580" />
<rom name="WORMS2 (Track 06).bin" size="42564144" crc="8326bd64" md5="641a3dac7c5f3718dbe135b43cd3ff70" sha1="8f89edb5ce666e54aeabc65c6a5cac0a1dd39d24" />
<rom name="WORMS2 (Track 07).bin" size="39875808" crc="fea1c226" md5="b28c595c88573b8ad978d6bbf74ed9f8" sha1="1d7c0a38505aca7fc3a8f90e376febbc25697c2a" />
<rom name="WORMS2 (Track 08).bin" size="39189024" crc="3c436975" md5="732452751cf642e87f43e5441354df0f" sha1="cfb8f0016737dab574623be59295446ebc164b40" />
<rom name="WORMS2 (Track 09).bin" size="40687248" crc="0febbd1d" md5="7549196ba649fbe6b07899bc64bbc88c" sha1="feabafc3cbfcc16fb1dd6f6f45cedf4103be4a4d" />
<rom name="WORMS2 (Track 10).bin" size="1241856" crc="7854156e" md5="473fdd81d4528c7b2815bdbe3bf1e8d8" sha1="4ce524429d06f2298d1e8b9577775f528a97623f" />
<rom name="WORMS2 (Track 11).bin" size="18630192" crc="0b0565fe" md5="536b9c49a98deeeb58c56fe0d285f288" sha1="bdf403fedce6609056978fc60ac41fc350f72123" />
<rom name="WORMS2 (Track 12).bin" size="2264976" crc="4499c4ff" md5="04ae1adb2265fdde893c601b4693b681" sha1="ad274b9979127ce29f1cd37e65c95ae3b7ccb328" />
<rom name="WORMS2 (Track 13).bin" size="2187360" crc="221e039b" md5="b0c7d5029ada74e12e802eb6ffb3a3a8" sha1="ad98ed84661755524331906a9a662abcd4585a3e" />

    Cuesheet:

CATALOG 0000000000000
FILE "WORMS2 (Track 01).bin" BINARY
  TRACK 01 MODE2/2352
    INDEX 01 00:00:00
FILE "WORMS2 (Track 02).bin" BINARY
  TRACK 02 AUDIO
    INDEX 00 00:00:00
    INDEX 01 00:02:00
FILE "WORMS2 (Track 03).bin" BINARY
  TRACK 03 AUDIO
    INDEX 01 00:00:00
FILE "WORMS2 (Track 04).bin" BINARY
  TRACK 04 AUDIO
    INDEX 01 00:00:00
FILE "WORMS2 (Track 05).bin" BINARY
  TRACK 05 AUDIO
    INDEX 01 00:00:00
FILE "WORMS2 (Track 06).bin" BINARY
  TRACK 06 AUDIO
    INDEX 01 00:00:00
FILE "WORMS2 (Track 07).bin" BINARY
  TRACK 07 AUDIO
    INDEX 01 00:00:00
FILE "WORMS2 (Track 08).bin" BINARY
  TRACK 08 AUDIO
    INDEX 01 00:00:00
FILE "WORMS2 (Track 09).bin" BINARY
  TRACK 09 AUDIO
    INDEX 01 00:00:00
FILE "WORMS2 (Track 10).bin" BINARY
  TRACK 10 AUDIO
    INDEX 01 00:00:00
FILE "WORMS2 (Track 11).bin" BINARY
  TRACK 11 AUDIO
    INDEX 01 00:00:00
FILE "WORMS2 (Track 12).bin" BINARY
  TRACK 12 AUDIO
    INDEX 01 00:00:00
FILE "WORMS2 (Track 13).bin" BINARY
  TRACK 13 AUDIO
    INDEX 01 00:00:00

    Write Offset: 0