Match: http://redump.org/disc/34966/
Logs: https://drive.google.com/open?id=1BwS8V … Uxs0ZNC--m

Common Disc Info:
    Title: Tom Clancy's Rainbow Six: Rogue Spear
    Foreign Title (Non-latin): 
    Disc Number / Letter: (OPTIONAL)
    Disc Title: (OPTIONAL)
    System: IBM PC Compatible
    Media Type: CD-ROM
    Category: Games
    Matching IDs: 34966
    Region: Europe
    Languages: English
    Disc Serial: RED 257 Y006 0031 0001-01

    Ringcode Information:
        Mastering Code (laser branded/etched): S RSUKV 1.3 02
        Mastering SID Code: IFPI L503
        Data-Side Mould SID Code: IFPI 8714
        Label-Side Mould SID Code: (REQUIRED, IF EXISTS)
        Additional Mould: (REQUIRED, IF EXISTS)
        Toolstamp or Mastering Code (engraved/stamped): (REQUIRED, IF EXISTS)
    Barcode: 5 037347 380019
    Error Count: 826
    Comments: [T:ISBN] (OPTIONAL)
    Contents: (OPTIONAL)

Version and Editions:
    Version: 2.02
    Edition/Release: Original

Extras:
    Primary Volume Descriptor (PVD):

0320 : 20 20 20 20 20 20 20 20  20 20 20 20 20 31 39 39                199
0330 : 39 30 39 31 36 31 30 34  35 34 38 30 30 00 31 39   9091610454800.19
0340 : 39 39 30 39 31 36 31 30  34 35 34 38 30 30 00 30   99091610454800.0
0350 : 30 30 30 30 30 30 30 30  30 30 30 30 30 30 30 00   000000000000000.
0360 : 30 30 30 30 30 30 30 30  30 30 30 30 30 30 30 30   0000000000000000
0370 : 00 01 00 00 00 00 00 00  00 00 00 00 00 00 00 00   ................

Copy Protection:
    Copy Protection:

K:\: SafeDisc 1.3x
K:\00000001.TMP: SafeDisc 1 or greater
K:\00000809.016: SafeDisc 1
K:\00000809.256: SafeDisc 1
K:\clcd16.dll: SafeDisc 1
K:\clcd32.dll: SafeDisc 1
K:\clokspl.exe: SafeDisc 1, CD Check
K:\dplayerx.dll: SafeDisc 1.3x, SafeDisc 1.30.010
K:\drvmgt.dll: SafeDisc 1.1x-1.3x
K:\ROGUESPEAR.EXE: CD Check, SafeDisc 1.30.010
K:\ROGUESPEAR.ICD: SafeDisc 1, SafeDisc 1.30.010
K:\secdrv.sys: SafeDisc 2 or greater

Tracks and Write Offsets:
    DAT:

<rom name="ROGUESPR (Track 01).bin" size="607500432" crc="18f80d31" md5="204c1bc145a78b496e1afeba6297367e" sha1="12537427d7b4008ba86b79c8e72a5a1ca32996be" />
<rom name="ROGUESPR (Track 02).bin" size="18126864" crc="2c421a6d" md5="59b226129df593cbf98ff2662c6ea586" sha1="57126e1a30545dde1ec3b3b5e78f0583dabcc097" />
<rom name="ROGUESPR (Track 03).bin" size="4635792" crc="acc92867" md5="e434cef02c85a80b4ee89a92625dbc2c" sha1="39f5fe438f71be73c50c8679a0477739ec3cc835" />
<rom name="ROGUESPR (Track 04).bin" size="5402544" crc="089927ab" md5="233faba42f08cfed8a9ed05fa10dbca7" sha1="d1b3c7e620d942e2101c88e320cc8e7e3c0f9288" />
<rom name="ROGUESPR (Track 05).bin" size="6197520" crc="1deabaf9" md5="d0385ceb6c617b6ee4829cd7ed9ebbaa" sha1="9a0dd65d013ffc0098bb3dbb6abb15bdd6098b29" />
<rom name="ROGUESPR (Track 06).bin" size="6825504" crc="aaf0597e" md5="010672b880cf57138b8b241e7a77c9bd" sha1="59e7a9d893e402a73721860524ff7f0ede0206bf" />
<rom name="ROGUESPR (Track 07).bin" size="21631344" crc="e0cd2a8a" md5="205439744f16233453913b98fce0ce7f" sha1="1122284c43c2293f7f9dbd179eff05f8fb32473e" />
<rom name="ROGUESPR (Track 08).bin" size="23096640" crc="07e61e4f" md5="25fa4d353dbc8eae703a3ddbcfeb0db1" sha1="7430b5d45b782229dbcdff5852fac1466e820bd2" />
<rom name="ROGUESPR (Track 09).bin" size="7178304" crc="f75b06a3" md5="03d4257b86432486c2a0ac5c4361fba4" sha1="feddfde3f864c85eab494252c602473c589efb84" />
<rom name="ROGUESPR (Track 10).bin" size="6312768" crc="bd16ca52" md5="7400eb726d62a13d259bb1b6fd759e31" sha1="03a5a746292d8dce1bc14e7969d51fd8c9cd1b62" />
<rom name="ROGUESPR (Track 11).bin" size="6689088" crc="46d7fd90" md5="3c7c8c3510943d5fb4ee8ffdad0f2c6c" sha1="1a3917f7f9a3be626ccd37175c2e7d83b7327c52" />
<rom name="ROGUESPR (Track 12).bin" size="7260624" crc="6a84bc72" md5="c2f6db7b184e5a5da793b51340af7d40" sha1="656fa612944b9c12fe08ad8fbc00aa5453ce834c" />
<rom name="ROGUESPR (Track 13).bin" size="6439776" crc="0877160f" md5="6453683fd63f43cf02c1119b7e3f0bab" sha1="faa47584a296c46b8aff3775c87549010ab6c17e" />
<rom name="ROGUESPR (Track 14).bin" size="7914480" crc="5312b2b8" md5="7d8698203a78fa82dd19387de1f9e8b4" sha1="28a368faf4225952e12e9d386d7ce476dcf76805" />

    Cuesheet:

FILE "ROGUESPR (Track 01).bin" BINARY
  TRACK 01 MODE1/2352
    INDEX 01 00:00:00
FILE "ROGUESPR (Track 02).bin" BINARY
  TRACK 02 AUDIO
    INDEX 00 00:00:00
    INDEX 01 00:02:00
FILE "ROGUESPR (Track 03).bin" BINARY
  TRACK 03 AUDIO
    INDEX 01 00:00:00
FILE "ROGUESPR (Track 04).bin" BINARY
  TRACK 04 AUDIO
    INDEX 01 00:00:00
FILE "ROGUESPR (Track 05).bin" BINARY
  TRACK 05 AUDIO
    INDEX 01 00:00:00
FILE "ROGUESPR (Track 06).bin" BINARY
  TRACK 06 AUDIO
    INDEX 01 00:00:00
FILE "ROGUESPR (Track 07).bin" BINARY
  TRACK 07 AUDIO
    INDEX 01 00:00:00
FILE "ROGUESPR (Track 08).bin" BINARY
  TRACK 08 AUDIO
    INDEX 01 00:00:00
FILE "ROGUESPR (Track 09).bin" BINARY
  TRACK 09 AUDIO
    INDEX 01 00:00:00
FILE "ROGUESPR (Track 10).bin" BINARY
  TRACK 10 AUDIO
    INDEX 01 00:00:00
FILE "ROGUESPR (Track 11).bin" BINARY
  TRACK 11 AUDIO
    INDEX 01 00:00:00
FILE "ROGUESPR (Track 12).bin" BINARY
  TRACK 12 AUDIO
    INDEX 01 00:00:00
FILE "ROGUESPR (Track 13).bin" BINARY
  TRACK 13 AUDIO
    INDEX 01 00:00:00
FILE "ROGUESPR (Track 14).bin" BINARY
  TRACK 14 AUDIO
    INDEX 01 00:00:00

    Write Offset: -12