Match: http://redump.org/disc/34828/
Logs: https://drive.google.com/open?id=1X99lN … 0BJXeIP6qh

Common Disc Info:
    Title: Tom Clancy's Rainbow Six
    Foreign Title (Non-latin): 
    Disc Number / Letter: (OPTIONAL)
    Disc Title: (OPTIONAL)
    System: IBM PC Compatible
    Media Type: CD-ROM
    Category: Games
    Matching IDs: 34828
    Region: Europe
    Languages: English
    Disc Serial: RED 782 Y001-0001-0001-01

    Ringcode Information:
        Mastering Code (laser branded/etched): S R 6 UKV. 1. 03
        Mastering SID Code: IFPI L503
        Data-Side Mould SID Code: IFPI 8719
        Label-Side Mould SID Code: (REQUIRED, IF EXISTS)
        Additional Mould: (REQUIRED, IF EXISTS)
        Toolstamp or Mastering Code (engraved/stamped): (REQUIRED, IF EXISTS)
    Barcode: 5 037347 260014
    Error Count: 1250
    Comments: [T:ISBN] (OPTIONAL)
    Contents: (OPTIONAL)

Version and Editions:
    Version: 1.03
    Edition/Release: Gold Pack Edition

Extras:
    Primary Volume Descriptor (PVD):

0320 : 20 20 20 20 20 20 20 20  20 20 20 20 20 31 39 39                199
0330 : 38 30 39 32 35 31 31 32  34 34 31 30 30 00 31 39   8092511244100.19
0340 : 39 38 30 39 32 35 31 31  32 34 34 31 30 30 00 30   98092511244100.0
0350 : 30 30 30 30 30 30 30 30  30 30 30 30 30 30 30 00   000000000000000.
0360 : 30 30 30 30 30 30 30 30  30 30 30 30 30 30 30 30   0000000000000000
0370 : 00 01 00 00 00 00 00 00  00 00 00 00 00 00 00 00   ................

Copy Protection:
    Copy Protection:

K:\: SafeDisc 1.0x
K:\00000001.TMP: SafeDisc 1 or greater
K:\CLCD16.DLL: SafeDisc 1
K:\CLCD32.DLL: SafeDisc 1
K:\CLOKSPL.EXE: SafeDisc 1, CD Check
K:\DPLAYERX.DLL: SafeDisc 1.0x
K:\RAINBOWSIX.EXE: CD Check, SafeDisc 1.00.026
K:\RAINBOWSIX.icd: SafeDisc 1

Tracks and Write Offsets:
    DAT:

<rom name="RainbowSix (Track 01).bin" size="483020832" crc="ea3f0500" md5="8390e15e8167e40ed1d94850fcd2fb60" sha1="39007f7ac4ae52f991d1f89d2e08a7159c905c1a" />
<rom name="RainbowSix (Track 02).bin" size="16943808" crc="abb9cde3" md5="a3772c1a5e82311f55f019dd6b156cca" sha1="77b6287f0a353f228c1ddde5ee9c68c4b0fd90b2" />
<rom name="RainbowSix (Track 03).bin" size="5125008" crc="3d1c145f" md5="994718b2d5c69e02300d12980a82d84a" sha1="918efdb318fcb436b9cdae6eecbe24ba9056d284" />
<rom name="RainbowSix (Track 04).bin" size="5830608" crc="cb8e7593" md5="97c4c7584aca0f63049f92c189e4bbc1" sha1="8dfb00cb765fc41b1d413e8602dc3edd528d5b78" />
<rom name="RainbowSix (Track 05).bin" size="6712608" crc="107b0a5d" md5="1d2e1c6982a9345dacc3a2801334e54c" sha1="c2fc127d42234436f2ea0b81a060ff6eabb300c8" />
<rom name="RainbowSix (Track 06).bin" size="5830608" crc="663b313f" md5="0e867704522a448786efaf72759c9763" sha1="6c433d95b032507bf75476a7e06ce928cee6864d" />
<rom name="RainbowSix (Track 07).bin" size="24352608" crc="0c4f6bc3" md5="aee41ed38570e6a9c674a2c7eaf2cda6" sha1="3570e2fefb36dbc4c872f7e5737286c689d9059a" />
<rom name="RainbowSix (Track 08).bin" size="23647008" crc="4bf9272e" md5="da2ace86e24d633f61117caa09786138" sha1="5eb15a51bc4cb9e86ae6fe625afa7f6ef302e661" />
<rom name="RainbowSix (Track 09).bin" size="22059408" crc="9e5545f7" md5="35cdefd1554e99b4512e295d44343992" sha1="b9ba2c88831ebd6adb52af9fa9a8549abd40852b" />
<rom name="RainbowSix (Track 10).bin" size="24705408" crc="995454fd" md5="b593233a323e7d38d64ec218d65d4be7" sha1="85370f01e50fb51621ad3a145abaa9ac0f0edb25" />
<rom name="RainbowSix (Track 11).bin" size="25940208" crc="3fbe20c0" md5="7f5f332ee315b9a02c5e58902a30b2c1" sha1="f1e2830ad5a70683cdcfeb79f5fe028a7c851bb4" />
<rom name="RainbowSix (Track 12).bin" size="6359808" crc="58d50dc3" md5="3ca55ca3b871739fdcb14f608259e78e" sha1="d07f9db503112a251d46459b21873539d86dad6d" />
<rom name="RainbowSix (Track 13).bin" size="4419408" crc="5d908932" md5="d6460bd404c827c6d63470904b3b6a56" sha1="43ecaa501d09f18ac445c2285bc0385660b3b44c" />
<rom name="RainbowSix (Track 14).bin" size="5301408" crc="35898759" md5="7cc4621fddb05273dda87a41a4c646bc" sha1="6f778ced956021e1660c749d09710890bc87903f" />
<rom name="RainbowSix (Track 15).bin" size="7771008" crc="417b62ad" md5="e765c2b5c619e7ba040ffd5ce2360573" sha1="b28ab5596aaaed4fa066af3826d36c2d62e0384d" />
<rom name="RainbowSix (Track 16).bin" size="6712608" crc="8f994946" md5="ad1ab416bb5481f0996495192cbc5008" sha1="58f5cf8b8e4cca22b473340ed81a0d88d527844d" />

    Cuesheet:

FILE "RainbowSix (Track 01).bin" BINARY
  TRACK 01 MODE1/2352
    INDEX 01 00:00:00
FILE "RainbowSix (Track 02).bin" BINARY
  TRACK 02 AUDIO
    INDEX 00 00:00:00
    INDEX 01 00:02:00
FILE "RainbowSix (Track 03).bin" BINARY
  TRACK 03 AUDIO
    INDEX 00 00:00:00
    INDEX 01 00:02:00
FILE "RainbowSix (Track 04).bin" BINARY
  TRACK 04 AUDIO
    INDEX 00 00:00:00
    INDEX 01 00:02:00
FILE "RainbowSix (Track 05).bin" BINARY
  TRACK 05 AUDIO
    INDEX 00 00:00:00
    INDEX 01 00:02:00
FILE "RainbowSix (Track 06).bin" BINARY
  TRACK 06 AUDIO
    INDEX 00 00:00:00
    INDEX 01 00:02:00
FILE "RainbowSix (Track 07).bin" BINARY
  TRACK 07 AUDIO
    INDEX 00 00:00:00
    INDEX 01 00:02:00
FILE "RainbowSix (Track 08).bin" BINARY
  TRACK 08 AUDIO
    INDEX 00 00:00:00
    INDEX 01 00:02:00
FILE "RainbowSix (Track 09).bin" BINARY
  TRACK 09 AUDIO
    INDEX 00 00:00:00
    INDEX 01 00:02:00
FILE "RainbowSix (Track 10).bin" BINARY
  TRACK 10 AUDIO
    INDEX 00 00:00:00
    INDEX 01 00:02:00
FILE "RainbowSix (Track 11).bin" BINARY
  TRACK 11 AUDIO
    INDEX 00 00:00:00
    INDEX 01 00:02:00
FILE "RainbowSix (Track 12).bin" BINARY
  TRACK 12 AUDIO
    INDEX 00 00:00:00
    INDEX 01 00:02:00
FILE "RainbowSix (Track 13).bin" BINARY
  TRACK 13 AUDIO
    INDEX 00 00:00:00
    INDEX 01 00:02:00
FILE "RainbowSix (Track 14).bin" BINARY
  TRACK 14 AUDIO
    INDEX 00 00:00:00
    INDEX 01 00:02:00
FILE "RainbowSix (Track 15).bin" BINARY
  TRACK 15 AUDIO
    INDEX 00 00:00:00
    INDEX 01 00:02:00
FILE "RainbowSix (Track 16).bin" BINARY
  TRACK 16 AUDIO
    INDEX 00 00:00:00
    INDEX 01 00:02:00

    Write Offset: -12