Match: http://redump.org/disc/35819/
Logs: https://drive.google.com/open?id=1WSc0Q … FEqWMoHYv2

Common Disc Info:
    Title: Age of Empires
    Foreign Title (Non-latin): 
    Disc Number / Letter: (OPTIONAL)
    Disc Title: (OPTIONAL)
    System: IBM PC Compatible
    Media Type: CD-ROM
    Category: Games
    Matching IDs: 35819
    Region: Europe
    Languages: English
    Disc Serial: 0897 Part No. X03-44492

    Ringcode Information:
        Mastering Code (laser branded/etched): Sono press IC-4442/ X03-57513 A
        Mastering SID Code: IFPI L023
        Data-Side Mould SID Code: IFPI D701
        Label-Side Mould SID Code: (REQUIRED, IF EXISTS)
        Additional Mould: (REQUIRED, IF EXISTS)
        Toolstamp or Mastering Code (engraved/stamped): (REQUIRED, IF EXISTS)
    Barcode: 0 93007 55359 4
    Error Count: 0
    Comments: [T:ISBN] (OPTIONAL)
    Contents: (OPTIONAL)

Version and Editions:
    Version: 1.0a
    Edition/Release: Original

Extras:
    Primary Volume Descriptor (PVD):

0320 : 20 20 20 20 20 20 20 20  20 20 20 20 20 31 39 39                199
0330 : 37 31 32 31 38 31 36 31  36 34 33 30 30 00 31 39   7121816164300.19
0340 : 39 37 31 32 31 38 31 36  31 36 34 33 30 30 00 32   97121816164300.2
0350 : 30 30 37 31 32 31 36 31  36 31 36 34 33 30 30 00   007121616164300.
0360 : 31 39 39 37 31 32 31 38  31 36 31 36 34 33 30 30   1997121816164300
0370 : 00 01 00 00 00 00 00 00  00 00 00 00 00 00 00 00   ................

Copy Protection:
    Copy Protection: 

Tracks and Write Offsets:
    DAT:

<rom name="AOE1 (Track 01).bin" size="277846464" crc="dd4a62a2" md5="2a378e3e11ede35a73087150d5d5546b" sha1="42c33f595598e4762c6563b4cf427a35f5a20c8f" />
<rom name="AOE1 (Track 02).bin" size="10282944" crc="eb63674b" md5="1fa744cedbbb6541f280ca6ecbca0247" sha1="f420f736494e9e57c3fc6ff0d0fd02cf62728451" />
<rom name="AOE1 (Track 03).bin" size="3911376" crc="b2e8f043" md5="f085b1cd71d0534c9dad132a4930497a" sha1="05468e77a18c60bcb1733b38d01487428629049b" />
<rom name="AOE1 (Track 04).bin" size="9683184" crc="f77b8145" md5="655cc4284c03ff3c89c15fa3b06de98e" sha1="d45ae15c8bea84fea3ff6e3fca9bbad4ed72e6f7" />
<rom name="AOE1 (Track 05).bin" size="38114160" crc="cb6a4141" md5="81873a10d48a10211e521339b9df55ce" sha1="eb438d5e7e291b275c269881bf1fae08209e2b4c" />
<rom name="AOE1 (Track 06).bin" size="22226400" crc="4f41d52d" md5="de84032f6f0dbf809ec7ff32fe37bf73" sha1="4c9da290aa5da76367d1411f04f4ac02ed95f4d2" />
<rom name="AOE1 (Track 07).bin" size="34713168" crc="1341aa5c" md5="c00286fe0ac27e6da2e15e5931e4070a" sha1="d3650b856e074bae2e92eb3ffc40f662acaa501e" />
<rom name="AOE1 (Track 08).bin" size="37029888" crc="925951f2" md5="7ec36beb8338fc6702b71395a921198a" sha1="843476f38b8f1e7e328e58133f5bf68716a761e0" />
<rom name="AOE1 (Track 09).bin" size="30446640" crc="8b326a04" md5="eb9d217b2b0c90046af1eea8a22a7edd" sha1="5a0d5ac8e07bd93acc29f089840f764490ca20aa" />
<rom name="AOE1 (Track 10).bin" size="36757056" crc="f7466a48" md5="cdd8de8e03fb1366b3a9661cc131ce14" sha1="efabdd5862a4b626d32676a4c6c5ef563af80947" />
<rom name="AOE1 (Track 11).bin" size="27607776" crc="d56802c4" md5="b4800cb2513bef36c0e5d6c197cc4218" sha1="250025861ff4e4ad0fcae1c957f60afdd64c9b9e" />
<rom name="AOE1 (Track 12).bin" size="33798240" crc="386c9c6b" md5="a5f7cec21dd55ec78cc3089cb78aad52" sha1="2c0f5f1c44e336be136bdb42403fc9a2ff479bbf" />
<rom name="AOE1 (Track 13).bin" size="29694000" crc="eda023cf" md5="7e7c141260e7e0f6ca48833eb04995e1" sha1="5e76909a642a812a2b6a24a492a83826a3bc19b0" />
<rom name="AOE1 (Track 14).bin" size="30093840" crc="bb0b0668" md5="ca51e8f95711b117380cfc5f580dbc9c" sha1="ea14603b63ea645b3172954b25949adaa9c2922c" />

    Cuesheet:

FILE "AOE1 (Track 01).bin" BINARY
  TRACK 01 MODE1/2352
    INDEX 01 00:00:00
FILE "AOE1 (Track 02).bin" BINARY
  TRACK 02 AUDIO
    INDEX 00 00:00:00
    INDEX 01 00:01:00
FILE "AOE1 (Track 03).bin" BINARY
  TRACK 03 AUDIO
    INDEX 01 00:00:00
FILE "AOE1 (Track 04).bin" BINARY
  TRACK 04 AUDIO
    INDEX 01 00:00:00
FILE "AOE1 (Track 05).bin" BINARY
  TRACK 05 AUDIO
    INDEX 01 00:00:00
FILE "AOE1 (Track 06).bin" BINARY
  TRACK 06 AUDIO
    INDEX 01 00:00:00
FILE "AOE1 (Track 07).bin" BINARY
  TRACK 07 AUDIO
    INDEX 01 00:00:00
FILE "AOE1 (Track 08).bin" BINARY
  TRACK 08 AUDIO
    INDEX 01 00:00:00
FILE "AOE1 (Track 09).bin" BINARY
  TRACK 09 AUDIO
    INDEX 01 00:00:00
FILE "AOE1 (Track 10).bin" BINARY
  TRACK 10 AUDIO
    INDEX 01 00:00:00
FILE "AOE1 (Track 11).bin" BINARY
  TRACK 11 AUDIO
    INDEX 01 00:00:00
FILE "AOE1 (Track 12).bin" BINARY
  TRACK 12 AUDIO
    INDEX 01 00:00:00
FILE "AOE1 (Track 13).bin" BINARY
  TRACK 13 AUDIO
    INDEX 01 00:00:00
FILE "AOE1 (Track 14).bin" BINARY
  TRACK 14 AUDIO
    INDEX 01 00:00:00

    Write Offset: -12