1 (edited by Cookie 2020-05-20 06:32:44)

Matches: http://redump.org/disc/3520/
Logs: https://mega.nz/file/KBtGyYwL#o_qpLzmB1 … ZBSyCgO7z0

I know there's several verifications of this one already. I verified because there's a second, unverified entry for this game, and I wasn't sure which copy mine would be.

Common Disc Info:
    Title: Sakura Taisen: Hanagumi Taisen Columns
    Foreign Title (Non-latin): サクラ大戦花組対戦コラムス
    Disc Number / Letter: (OPTIONAL)
    Disc Title: (OPTIONAL)
    System: Sega Saturn
    Media Type: CD
    Category: Games
    Matching IDs: 3520
    Region: Japan
    Languages: Japanese
    Serial: GS-9138
    Build Date: 1997-02-26

    Ringcode Information:
        Mastering Code (laser branded/etched): GS-9138P-01459[TAB]1MM1[TAB]C[TAB]73
        Mastering SID Code: IFPI L223
        Label-Side Mould SID Code: IFPI 3907
        Data-Side Mould SID Code: 
        Additional Mould: 
        Toolstamp or Mastering Code (engraved/stamped): 

    Barcode: 4 974365 091385
    Error Count: 0
    Comments: [T:ISBN] (OPTIONAL)
    Contents: (OPTIONAL)

Version and Editions:
    Version: 1.000
    Edition/Release: Original

Extras:
    Primary Volume Descriptor (PVD):

0320 : 20 20 20 20 20 20 20 20  20 20 20 20 20 31 39 39                199
0330 : 37 30 32 32 35 31 39 34  39 32 36 30 30 14 31 39   7022519492600.19
0340 : 39 37 30 32 32 35 31 39  34 39 32 36 30 30 14 30   97022519492600.0
0350 : 30 30 30 30 30 30 30 30  30 30 30 30 30 30 30 00   000000000000000.
0360 : 30 30 30 30 30 30 30 30  30 30 30 30 30 30 30 30   0000000000000000
0370 : 00 01 00 00 00 00 00 00  00 00 00 00 00 00 00 00   ................

    Header:

0000 : 53 45 47 41 20 53 45 47  41 53 41 54 55 52 4E 20   SEGA SEGASATURN 
0010 : 53 45 47 41 20 45 4E 54  45 52 50 52 49 53 45 53   SEGA ENTERPRISES
0020 : 47 53 2D 39 31 33 38 20  20 20 56 31 2E 30 30 30   GS-9138   V1.000
0030 : 31 39 39 37 30 32 32 36  43 44 2D 31 2F 31 20 20   19970226CD-1/1  
0040 : 4A 54 20 20 20 20 20 20  20 20 20 20 20 20 20 20   JT              
0050 : 4A 20 20 20 20 20 20 20  20 20 20 20 20 20 20 20   J               
0060 : 48 41 4E 41 47 55 4D 49  20 54 41 49 53 45 4E 20   HANAGUMI TAISEN 
0070 : 43 4F 4C 55 4D 4E 53 20  20 20 20 20 20 20 20 20   COLUMNS         
0080 : 20 20 20 20 20 20 20 20  20 20 20 20 20 20 20 20                   
0090 : 20 20 20 20 20 20 20 20  20 20 20 20 20 20 20 20                   
00A0 : 20 20 20 20 20 20 20 20  20 20 20 20 20 20 20 20                   
00B0 : 20 20 20 20 20 20 20 20  20 20 20 20 20 20 20 20                   
00C0 : 20 20 20 20 20 20 20 20  20 20 20 20 20 20 20 20                   
00D0 : 00 00 00 00 00 00 00 00  00 00 00 00 00 00 00 00   ................
00E0 : 00 00 80 00 00 00 00 00  00 00 00 00 00 00 00 00   ................
00F0 : 06 00 40 00 00 00 00 00  00 00 00 00 00 00 00 00   ..@.............

Copy Protection:
    Copy Protection: 

Tracks and Write Offsets:
    DAT:

    <rom name="Hanagumi_Taisen_Columns (Track 1).bin" size="275821392" crc="d90fe1a6" md5="c13aed4c6e9e5e26b0d424dc4a19f480" sha1="7182180a8acfd0b5306cde838a1c52d06ee9d278" />
    <rom name="Hanagumi_Taisen_Columns (Track 2).bin" size="4405296" crc="6b60ce16" md5="9a10ac769239efc417d9e766c1926ae9" sha1="afc84da1dd97360d116c34251751063c7e166926" />
    <rom name="Hanagumi_Taisen_Columns (Track 3).bin" size="4480560" crc="d96eee00" md5="99c660f6430af399d1beb4b1ce821e17" sha1="7d57f2dc187b09e17eab842ef4f76aea1352b657" />
    <rom name="Hanagumi_Taisen_Columns (Track 4).bin" size="37641408" crc="b654156a" md5="b0f2f7855c7234ebed629688889d17fa" sha1="eba9980099c1cbc064151edab7184a04f5d4dfa2" />
    <rom name="Hanagumi_Taisen_Columns (Track 5).bin" size="8617728" crc="3b1083ef" md5="fe45b68a3734c72939504c97f33328fc" sha1="36600db8d22f2a3bffa880c6d3b1e1072fdaf407" />

    Cuesheet:

CATALOG 0000000000000
FILE "Hanagumi_Taisen_Columns.img" BINARY
  TRACK 01 MODE1/2352
    INDEX 01 00:00:00
  TRACK 02 AUDIO
    INDEX 00 26:03:46
    INDEX 01 26:05:46
  TRACK 03 AUDIO
    INDEX 00 26:28:44
    INDEX 01 26:30:44
  TRACK 04 AUDIO
    INDEX 00 26:53:74
    INDEX 01 26:55:74
  TRACK 05 AUDIO
    INDEX 00 30:27:28
    INDEX 01 30:29:28
Write Offset: 0