Existing entry: http://redump.org/disc/25297/
Logs: https://mega.nz/file/iYs0Wa7a#y0BMcn00a … TrtFJ67sZM

The hash for track 1 lines up with the one in Redump, but the rest of the hashes don't.

Common Disc Info:
    Title: Mahou Gakuen Lunar!
    Foreign Title (Non-latin): 魔法学園ルナ!
    Disc Number / Letter: (OPTIONAL)
    Disc Title: (OPTIONAL)
    System: Sega Saturn
    Media Type: CD
    Category: Games
    Matching IDs: 25297
    Region: Japan
    Languages: Japanese
    Serial: T-27902G
    Build Date: 1997-10-06

    Ringcode Information:
        Mastering Code (laser branded/etched): T-27902GP-01932[TAB]1MB1[TAB]C[TAB]7X
        Mastering SID Code: IFPI L223
        Label-Side Mould SID Code: 
        Data-Side Mould SID Code: IFPI 3914
        Additional Mould: 
        Toolstamp or Mastering Code (engraved/stamped): 
    Barcode: (OPTIONAL)
    Error Count: 0
    Comments: [T:ISBN] (OPTIONAL)
    Contents: (OPTIONAL)

Version and Editions:
    Version: 2.000
    Edition/Release: Original

Extras:
    Primary Volume Descriptor (PVD):

0320 : 20 20 20 20 20 20 20 20  20 20 20 20 20 31 39 39                199
0330 : 37 30 39 32 39 30 30 30  30 30 30 30 30 00 31 39   7092900000000.19
0340 : 39 37 30 39 32 39 30 30  30 30 30 30 30 30 00 30   97092900000000.0
0350 : 30 30 30 30 30 30 30 30  30 30 30 30 30 30 30 00   000000000000000.
0360 : 30 30 30 30 30 30 30 30  30 30 30 30 30 30 30 30   0000000000000000
0370 : 00 01 00 00 00 00 00 00  00 00 00 00 00 00 00 00   ................

    Header:

0000 : 53 45 47 41 20 53 45 47  41 53 41 54 55 52 4E 20   SEGA SEGASATURN 
0010 : 53 45 47 41 20 54 50 20  54 2D 32 37 39 20 20 20   SEGA TP T-279   
0020 : 54 2D 32 37 39 30 32 47  20 20 56 32 2E 30 30 30   T-27902G  V2.000
0030 : 31 39 39 37 31 30 30 36  43 44 2D 31 2F 31 20 20   19971006CD-1/1  
0040 : 4A 20 20 20 20 20 20 20  20 20 20 20 20 20 20 20   J               
0050 : 4A 20 20 20 20 20 20 20  20 20 20 20 20 20 20 20   J               
0060 : 4D 41 48 4F 55 20 47 41  4B 55 45 4E 20 4C 55 4E   MAHOU GAKUEN LUN
0070 : 41 52 20 20 20 20 20 20  20 20 20 20 20 20 20 20   AR              
0080 : 20 20 20 20 20 20 20 20  20 20 20 20 20 20 20 20                   
0090 : 20 20 20 20 20 20 20 20  20 20 20 20 20 20 20 20                   
00A0 : 20 20 20 20 20 20 20 20  20 20 20 20 20 20 20 20                   
00B0 : 20 20 20 20 20 20 20 20  20 20 20 20 20 20 20 20                   
00C0 : 20 20 20 20 20 20 20 20  20 20 20 20 20 20 20 20                   
00D0 : 00 00 00 00 00 00 00 00  00 00 00 00 00 00 00 00   ................
00E0 : 00 00 18 00 00 00 00 00  00 00 00 00 00 00 00 00   ................
00F0 : 06 01 80 00 00 00 00 00  00 00 00 00 00 00 00 00   ................

Copy Protection:
    Copy Protection: 

Tracks and Write Offsets:
    DAT:

    <rom name="MahouGakuenLunar (Track 01).bin" size="454643952" crc="3cc5331f" md5="7235eb0892ce34a4a996fc95aff9687f" sha1="fcdcc837b7bd233e06acb687dbb264307234037d" />
    <rom name="MahouGakuenLunar (Track 02).bin" size="6244560" crc="fe0c0cee" md5="13caa71f88caedf0d588801417bbb1cf" sha1="1366811182654642b6ea60037b470c91d48f7d3d" />
    <rom name="MahouGakuenLunar (Track 03).bin" size="12150432" crc="df04a6a4" md5="910b1b4f727169d4557ae715ef7e96ba" sha1="e23e2c5bb14eb3922668a0afd7d0be786c82460e" />
    <rom name="MahouGakuenLunar (Track 04).bin" size="6961920" crc="e5fb201a" md5="7e2c56664949ff71506a3e0abd81fdff" sha1="d819f7388491788fa45bdfefdf99a86f363f8194" />
    <rom name="MahouGakuenLunar (Track 05).bin" size="7262976" crc="31835d34" md5="892481f4b1a8cb39fcc601e1d8292af9" sha1="a46e7cb906552c93f28698f74b96a9d800847970" />
    <rom name="MahouGakuenLunar (Track 06).bin" size="10261776" crc="f9db02fe" md5="37417bb0bc4e333f889614e6490242dd" sha1="e700eb73de7dcc98f5db43ca36ea02ba76857254" />
    <rom name="MahouGakuenLunar (Track 07).bin" size="11959920" crc="ea583bfe" md5="8e2ff991b494ba4179f4c521381189be" sha1="408992ac24e1f5b530ed1be2e39b301fdc8f1cdb" />
    <rom name="MahouGakuenLunar (Track 08).bin" size="11776464" crc="8b425159" md5="a7f35e5300c7b1864acefead93ffc260" sha1="255d785bcefa0ad5e10aa2b610c3961eb6dce621" />
    <rom name="MahouGakuenLunar (Track 09).bin" size="10028928" crc="37749b14" md5="a80a2e6f078950ca4cbd977458589ef6" sha1="6ce8d5cd51e81254a498cb1dc410cfa56b215fed" />
    <rom name="MahouGakuenLunar (Track 10).bin" size="14829360" crc="e9c51a97" md5="31655158166be37448ae204c93f4191e" sha1="2d4c420d6f36f96d8b2c58432111d7e87cbefcf7" />
    <rom name="MahouGakuenLunar (Track 11).bin" size="4174800" crc="8f0609fa" md5="a4445a246f2a341723a3ba861d91bfea" sha1="4bda177319aa2e93a574e2a8f1f2e767b5c2cc74" />
    <rom name="MahouGakuenLunar (Track 12).bin" size="13735680" crc="22561429" md5="5c898da6a0b6a9bd5cdf29c5e2a2a0d5" sha1="2af4e6f1736aa222a7e720fac9aa93adbf21d084" />
    <rom name="MahouGakuenLunar (Track 13).bin" size="7613424" crc="5c3a81d2" md5="1050119374907afc51e518f9110c399e" sha1="6ef5f78a39d585ba425d13634d224f2c96926014" />
    <rom name="MahouGakuenLunar (Track 14).bin" size="8184960" crc="ba0d3d06" md5="c953627b15b07f241e32665941d0b95e" sha1="26c98663a47491ee3f65809d3c8a4e6a30d6f5ec" />
    <rom name="MahouGakuenLunar (Track 15).bin" size="9285696" crc="62372aa2" md5="32a02d21c57f5ca10d6c20f9c2ae734b" sha1="390859eefe50dc21334ec36b3810409aabae25b9" />
    <rom name="MahouGakuenLunar (Track 16).bin" size="8991696" crc="51a5beb3" md5="7bb6d9749f5ef1aae02a7f161d07dd5f" sha1="a839279849695007a1b2a1b2d00b91b8d05b19aa" />
    <rom name="MahouGakuenLunar (Track 17).bin" size="7747488" crc="db75d9a5" md5="3884aca53f3980b25594203cf987d562" sha1="8477b9968c8b1c3be30a6786f750a8a8c6885e8c" />
    <rom name="MahouGakuenLunar (Track 18).bin" size="6623232" crc="3dcce916" md5="206b7804de9268cc7dc2dbe0be39ad84" sha1="0b5891f709c87f84b3f2f785e03f07dea8a5cdb3" />
    <rom name="MahouGakuenLunar (Track 19).bin" size="8518944" crc="42d51fec" md5="0e951cb378231c171d581ff734ad6923" sha1="b65b8cabf336b0c830495b8cfffd57d44af487a9" />
    <rom name="MahouGakuenLunar (Track 20).bin" size="1648752" crc="4acf403a" md5="a2cd796533f2be8f19b722994aca4409" sha1="9b9d158616481e68ed6d6ddd51cc50376032734c" />
    <rom name="MahouGakuenLunar (Track 21).bin" size="1867488" crc="68bdb922" md5="b9a42607c91cb0d8d15e584183b49bc2" sha1="4146a0dea643147321509cb308adcccc7f8107c8" />
    <rom name="MahouGakuenLunar (Track 22).bin" size="1992144" crc="7fb2b4ba" md5="32178e5d6bbd993c7cfbeb982ea8e19a" sha1="ca756a8a3b099e1233a17b8ef596d98747b1f774" />
    <rom name="MahouGakuenLunar (Track 23).bin" size="1183056" crc="e405060a" md5="9633fc06c82daca144ab1b44f23de7fd" sha1="b610aafe7f5d0c9c12112cb4e462f4a0aca8a741" />
    <rom name="MahouGakuenLunar (Track 24).bin" size="5593056" crc="d42bb675" md5="bd612112864fc9b249e46bf729ceab2b" sha1="7f557afb8168b21c67d9c45c166dba6413f77b24" />
    <rom name="MahouGakuenLunar (Track 25).bin" size="5075616" crc="ee2b796b" md5="9c8d52c9c9d6a515f28e65f3f7629650" sha1="7b8c0ff7e1a121dbf4694d74a3115c4daf4a96bb" />
    <rom name="MahouGakuenLunar (Track 26).bin" size="1437072" crc="5e023896" md5="1b35e98778cec26d3f7f4aed42bf5405" sha1="65fbd4964cc0d02fc25a95ba5c73fce6439be8b8" />
    <rom name="MahouGakuenLunar (Track 27).bin" size="1721664" crc="baad1a9b" md5="1b84b8710ae5aca096562990d97b6e0a" sha1="f10ea7cc7b0448e5c3e35633195daacd6c98aa13" />
    <rom name="MahouGakuenLunar (Track 28).bin" size="2504880" crc="e09f0084" md5="730760167725374d036f71da3b06acfc" sha1="472b11163907769d349e8356243405020c7d8df7" />
    Cuesheet:

CATALOG 0000000000000
FILE "MahouGakuenLunar (Track 01).bin" BINARY
  TRACK 01 MODE1/2352
    INDEX 01 00:00:00
FILE "MahouGakuenLunar (Track 02).bin" BINARY
  TRACK 02 AUDIO
    INDEX 00 00:00:00
    INDEX 01 00:02:00
FILE "MahouGakuenLunar (Track 03).bin" BINARY
  TRACK 03 AUDIO
    INDEX 00 00:00:00
    INDEX 01 00:02:00
FILE "MahouGakuenLunar (Track 04).bin" BINARY
  TRACK 04 AUDIO
    INDEX 00 00:00:00
    INDEX 01 00:02:00
FILE "MahouGakuenLunar (Track 05).bin" BINARY
  TRACK 05 AUDIO
    INDEX 00 00:00:00
    INDEX 01 00:02:00
FILE "MahouGakuenLunar (Track 06).bin" BINARY
  TRACK 06 AUDIO
    INDEX 00 00:00:00
    INDEX 01 00:02:00
FILE "MahouGakuenLunar (Track 07).bin" BINARY
  TRACK 07 AUDIO
    INDEX 00 00:00:00
    INDEX 01 00:02:00
FILE "MahouGakuenLunar (Track 08).bin" BINARY
  TRACK 08 AUDIO
    INDEX 00 00:00:00
    INDEX 01 00:02:00
FILE "MahouGakuenLunar (Track 09).bin" BINARY
  TRACK 09 AUDIO
    INDEX 00 00:00:00
    INDEX 01 00:02:00
FILE "MahouGakuenLunar (Track 10).bin" BINARY
  TRACK 10 AUDIO
    INDEX 00 00:00:00
    INDEX 01 00:02:00
FILE "MahouGakuenLunar (Track 11).bin" BINARY
  TRACK 11 AUDIO
    INDEX 00 00:00:00
    INDEX 01 00:02:00
FILE "MahouGakuenLunar (Track 12).bin" BINARY
  TRACK 12 AUDIO
    INDEX 00 00:00:00
    INDEX 01 00:02:00
FILE "MahouGakuenLunar (Track 13).bin" BINARY
  TRACK 13 AUDIO
    INDEX 00 00:00:00
    INDEX 01 00:02:00
FILE "MahouGakuenLunar (Track 14).bin" BINARY
  TRACK 14 AUDIO
    INDEX 00 00:00:00
    INDEX 01 00:02:00
FILE "MahouGakuenLunar (Track 15).bin" BINARY
  TRACK 15 AUDIO
    INDEX 00 00:00:00
    INDEX 01 00:02:00
FILE "MahouGakuenLunar (Track 16).bin" BINARY
  TRACK 16 AUDIO
    INDEX 00 00:00:00
    INDEX 01 00:02:00
FILE "MahouGakuenLunar (Track 17).bin" BINARY
  TRACK 17 AUDIO
    INDEX 00 00:00:00
    INDEX 01 00:02:00
FILE "MahouGakuenLunar (Track 18).bin" BINARY
  TRACK 18 AUDIO
    INDEX 00 00:00:00
    INDEX 01 00:02:00
FILE "MahouGakuenLunar (Track 19).bin" BINARY
  TRACK 19 AUDIO
    INDEX 00 00:00:00
    INDEX 01 00:02:00
FILE "MahouGakuenLunar (Track 20).bin" BINARY
  TRACK 20 AUDIO
    INDEX 00 00:00:00
    INDEX 01 00:02:00
FILE "MahouGakuenLunar (Track 21).bin" BINARY
  TRACK 21 AUDIO
    INDEX 00 00:00:00
    INDEX 01 00:02:00
FILE "MahouGakuenLunar (Track 22).bin" BINARY
  TRACK 22 AUDIO
    INDEX 00 00:00:00
    INDEX 01 00:02:00
FILE "MahouGakuenLunar (Track 23).bin" BINARY
  TRACK 23 AUDIO
    INDEX 00 00:00:00
    INDEX 01 00:02:00
FILE "MahouGakuenLunar (Track 24).bin" BINARY
  TRACK 24 AUDIO
    INDEX 00 00:00:00
    INDEX 01 00:02:00
FILE "MahouGakuenLunar (Track 25).bin" BINARY
  TRACK 25 AUDIO
    INDEX 00 00:00:00
    INDEX 01 00:02:00
FILE "MahouGakuenLunar (Track 26).bin" BINARY
  TRACK 26 AUDIO
    INDEX 00 00:00:00
    INDEX 01 00:02:00
FILE "MahouGakuenLunar (Track 27).bin" BINARY
  TRACK 27 AUDIO
    INDEX 00 00:00:00
    INDEX 01 00:02:00
FILE "MahouGakuenLunar (Track 28).bin" BINARY
  TRACK 28 AUDIO
    INDEX 00 00:00:00
    INDEX 01 00:02:00

    Write Offset: 0