Match: http://redump.org/disc/66542/
Logs: https://drive.google.com/open?id=10e7kW … ukenbHGwhO

Common Disc Info:
    Title: FIFA 97
    Foreign Title (Non-latin): 
    Disc Number / Letter: (OPTIONAL)
    Disc Title: (OPTIONAL)
    System: IBM PC Compatible
    Media Type: CD-ROM
    Category: Games
    Matching IDs: 66542
    Region: Europe
    Languages: English, French, German, Italian, Spanish, Swedish
    Disc Serial: EAX05501051D

    Ringcode Information:
        Mastering Code (laser branded/etched): EAX05501051D 10444051 01 &    MADE IN U.K. BY PDO
        Mastering SID Code: IFPI L134
        Data-Side Mould SID Code: IFPI 0496
        Label-Side Mould SID Code: (REQUIRED, IF EXISTS)
        Additional Mould: (REQUIRED, IF EXISTS)
        Toolstamp or Mastering Code (engraved/stamped): (REQUIRED, IF EXISTS)
    Barcode: 5 030930 010751
    Error Count: 0
    Comments: First 75 sectors of Track 2 contain scrambled data.
    Contents: (OPTIONAL)

Version and Editions:
    Version: (REQUIRED, IF EXISTS)
    Edition/Release: Original

Extras:
    Primary Volume Descriptor (PVD):

0320 : 20 20 20 20 20 20 20 20  20 20 20 20 20 31 39 39                199
0330 : 36 31 30 31 37 32 30 31  33 31 30 30 30 00 31 39   6101720131000.19
0340 : 39 36 31 30 31 37 32 30  31 33 31 30 30 30 00 30   96101720131000.0
0350 : 30 30 30 30 30 30 30 30  30 30 30 30 30 30 30 00   000000000000000.
0360 : 30 30 30 30 30 30 30 30  30 30 30 30 30 30 30 30   0000000000000000
0370 : 00 01 00 00 00 00 00 00  00 00 00 00 00 00 00 00   ................

Copy Protection:
    Copy Protection: 

Tracks and Write Offsets:
    DAT:

<rom name="FIFAPCCD (Track 01).bin" size="393421392" crc="761fcf58" md5="ae486d4c886906ae83cb10e5e1c1275c" sha1="a41bb53176728f9b3d86143af4993611180af169" />
<rom name="FIFAPCCD (Track 02).bin" size="21565488" crc="362fa734" md5="8512a2eafcede67b2848f3fbf1e9b6c5" sha1="7e29c1c14083ff234a67ea81c5b89f0a79c78c5c" />
<rom name="FIFAPCCD (Track 03).bin" size="21537264" crc="761d170a" md5="6469303c57919f320c83df6343f09372" sha1="32c2f2d9eba8d5f25b939eb878f4a8a4b6571246" />
<rom name="FIFAPCCD (Track 04).bin" size="14074368" crc="89c0aa85" md5="3a5cb8aefff4ebef305b42b02a9f8af5" sha1="822918aa1bb26f201f056f3be012b20f7ff1a70c" />
<rom name="FIFAPCCD (Track 05).bin" size="29449392" crc="f09350da" md5="3d0d3d13f7631ed9098160ddc932cf67" sha1="cd85aa8b7bacc3663ed6507d311a29fa3731be35" />
<rom name="FIFAPCCD (Track 06).bin" size="16807392" crc="15070701" md5="35111184ee78a9a1420a438f800f59bf" sha1="353bace41ea7eb471c8ecf95e0e1bf32b0dc77f7" />
<rom name="FIFAPCCD (Track 07).bin" size="24601920" crc="0ebc667d" md5="bd6f7ea9d7afa34b4cbb9a4920c4e552" sha1="7ac00031066b800f9a91fd7eb7d33f5656024ff8" />
<rom name="FIFAPCCD (Track 08).bin" size="34127520" crc="1e77fca7" md5="e8a2a038a1d1c947a80ed04d192db6e0" sha1="9f3982cf6fd5265a6b3152d35955bddd0b0109ff" />
<rom name="FIFAPCCD (Track 09).bin" size="13493424" crc="9483a0f6" md5="ed6b7c6f86ed81c406911d39ca5559ab" sha1="287e1ec3fa4522f495ac6728b1e0866df56b4d3b" />
<rom name="FIFAPCCD (Track 10).bin" size="29684592" crc="db5226da" md5="7e9f31bd970e46c681561906f06f19be" sha1="c75ca5556595d418504f3ff23d70590150811dc9" />
<rom name="FIFAPCCD (Track 11).bin" size="22162896" crc="f8b2840d" md5="e2bed5181836ae606dd1654b8f95b9c5" sha1="b316413bb5934a06930411f37d24e3ab7a43cef7" />

    Cuesheet:

CATALOG 0000000000000
FILE "FIFAPCCD (Track 01).bin" BINARY
  TRACK 01 MODE1/2352
    INDEX 01 00:00:00
FILE "FIFAPCCD (Track 02).bin" BINARY
  TRACK 02 AUDIO
    INDEX 00 00:00:00
    INDEX 01 00:03:00
FILE "FIFAPCCD (Track 03).bin" BINARY
  TRACK 03 AUDIO
    INDEX 00 00:00:00
    INDEX 01 00:02:00
FILE "FIFAPCCD (Track 04).bin" BINARY
  TRACK 04 AUDIO
    INDEX 00 00:00:00
    INDEX 01 00:02:00
FILE "FIFAPCCD (Track 05).bin" BINARY
  TRACK 05 AUDIO
    INDEX 00 00:00:00
    INDEX 01 00:02:00
FILE "FIFAPCCD (Track 06).bin" BINARY
  TRACK 06 AUDIO
    INDEX 00 00:00:00
    INDEX 01 00:02:00
FILE "FIFAPCCD (Track 07).bin" BINARY
  TRACK 07 AUDIO
    INDEX 00 00:00:00
    INDEX 01 00:02:00
FILE "FIFAPCCD (Track 08).bin" BINARY
  TRACK 08 AUDIO
    INDEX 00 00:00:00
    INDEX 01 00:02:00
FILE "FIFAPCCD (Track 09).bin" BINARY
  TRACK 09 AUDIO
    INDEX 00 00:00:00
    INDEX 01 00:02:00
FILE "FIFAPCCD (Track 10).bin" BINARY
  TRACK 10 AUDIO
    INDEX 00 00:00:00
    INDEX 01 00:02:00
FILE "FIFAPCCD (Track 11).bin" BINARY
  TRACK 11 AUDIO
    INDEX 00 00:00:00
    INDEX 01 00:02:00

    Write Offset: 0