Common Disc Info:
    Title: Ishin no Arashi - Bakumatsu Shishiden
    Foreign Title (Non-latin): (OPTIONAL)
    Disc Number / Letter: (OPTIONAL)
    Disc Title: SLPM86144
    System: Sony PlayStation
    Media Type: CD-ROM
    Category: Games
    Region: Japan
    Languages: Japanese
    Disc Serial: SLPM 86144

    Ringcode Information:
        Mastering Code (laser branded/etched): SLPM-86144<tab>1
        Mastering SID Code: (REQUIRED, IF EXISTS)
        Data-Side Mould SID Code: IFPI 4555
        Label-Side Mould SID Code: (REQUIRED, IF EXISTS)
        Additional Mould: (REQUIRED, IF EXISTS)
        Toolstamp or Mastering Code (engraved/stamped): (REQUIRED, IF EXISTS)
    Barcode: 4988615012471
    EXE/Build Date: 1998-12-09
    Error Count: 0
    Comments: (OPTIONAL)
    Contents: (OPTIONAL)

Version and Editions:
    Version: (REQUIRED, IF EXISTS)
    Edition/Release: Original
EDC:
    EDC: Yes

Extras:
    Primary Volume Descriptor (PVD):

0320 : 20 20 20 20 20 20 20 20  20 20 20 20 20 31 39 39                199
0330 : 38 31 32 30 39 32 32 30  30 33 34 30 30 24 30 30   8120922003400$00
0340 : 30 30 30 30 30 30 30 30  30 30 30 30 30 30 00 30   00000000000000.0
0350 : 30 30 30 30 30 30 30 30  30 30 30 30 30 30 30 00   000000000000000.
0360 : 30 30 30 30 30 30 30 30  30 30 30 30 30 30 30 30   0000000000000000
0370 : 00 01 00 00 00 00 00 00  00 00 00 00 00 00 00 00   ................

Copy Protection:
    Anti-modchip: No
    LibCrypt: No

Tracks and Write Offsets:
    DAT:

<rom name="SLPM86144 (Track 1).bin" size="317174256" crc="54ef0762" md5="b32b20b5f43ec90b0d97d4977e3ab530" sha1="3b6c5a49976b815523c039f3ece63cbdb99e11df" />
<rom name="SLPM86144 (Track 2).bin" size="29679888" crc="6fe5d0ce" md5="a15d39783857522d93f6395c08362c04" sha1="27f677c9e3d5bcac022347801e403cc7df5a6f84" />
<rom name="SLPM86144 (Track 3).bin" size="28929600" crc="232a02f8" md5="c0f242986175cd10f7f62e320ccc5c75" sha1="e68b0426c12c86b1555cb9333701f1aa1fd8fcdc" />
<rom name="SLPM86144 (Track 4).bin" size="37810752" crc="40e86050" md5="61239a3dc22088a08f2d320918ac11a1" sha1="7c8508996d34d2a39fd75a8fab58e2c9b766b09b" />

    Cuesheet:

FILE "SLPM86144 (Track 1).bin" BINARY
  TRACK 01 MODE2/2352
    INDEX 01 00:00:00
FILE "SLPM86144 (Track 2).bin" BINARY
  TRACK 02 AUDIO
    INDEX 00 00:00:00
    INDEX 01 00:02:00
FILE "SLPM86144 (Track 3).bin" BINARY
  TRACK 03 AUDIO
    INDEX 00 00:00:00
    INDEX 01 00:02:00
FILE "SLPM86144 (Track 4).bin" BINARY
  TRACK 04 AUDIO
    INDEX 00 00:00:00
    INDEX 01 00:02:00

    Write Offset: 2

NOTE:
This game is on the list of missing discs (Sony PlayStation Asia Missing Games)
https://www.dropbox.com/s/rc8nn4zhdgbjx … 44.7z?dl=0

Can you check again the ringcodes of your PS1 dumps? They're all missing the IFPI L27* mastering code.

Lizard wrote:

Can you check again the ringcodes of your PS1 dumps? They're all missing the IFPI L27* mastering code.

I'm very sorry but I don't see them... (reading the Mastering Code on black discs is very hard already!)

Are you sure all japanese PS1 games have them?
Some previous one I dumped was missing it too:
http://forum.redump.org/topic/22507/add … daikessen/
http://redump.org/disc/4930/

Yes, all the PS1/PS2 CDs should have the mastering code, in that previous dump i forgot to add a note saying that the ringcode is incomplete without it.