CD1

Match: http://redump.org/disc/36239/
Logs: https://drive.google.com/open?id=1VwaZV … LoiK_Ta0Wc

Common Disc Info:
    Title: Tomb Raider
    Foreign Title (Non-latin): 
    Disc Number / Letter: (OPTIONAL)
    Disc Title: (OPTIONAL)
    System: IBM PC Compatible
    Media Type: CD-ROM
    Category: Games
    Matching IDs: 36239
    Region: Europe
    Languages: English
    Disc Serial: MTRUBPEN70

    Ringcode Information:
        Mastering Code (laser branded/etched): NIMBUS    CDD21494 MTRUBPEN 70 DISC1    :·:
        Mastering SID Code: IFPI L123
        Data-Side Mould SID Code: IFPI 2335
        Label-Side Mould SID Code: (REQUIRED, IF EXISTS)
        Additional Mould: (REQUIRED, IF EXISTS)
        Toolstamp or Mastering Code (engraved/stamped): 1:4
    Barcode: (OPTIONAL)
    Error Count: 0
    Comments: Disc 1 of Tomb Raider: Unfinished Business (Premier Collection)
    Contents: (OPTIONAL)

Version and Editions:
    Version: (REQUIRED, IF EXISTS)
    Edition/Release: Premier Collection

Extras:
    Primary Volume Descriptor (PVD):

0320 : 20 20 20 20 20 20 20 20  20 20 20 20 20 31 39 39                199
0330 : 36 31 30 33 31 31 39 31  33 31 33 30 30 00 31 39   6103119131300.19
0340 : 39 36 31 30 33 31 31 39  31 33 31 33 30 30 00 30   96103119131300.0
0350 : 30 30 30 30 30 30 30 30  30 30 30 30 30 30 30 00   000000000000000.
0360 : 30 30 30 30 30 30 30 30  30 30 30 30 30 30 30 30   0000000000000000
0370 : 00 01 00 00 00 00 00 00  00 00 00 00 00 00 00 00   ................

Copy Protection:
    Copy Protection: None found

Tracks and Write Offsets:
    DAT:

<rom name="TOMBENG (Track 01).bin" size="204936816" crc="7ab31df8" md5="0c8303a0a7d20c084764d76898334943" sha1="c180757575be22545917bcf7d59bf740af59b72d" />
<rom name="TOMBENG (Track 02).bin" size="35033040" crc="e00bc2a6" md5="b6cea5a9411c8ff1d1f257b3916ed1b1" sha1="86237db1b214c7522162e79b954685a0d6b29dc7" />
<rom name="TOMBENG (Track 03).bin" size="21198576" crc="5dd01881" md5="714940cd869d080dce2aba32e42e74f1" sha1="68c0007d25c1e2ae662a92e854baaee34c60483d" />
<rom name="TOMBENG (Track 04).bin" size="32302368" crc="57c82404" md5="b19c3423715137f5fbf4c72dfee9dc07" sha1="868b21c1f7f2d5e3cbda13c4bd81c8f87aba7bae" />
<rom name="TOMBENG (Track 05).bin" size="33299616" crc="ed242910" md5="f324dea3867bbbe207eb746e7c208144" sha1="8f1185e4a6b84549fa372d079f08c37d11301b64" />
<rom name="TOMBENG (Track 06).bin" size="33097344" crc="9716a69a" md5="fc39dd839029ba00441278c863254103" sha1="f711dfa26a78a411cf4249738a1dbe9f24691801" />
<rom name="TOMBENG (Track 07).bin" size="11207280" crc="fe41bb91" md5="aca79f799e5b204a06265ce0565d4ace" sha1="b14cc8a11b8b3d7e21c603dc1284ea37dbcbbc18" />
<rom name="TOMBENG (Track 08).bin" size="10162992" crc="29c0eafd" md5="ed51c6502b623dad86ac67746178c345" sha1="f87f597404efcbf45a546af39fda0ebb1dd3e02c" />
<rom name="TOMBENG (Track 09).bin" size="2716560" crc="bead0a34" md5="ad056a31603f846b2bb49e422b292415" sha1="93a48b5fac54f6d5e4f50a36543d221764a60137" />
<rom name="TOMBENG (Track 10).bin" size="6856080" crc="5c0492d0" md5="66496c2600990329de832be99a7bd8eb" sha1="98233779664cacc7560d9e6618b95d0936345e40" />

    Cuesheet:

CATALOG 0000000000000
FILE "TOMBENG (Track 01).bin" BINARY
  TRACK 01 MODE1/2352
    INDEX 01 00:00:00
FILE "TOMBENG (Track 02).bin" BINARY
  TRACK 02 AUDIO
    INDEX 00 00:00:00
    INDEX 01 00:02:00
FILE "TOMBENG (Track 03).bin" BINARY
  TRACK 03 AUDIO
    INDEX 01 00:00:00
FILE "TOMBENG (Track 04).bin" BINARY
  TRACK 04 AUDIO
    INDEX 01 00:00:00
FILE "TOMBENG (Track 05).bin" BINARY
  TRACK 05 AUDIO
    INDEX 01 00:00:00
FILE "TOMBENG (Track 06).bin" BINARY
  TRACK 06 AUDIO
    INDEX 01 00:00:00
FILE "TOMBENG (Track 07).bin" BINARY
  TRACK 07 AUDIO
    INDEX 01 00:00:00
FILE "TOMBENG (Track 08).bin" BINARY
  TRACK 08 AUDIO
    INDEX 01 00:00:00
FILE "TOMBENG (Track 09).bin" BINARY
  TRACK 09 AUDIO
    INDEX 01 00:00:00
FILE "TOMBENG (Track 10).bin" BINARY
  TRACK 10 AUDIO
    INDEX 01 00:00:00

    Write Offset: 0

CD2

Match: http://redump.org/disc/16021/
Logs: https://drive.google.com/open?id=1xGoXr … gOJWbeqDzw

Common Disc Info:
    Title: Tomb Raider: Unfinished Business
    Foreign Title (Non-latin): 
    Disc Number / Letter: (OPTIONAL)
    Disc Title: (OPTIONAL)
    System: IBM PC Compatible
    Media Type: CD-ROM
    Category: Games
    Matching IDs: 16021
    Region: Europe
    Languages: English
    Disc Serial: MTRUBPEN70

    Ringcode Information:
        Mastering Code (laser branded/etched): NIMBUS    CDD21495 MTRUBPEN 70 DISC2    ·
        Mastering SID Code: IFPI L123
        Data-Side Mould SID Code: IFPI 2334 
        Label-Side Mould SID Code: (REQUIRED, IF EXISTS)
        Additional Mould: (REQUIRED, IF EXISTS)
        Toolstamp or Mastering Code (engraved/stamped): 1:4
    Barcode: 
    Error Count: 0
    Comments: Disc 2 of Tomb Raider: Unfinished Business (Premier Collection)
    Contents: (OPTIONAL)

Version and Editions:
    Version: (REQUIRED, IF EXISTS)
    Edition/Release: Premier Collection

Extras:
    Primary Volume Descriptor (PVD):

0320 : 20 20 20 20 20 20 20 20  20 20 20 20 20 31 39 39                199
0330 : 38 30 32 31 39 31 32 30  35 33 34 33 38 40 31 39   8021912053438@19
0340 : 39 38 30 32 31 39 31 32  30 36 32 39 30 33 20 00   98021912062903 .
0350 : 00 00 00 00 00 00 00 00  00 00 00 00 00 00 00 00   ................
0360 : 00 00 00 00 00 00 00 00  00 00 00 00 00 00 00 00   ................
0370 : 00 01 00 00 00 00 00 00  00 00 00 00 00 00 00 00   ................

Copy Protection:
    Copy Protection: 

Tracks and Write Offsets:
    DAT:

<rom name="TOMBENGcd2 (Track 1).bin" size="104548752" crc="316ed241" md5="e7512c2a4eea0ca189e60c2ddb363a36" sha1="e90229ef50dc29e36c4cb5523c5d83a4e0e1242d" />
<rom name="TOMBENGcd2 (Track 2).bin" size="35033040" crc="f08a25d4" md5="71956bd5e59cee427f5be4eb8d7a81d9" sha1="0e9ffa87b07f5bf7e981ee5a6e899240aff12ee3" />
<rom name="TOMBENGcd2 (Track 3).bin" size="33299616" crc="4f6c898b" md5="1e8564029558c2ae61e57e97d90cf0c8" sha1="299d7459eba2253964f1dfa3c90116be0d553844" />
<rom name="TOMBENGcd2 (Track 4).bin" size="33097344" crc="35ad3ac2" md5="5e15d1b980f7a67ef5bfe6047efa4114" sha1="3e46c9fb4f3e0c675b6fe68aaf5a266ab5873b98" />

    Cuesheet:

CATALOG 0000000000000
FILE "TOMBENGcd2 (Track 1).bin" BINARY
  TRACK 01 MODE1/2352
    INDEX 01 00:00:00
FILE "TOMBENGcd2 (Track 2).bin" BINARY
  TRACK 02 AUDIO
    INDEX 00 00:00:00
    INDEX 01 00:02:00
FILE "TOMBENGcd2 (Track 3).bin" BINARY
  TRACK 03 AUDIO
    INDEX 01 00:00:00
FILE "TOMBENGcd2 (Track 4).bin" BINARY
  TRACK 04 AUDIO
    INDEX 01 00:00:00

    Write Offset: 0