Match: http://redump.org/disc/37700/
Logs: https://drive.google.com/open?id=1awDOn … V3tvzpwmie

Common Disc Info:
    Title: Thief: The Dark Project
    Foreign Title (Non-latin): 
    Disc Number / Letter: (OPTIONAL)
    Disc Title: (OPTIONAL)
    System: IBM PC Compatible
    Media Type: CD-ROM
    Category: Games
    Matching IDs: 37700
    Region: Europe
    Languages: English
    Disc Serial: (REQUIRED, IF EXISTS)

    Ringcode Information:
        Mastering Code (laser branded/etched): AAS0090 TIB B477000000    ·
        Mastering SID Code: IFPI L123
        Data-Side Mould SID Code: IFPI 5H05
        Label-Side Mould SID Code: (REQUIRED, IF EXISTS)
        Additional Mould: (REQUIRED, IF EXISTS)
        Toolstamp or Mastering Code (engraved/stamped): 1:1
    Barcode: 5 032921 004404
    Error Count: 0
    Comments: 
    Contents: (OPTIONAL)

Version and Editions:
    Version: 1.0
    Edition/Release: Original

Extras:
    Primary Volume Descriptor (PVD):

0320 : 20 20 20 20 20 20 20 20  20 20 20 20 20 31 39 39                199
0330 : 38 31 31 31 36 31 36 35  36 32 39 39 32 AA 31 39   8111616562992.19
0340 : 39 38 31 31 31 36 31 37  30 34 31 37 35 30 01 00   98111617041750..
0350 : 00 00 00 00 00 00 00 00  00 00 00 00 00 00 00 00   ................
0360 : 00 00 00 00 00 00 00 00  00 00 00 00 00 00 00 00   ................
0370 : 00 01 00 00 00 00 00 00  00 00 00 00 00 00 00 00   ................

Copy Protection:
    Copy Protection:

H:\: CD-Lock
H:\CONFIG.AFP: CD-Lock
H:\IGYQ.AFP: CD-Lock
H:\KXEP.AFP: CD-Lock
H:\KZXP.AFP: CD-Lock
H:\TFJB.AFP: CD-Lock

Tracks and Write Offsets:
    DAT:

<rom name="Thief (Track 1).bin" size="737323776" crc="de1571ad" md5="09df43d16e4a24dd843fc924870590ff" sha1="c5b42bb377b061b2ad9c9cae7cae2f320d6d3ce2" />
<rom name="Thief (Track 2).bin" size="62473824" crc="b1983058" md5="f79b76fd8677e46a7190fd38515279a6" sha1="661088ffa02d627c0e8710efb957ab33901ab0b1" />
<rom name="Thief (Track 3).bin" size="3704400" crc="e9c86648" md5="77f5abcdb36d9a1fe7c4e98178c7bc7e" sha1="684f2773a7c99ee10cbf8cde1f94ce36fbbd5f76" />
<rom name="Thief (Track 4).bin" size="3010560" crc="e3798ac2" md5="1bc5231af7e5cd8d72a6f16d9ac4410d" sha1="e384f2a00e1f1713b3651d84467d859bae7b468e" />

    Cuesheet:

CATALOG 0000000000000
FILE "Thief (Track 1).bin" BINARY
  TRACK 01 MODE1/2352
    INDEX 01 00:00:00
FILE "Thief (Track 2).bin" BINARY
  TRACK 02 AUDIO
    INDEX 00 00:00:00
    INDEX 01 00:02:00
FILE "Thief (Track 3).bin" BINARY
  TRACK 03 AUDIO
    INDEX 01 00:00:00
FILE "Thief (Track 4).bin" BINARY
  TRACK 04 MODE1/2352
    INDEX 00 00:00:00
    INDEX 01 00:03:00

    Write Offset: 0