I have multiple copies of the game, posting all.

Match: http://redump.org/disc/33102/
Logs: https://drive.google.com/open?id=1YQpn3 … BZ88C0o669

Common Disc Info:
    Title: Half-Life
    Foreign Title (Non-latin): 
    Disc Number / Letter: (OPTIONAL)
    Disc Title: (OPTIONAL)
    System: IBM PC Compatible
    Media Type: CD-ROM
    Category: Games
    Matching IDs: 33102
    Region: Europe
    Languages: English
    Disc Serial: S0013145

    Ringcode Information:
        Mastering Code (laser branded/etched): HALFLIFEFE 10 NOV 98    MPO    0 1@@ 9
        Mastering SID Code: IFPI L033
        Data-Side Mould SID Code: IFPI 1207
        Label-Side Mould SID Code: (REQUIRED, IF EXISTS)
        Additional Mould: (REQUIRED, IF EXISTS)
        Toolstamp or Mastering Code (engraved/stamped): 07
    Barcode: 3 348542 030138
    Error Count: 0
    Comments: [T:ISBN] (OPTIONAL)
    Contents: (OPTIONAL)

Version and Editions:
    Version: 1.0
    Edition/Release: Original

Extras:
    Primary Volume Descriptor (PVD):

0320 : 20 20 20 20 20 20 20 20  20 20 20 20 20 31 39 39                199
0330 : 38 31 31 30 39 32 30 34  33 32 33 30 30 00 31 39   8110920432300.19
0340 : 39 38 31 31 31 30 30 33  30 32 33 36 30 30 00 00   98111003023600..
0350 : 00 00 00 00 00 00 00 00  00 00 00 00 00 00 00 00   ................
0360 : 00 00 00 00 00 00 00 00  00 00 00 00 00 00 00 00   ................
0370 : 00 01 00 00 00 00 00 00  00 00 00 00 00 00 00 00   ................

Copy Protection:
    Copy Protection:

K:\_user1.cab: CD Check, CD Check
K:\data1.cab: CD Check, CD Check, CD Check, CD Check, CD Check, CD Check, CD Check, CD Check

Tracks and Write Offsets:
    DAT:

<rom name="HALFLIFEb (Track 01).bin" size="420010752" crc="c33b4074" md5="3181d6e4451327778978f99bf4d3de4e" sha1="a0562ab476894bdfe22a0b51a1ff2755823c8b2e" />
<rom name="HALFLIFEb (Track 02).bin" size="23263632" crc="52b50d80" md5="68b2a03fb630b8e56f939629ad8ca4c7" sha1="4fea9dab7b1025379f5434dee710eb17d4a43c87" />
<rom name="HALFLIFEb (Track 03).bin" size="23599968" crc="0e6fc049" md5="648fc2c1aa2f59dc69eec1fa21e6a6bf" sha1="dfa78d5c93a3c19b952474f9debf3e58be3f26c3" />
<rom name="HALFLIFEb (Track 04).bin" size="10960320" crc="74e332d9" md5="2069b7cb3ea8816c4153506e171c35b7" sha1="54495cdffb3db0290b11e2b576d5ef51a94b259f" />
<rom name="HALFLIFEb (Track 05).bin" size="17310720" crc="e3973582" md5="7b8fd54d12225521e668cfe469c0d93b" sha1="23714baf23cd72201e76b53b0fb61fb72c85d297" />
<rom name="HALFLIFEb (Track 06).bin" size="17988096" crc="719ba217" md5="254b491f6ab392fbdb7b31603fb514b3" sha1="38306a1a356126c34f15317fadd0cf4f503c8392" />
<rom name="HALFLIFEb (Track 07).bin" size="4449984" crc="ea93ef95" md5="05d43063283976669cf5a34b9e6fd1a3" sha1="3548da6461856317c2f06555843256c10e04652f" />
<rom name="HALFLIFEb (Track 08).bin" size="1909824" crc="e170001d" md5="6518568023e0a2845f8280f21cbde743" sha1="99f90626c3bd93124315d6258e00e00a447b8afb" />
<rom name="HALFLIFEb (Track 09).bin" size="16800336" crc="9126b7a3" md5="746739beff1817234106530865097b3a" sha1="c9bbc301c2e5290a9fc90ccadaa8cea21a68155b" />
<rom name="HALFLIFEb (Track 10).bin" size="18790128" crc="833c4e4a" md5="c33259ed066c1a237f71e2b0e50e45bb" sha1="b08313ae0eabb0a80c7d377149e113cfc485478f" />
<rom name="HALFLIFEb (Track 11).bin" size="14951664" crc="5a69e48d" md5="fb1483def55e02e3f68ded087f5f3146" sha1="3c41065448ff45a502edb6c27d874403460bd0d4" />
<rom name="HALFLIFEb (Track 12).bin" size="22971984" crc="704375d7" md5="834788cb45197170fa91fb85fb0b84d3" sha1="a1cacb9f197af0e9d46a01d618fbb59fc8aca082" />
<rom name="HALFLIFEb (Track 13).bin" size="6750240" crc="b9913d4a" md5="e23e06d5c29c750d5f2d140137911c7c" sha1="fd9e592d2c679a3d37f519f5b34df99519f27ddb" />
<rom name="HALFLIFEb (Track 14).bin" size="13220592" crc="a7e7b8b4" md5="7815bde391e2258be9ff328da421f1ee" sha1="ddf00e3096eb4d675750885b0b5bfeab995f5883" />
<rom name="HALFLIFEb (Track 15).bin" size="21603120" crc="bc26da21" md5="a1c25290de40688cc59a0be2a52f5689" sha1="6a78c4d7d84c9c535a32fc725e9b3843cbc6ac30" />
<rom name="HALFLIFEb (Track 16).bin" size="3217536" crc="844d6c5e" md5="778621d80d2b9630ea7892022a41d27a" sha1="2600b0a786c7b59083ba408113f0c4a5e0062b78" />
<rom name="HALFLIFEb (Track 17).bin" size="22216992" crc="21ffe810" md5="0b470a2a6d82a873b0623c76264dc58b" sha1="de2fe2dcda0fc5d086156c454c0cc94588583ac2" />
<rom name="HALFLIFEb (Track 18).bin" size="18065712" crc="3f0c6693" md5="18728cd3b46f940b3baff062a017584f" sha1="dd721e3c7909aeec050742d71032b094088e9d99" />
<rom name="HALFLIFEb (Track 19).bin" size="20751696" crc="a51529e1" md5="71b31c4379b5fdd5e1180bb9c428479f" sha1="6bcd779ce93f1f8b4230976fdf17d396af71bd64" />
<rom name="HALFLIFEb (Track 20).bin" size="15339744" crc="ba4546e7" md5="0533a709a0582995b634d1131d3c217e" sha1="e629493c8a8f847d0c1a5ece80002032b96a6fa0" />
<rom name="HALFLIFEb (Track 21).bin" size="15271536" crc="da7a13ab" md5="e11d0c56ae6d6b6364432d1d64ef8abd" sha1="e869f1e5b5ecda302b97555ff335ef485ab146c6" />
<rom name="HALFLIFEb (Track 22).bin" size="14577696" crc="3e90a1a5" md5="4e8c243985ec7f0b948c5350a82ece73" sha1="aaaec54983ec90a2152e58d9e9fc6f226c5395ac" />
<rom name="HALFLIFEb (Track 23).bin" size="19707408" crc="f2f90b7e" md5="1a536932be079981c2a9d078c523a515" sha1="207cccff65be9a5159aa682e5cff54b1c9d25f06" />
<rom name="HALFLIFEb (Track 24).bin" size="14008512" crc="ef44e10c" md5="f651c26c8be217b2a26e2a01b8c60235" sha1="d271ce1ef6c36e9dea595b0d61d3298aa6bbc809" />
<rom name="HALFLIFEb (Track 25).bin" size="17898720" crc="22d9c6a4" md5="1dca4a2b385273bd81e71c2cbe01ba8a" sha1="a7b062b14ee4473b130403afee32cdbd88b5ec36" />
<rom name="HALFLIFEb (Track 26).bin" size="6968976" crc="622fd753" md5="8950fd8e21fd9b8dcc20838eb8daca80" sha1="d2c7e1b6387d31dc775d3600fc51a31275180118" />
<rom name="HALFLIFEb (Track 27).bin" size="3419808" crc="f9ae7b67" md5="665347c5250cf4e4b4c1870defe9ec67" sha1="b2f39d4db06a964e2f730110570b2e91c8a55660" />
<rom name="HALFLIFEb (Track 28).bin" size="1841616" crc="59112915" md5="00f7e8af052c2f944279678b57d21d6a" sha1="0667e0bb5141de31454f1371eee1c41389a99a9f" />

    Cuesheet:

FILE "HALFLIFEb (Track 01).bin" BINARY
  TRACK 01 MODE2/2352
    INDEX 01 00:00:00
FILE "HALFLIFEb (Track 02).bin" BINARY
  TRACK 02 AUDIO
    INDEX 00 00:00:00
    INDEX 01 00:02:01
FILE "HALFLIFEb (Track 03).bin" BINARY
  TRACK 03 AUDIO
    INDEX 00 00:00:00
    INDEX 01 00:01:74
FILE "HALFLIFEb (Track 04).bin" BINARY
  TRACK 04 AUDIO
    INDEX 00 00:00:00
    INDEX 01 00:01:74
FILE "HALFLIFEb (Track 05).bin" BINARY
  TRACK 05 AUDIO
    INDEX 00 00:00:00
    INDEX 01 00:01:74
FILE "HALFLIFEb (Track 06).bin" BINARY
  TRACK 06 AUDIO
    INDEX 00 00:00:00
    INDEX 01 00:01:74
FILE "HALFLIFEb (Track 07).bin" BINARY
  TRACK 07 AUDIO
    INDEX 00 00:00:00
    INDEX 01 00:01:74
FILE "HALFLIFEb (Track 08).bin" BINARY
  TRACK 08 AUDIO
    INDEX 00 00:00:00
    INDEX 01 00:01:74
FILE "HALFLIFEb (Track 09).bin" BINARY
  TRACK 09 AUDIO
    INDEX 00 00:00:00
    INDEX 01 00:01:74
FILE "HALFLIFEb (Track 10).bin" BINARY
  TRACK 10 AUDIO
    INDEX 00 00:00:00
    INDEX 01 00:01:74
FILE "HALFLIFEb (Track 11).bin" BINARY
  TRACK 11 AUDIO
    INDEX 00 00:00:00
    INDEX 01 00:01:74
FILE "HALFLIFEb (Track 12).bin" BINARY
  TRACK 12 AUDIO
    INDEX 00 00:00:00
    INDEX 01 00:01:74
FILE "HALFLIFEb (Track 13).bin" BINARY
  TRACK 13 AUDIO
    INDEX 00 00:00:00
    INDEX 01 00:01:74
FILE "HALFLIFEb (Track 14).bin" BINARY
  TRACK 14 AUDIO
    INDEX 00 00:00:00
    INDEX 01 00:01:74
FILE "HALFLIFEb (Track 15).bin" BINARY
  TRACK 15 AUDIO
    INDEX 00 00:00:00
    INDEX 01 00:01:74
FILE "HALFLIFEb (Track 16).bin" BINARY
  TRACK 16 AUDIO
    INDEX 00 00:00:00
    INDEX 01 00:01:74
FILE "HALFLIFEb (Track 17).bin" BINARY
  TRACK 17 AUDIO
    INDEX 00 00:00:00
    INDEX 01 00:01:74
FILE "HALFLIFEb (Track 18).bin" BINARY
  TRACK 18 AUDIO
    INDEX 00 00:00:00
    INDEX 01 00:01:74
FILE "HALFLIFEb (Track 19).bin" BINARY
  TRACK 19 AUDIO
    INDEX 00 00:00:00
    INDEX 01 00:01:74
FILE "HALFLIFEb (Track 20).bin" BINARY
  TRACK 20 AUDIO
    INDEX 00 00:00:00
    INDEX 01 00:01:74
FILE "HALFLIFEb (Track 21).bin" BINARY
  TRACK 21 AUDIO
    INDEX 00 00:00:00
    INDEX 01 00:01:74
FILE "HALFLIFEb (Track 22).bin" BINARY
  TRACK 22 AUDIO
    INDEX 00 00:00:00
    INDEX 01 00:01:74
FILE "HALFLIFEb (Track 23).bin" BINARY
  TRACK 23 AUDIO
    INDEX 00 00:00:00
    INDEX 01 00:01:74
FILE "HALFLIFEb (Track 24).bin" BINARY
  TRACK 24 AUDIO
    INDEX 00 00:00:00
    INDEX 01 00:01:74
FILE "HALFLIFEb (Track 25).bin" BINARY
  TRACK 25 AUDIO
    INDEX 00 00:00:00
    INDEX 01 00:01:74
FILE "HALFLIFEb (Track 26).bin" BINARY
  TRACK 26 AUDIO
    INDEX 00 00:00:00
    INDEX 01 00:01:74
FILE "HALFLIFEb (Track 27).bin" BINARY
  TRACK 27 AUDIO
    INDEX 00 00:00:00
    INDEX 01 00:01:74
FILE "HALFLIFEb (Track 28).bin" BINARY
  TRACK 28 AUDIO
    INDEX 00 00:00:00
    INDEX 01 00:01:74

    Write Offset: -12