CD1

Match: http://redump.org/disc/8629/
Logs: https://drive.google.com/open?id=1ma14A … 7rpSRUsyO4

Common Disc Info:
    Title: Sega Rally 2
    Foreign Title (Non-latin): Sega Rally 2: Sega Rally Championship
    Disc Number / Letter: 1
    Disc Title: Install Disc
    System: IBM PC Compatible
    Media Type: CD-ROM
    Category: Games
    Matching IDs: 8629
    Region: Europe
    Languages: English
    Disc Serial: EI-1183-1

    Ringcode Information:
        Mastering Code (laser branded/etched): | B6029 EI-1183-1 UP |    9102749 |
        Mastering SID Code: IFPI L055
        Data-Side Mould SID Code: (REQUIRED, IF EXISTS)
        Label-Side Mould SID Code: (REQUIRED, IF EXISTS)
        Additional Mould: (REQUIRED, IF EXISTS)
        Toolstamp or Mastering Code (engraved/stamped): (REQUIRED, IF EXISTS)
    Barcode: 5 017783 512052
    Error Count: 0
    Comments: [T:ISBN] (OPTIONAL)
    Contents: (OPTIONAL)

Version and Editions:
    Version: (REQUIRED, IF EXISTS)
    Edition/Release: Original

Extras:
    Primary Volume Descriptor (PVD):

0320 : 20 20 20 20 20 20 20 20  20 20 20 20 20 31 39 39                199
0330 : 39 31 30 32 31 31 36 33  39 35 37 39 37 00 30 30   9102116395797.00
0340 : 30 30 30 30 30 30 30 30  30 30 30 30 30 30 00 30   00000000000000.0
0350 : 30 30 30 30 30 30 30 30  30 30 30 30 30 30 30 00   000000000000000.
0360 : 30 30 30 30 30 30 30 30  30 30 30 30 30 30 30 30   0000000000000000
0370 : 00 01 00 00 00 00 00 00  00 00 00 00 00 00 00 00   ................

Copy Protection:
    Copy Protection: 

Tracks and Write Offsets:
    DAT:

<rom name="SEGARALLY2.bin" size="491767920" crc="1267796e" md5="dcd4b5d41bd82f7015a3b2bd2e76bd8c" sha1="9fa2d9176ff7ad8ee578d88d53c383651eddba63" />

    Cuesheet:

FILE "SEGARALLY2.bin" BINARY
  TRACK 01 MODE1/2352
    INDEX 01 00:00:00

    Write Offset: -22

CD2

Match:  http://redump.org/disc/8630/
Logs: https://drive.google.com/open?id=1SzWPh … oWPxVX0xKB

Common Disc Info:
    Title: Sega Rally 2
    Foreign Title (Non-latin): Sega Rally 2: Sega Rally Championship
    Disc Number / Letter: 2
    Disc Title: Play Disc
    System: IBM PC Compatible
    Media Type: CD-ROM
    Category: Games
    Matching IDs: 8630
    Region: Europe
    Languages: English
    Disc Serial: EI-1183-2

    Ringcode Information:
        Mastering Code (laser branded/etched): | B6030 EI-1183-2 UP |    9102748 |
        Mastering SID Code: IFPI L055
        Data-Side Mould SID Code: (REQUIRED, IF EXISTS)
        Label-Side Mould SID Code: (REQUIRED, IF EXISTS)
        Additional Mould: (REQUIRED, IF EXISTS)
        Toolstamp or Mastering Code (engraved/stamped): (REQUIRED, IF EXISTS)
    Barcode: 5 017783 512052
    Error Count: 0
    Comments: [T:ISBN] (OPTIONAL)
    Contents: (OPTIONAL)

Version and Editions:
    Version: (REQUIRED, IF EXISTS)
    Edition/Release: Original

Extras:
    Primary Volume Descriptor (PVD):

0320 : 20 20 20 20 20 20 20 20  20 20 20 20 20 31 39 39                199
0330 : 39 31 30 32 30 32 32 31  35 32 38 32 32 00 30 30   9102022152822.00
0340 : 30 30 30 30 30 30 30 30  30 30 30 30 30 30 00 30   00000000000000.0
0350 : 30 30 30 30 30 30 30 30  30 30 30 30 30 30 30 00   000000000000000.
0360 : 30 30 30 30 30 30 30 30  30 30 30 30 30 30 30 30   0000000000000000
0370 : 00 01 00 00 00 00 00 00  00 00 00 00 00 00 00 00   ................

Copy Protection:
    Copy Protection: None found

Tracks and Write Offsets:
    DAT:

<rom name="SEGARALLY2 (Track 01).bin" size="206042256" crc="111b17c4" md5="6fe75a861ee6bcf3d8379ba91fa6791c" sha1="f1841329e9f3e64b27c8c0e0142b230d843410fc" />
<rom name="SEGARALLY2 (Track 02).bin" size="10976784" crc="14751b55" md5="a45d562e0ea6e11ea6e6835f07348f29" sha1="990bc8c87356439e6e4c1d6249dc087266eeccca" />
<rom name="SEGARALLY2 (Track 03).bin" size="39856992" crc="8989b13b" md5="131fefeab714bbd3ad526a8d308cc205" sha1="e1cea4aeca48e886b11fd4042db0b863308d0f5d" />
<rom name="SEGARALLY2 (Track 04).bin" size="34092240" crc="c65bc227" md5="e5ebb5257737be3057ac59d54e1f35d8" sha1="8f7d6a3d805425351146f8ec3b107161df30446f" />
<rom name="SEGARALLY2 (Track 05).bin" size="42512400" crc="e2a3d18f" md5="e7a76370422fbfc6846abcfe13773175" sha1="4f4c4f1d41eea844740062d0224e76689ad1391f" />
<rom name="SEGARALLY2 (Track 06).bin" size="39711168" crc="3ac83c4d" md5="689025e982b6c3f79896c68f1e7a100a" sha1="04571e2b5bf09300144961c25f1dcb11650a6b96" />
<rom name="SEGARALLY2 (Track 07).bin" size="43897728" crc="b8a8a352" md5="1c3487c107e8c5205a7b703d019dc5cf" sha1="9a543575188bffb5946aeb99cb3a8480784a74f1" />
<rom name="SEGARALLY2 (Track 08).bin" size="41000064" crc="720f8861" md5="fe91364d11298f55deebb64e003b2d6d" sha1="58b84f64ed45a40bdb6586dbddb78cd7e24338f4" />
<rom name="SEGARALLY2 (Track 09).bin" size="46637808" crc="531a0056" md5="8a2d446b97f8a3ce210b9791c15038ba" sha1="b725da3e9d08e44470b06ca6dd78e455c63f8803" />
<rom name="SEGARALLY2 (Track 10).bin" size="10708656" crc="891fb351" md5="381fa8573d1d0b19a42204beae8353e1" sha1="dececb502941f19af241350c377a5e40a94413c8" />
<rom name="SEGARALLY2 (Track 11).bin" size="30488976" crc="48a52509" md5="e0b9f3393777bf428af132beba7efff2" sha1="9190df35c40c1f9d70f2b61e3ee31c572b6fe47a" />
<rom name="SEGARALLY2 (Track 12).bin" size="22075872" crc="fe83d0a0" md5="520b562d9fe670ed750c942ba04a0d09" sha1="5c0b93c4ffeec7d622dd92b6781391edc0d6f12c" />
<rom name="SEGARALLY2 (Track 13).bin" size="35289408" crc="a7155e63" md5="889d4b18aac3bfcaa1d7a2175e2ade27" sha1="575e73dfb30ec3e0bf21aefdcf2075d6cf60e94d" />
<rom name="SEGARALLY2 (Track 14).bin" size="19613328" crc="e7e3c583" md5="5f622edfbfc373bba098d1093f686fe5" sha1="18d3776d0c78573499d7e91e3a473578cda19fe8" />

    Cuesheet:

FILE "SEGARALLY2 (Track 01).bin" BINARY
  TRACK 01 MODE1/2352
    INDEX 01 00:00:00
FILE "SEGARALLY2 (Track 02).bin" BINARY
  TRACK 02 AUDIO
    INDEX 00 00:00:00
    INDEX 01 00:02:00
FILE "SEGARALLY2 (Track 03).bin" BINARY
  TRACK 03 AUDIO
    INDEX 00 00:00:00
    INDEX 01 00:02:00
FILE "SEGARALLY2 (Track 04).bin" BINARY
  TRACK 04 AUDIO
    INDEX 00 00:00:00
    INDEX 01 00:02:00
FILE "SEGARALLY2 (Track 05).bin" BINARY
  TRACK 05 AUDIO
    INDEX 00 00:00:00
    INDEX 01 00:02:00
FILE "SEGARALLY2 (Track 06).bin" BINARY
  TRACK 06 AUDIO
    INDEX 00 00:00:00
    INDEX 01 00:02:00
FILE "SEGARALLY2 (Track 07).bin" BINARY
  TRACK 07 AUDIO
    INDEX 00 00:00:00
    INDEX 01 00:02:00
FILE "SEGARALLY2 (Track 08).bin" BINARY
  TRACK 08 AUDIO
    INDEX 00 00:00:00
    INDEX 01 00:02:00
FILE "SEGARALLY2 (Track 09).bin" BINARY
  TRACK 09 AUDIO
    INDEX 00 00:00:00
    INDEX 01 00:02:00
FILE "SEGARALLY2 (Track 10).bin" BINARY
  TRACK 10 AUDIO
    INDEX 00 00:00:00
    INDEX 01 00:02:00
FILE "SEGARALLY2 (Track 11).bin" BINARY
  TRACK 11 AUDIO
    INDEX 00 00:00:00
    INDEX 01 00:02:00
FILE "SEGARALLY2 (Track 12).bin" BINARY
  TRACK 12 AUDIO
    INDEX 00 00:00:00
    INDEX 01 00:02:00
FILE "SEGARALLY2 (Track 13).bin" BINARY
  TRACK 13 AUDIO
    INDEX 00 00:00:00
    INDEX 01 00:02:00
FILE "SEGARALLY2 (Track 14).bin" BINARY
  TRACK 14 AUDIO
    INDEX 00 00:00:00
    INDEX 01 00:02:00

    Write Offset: -22