CD1

Match: http://redump.org/disc/37437/
Logs: https://drive.google.com/open?id=1EdC27 … xTJrMYhbsc

Common Disc Info:
    Title: Diablo II
    Foreign Title (Non-latin): 
    Disc Number / Letter: 1
    Disc Title: Install Disc
    System: IBM PC Compatible
    Media Type: CD-ROM
    Category: Games
    Matching IDs: 37437
    Region: Europe
    Languages: English
    Disc Serial: S0020436

    Ringcode Information:
        Mastering Code (laser branded/etched): S0020436CD1 05 JUN 00    MPO    02 @@ 4
        Mastering SID Code: IFPI L032
        Data-Side Mould SID Code: IFPI 1221
        Label-Side Mould SID Code: (REQUIRED, IF EXISTS)
        Additional Mould: (REQUIRED, IF EXISTS)
        Toolstamp or Mastering Code (engraved/stamped): (REQUIRED, IF EXISTS)
    Barcode: 3 348542 106567
    Error Count: 0
    Comments: [T:ISBN] (OPTIONAL)
    Contents: (OPTIONAL)

Version and Editions:
    Version: 1.00
    Edition/Release: Original

Extras:
    Primary Volume Descriptor (PVD):

0320 : 20 20 20 20 20 20 20 20  20 20 20 20 20 32 30 30                200
0330 : 30 30 35 33 31 32 32 31  35 30 30 30 30 E4 32 30   0053122150000.20
0340 : 30 30 30 35 33 31 32 32  31 35 30 30 30 30 E4 30   00053122150000.0
0350 : 30 30 30 30 30 30 30 30  30 30 30 30 30 30 30 00   000000000000000.
0360 : 30 30 30 30 30 30 30 30  30 30 30 30 30 30 30 30   0000000000000000
0370 : 00 01 00 00 00 00 00 00  00 00 00 00 00 00 00 00   ................

Copy Protection:
    Copy Protection: 

Tracks and Write Offsets:
    DAT:

<rom name="INSTALL.bin" size="585840864" crc="88ed7767" md5="a3e6d2b6ea1c9b8d5e4087d370403535" sha1="1e688b23d265bc5d1504379a675096877661eecf" />

    Cuesheet:

FILE "INSTALL.bin" BINARY
  TRACK 01 MODE1/2352
    INDEX 01 00:00:00

    Write Offset: -12

CD2

Match: http://redump.org/disc/5285/
Logs: https://drive.google.com/open?id=1eAqnk … tVznw3YGqa

Common Disc Info:
    Title: Diablo II
    Foreign Title (Non-latin): 
    Disc Number / Letter: 2
    Disc Title: Play Disc
    System: IBM PC Compatible
    Media Type: CD-ROM
    Category: Games
    Matching IDs: 5285
    Region: Europe
    Languages: English
    Disc Serial: S0020437

    Ringcode Information:
        Mastering Code (laser branded/etched): S 0020437 CD2 05 JUN 00    MPO    01 @@ 9    P03
        Mastering SID Code: IFPI L032
        Data-Side Mould SID Code: IFPI 1210
        Label-Side Mould SID Code: (REQUIRED, IF EXISTS)
        Additional Mould: (REQUIRED, IF EXISTS)
        Toolstamp or Mastering Code (engraved/stamped): (REQUIRED, IF EXISTS)
    Barcode: 3 348542 106574
    Error Count: 1
    Comments: PC/Mac Hybrid
    Contents: (OPTIONAL)

Version and Editions:
    Version: 1.00
    Edition/Release: Original

Extras:
    Primary Volume Descriptor (PVD):

0320 : 20 20 20 20 20 20 20 20  20 20 20 20 20 32 30 30                200
0330 : 30 30 35 32 32 30 33 33  30 30 30 30 30 00 32 30   0052203300000.20
0340 : 30 30 30 35 32 32 30 33  33 30 34 35 30 30 00 00   00052203304500..
0350 : 00 00 00 00 00 00 00 00  00 00 00 00 00 00 00 00   ................
0360 : 00 00 00 00 00 00 00 00  00 00 00 00 00 00 00 00   ................
0370 : 00 01 00 00 00 00 00 00  00 00 00 00 00 00 00 00   ................

Copy Protection:
    Copy Protection: 
    SubIntention Data (SecuROM/LibCrypt):

MSF: 01:08:50 Q-Data: 410101 01:06:51 00 01:08:51 30fe
MSF: 01:08:51 Q-Data: 410101 01:06:52 00 01:08:52 ee4f
MSF: 01:08:52 Q-Data: 410101 01:06:53 00 01:08:53 543f
MSF: 01:08:53 Q-Data: 410101 01:06:54 00 01:08:54 430c
MSF: 01:08:54 Q-Data: 410101 01:06:55 00 01:08:55 f97c
MSF: 01:08:55 Q-Data: 410101 01:06:56 00 01:08:56 27cd
MSF: 01:08:56 Q-Data: 410101 01:06:57 00 01:08:57 9dbd
MSF: 01:08:57 Q-Data: 410101 01:06:58 00 01:08:58 09ab
MSF: 01:08:58 Q-Data: 410101 05:06:58 00 21:08:58 89aa
MSF: 01:19:17 Q-Data: 410101 01:17:18 00 01:19:18 3f61
MSF: 01:19:18 Q-Data: 410101 01:17:19 00 01:19:19 8511
MSF: 01:19:19 Q-Data: 410101 01:17:20 00 01:19:20 86f9
MSF: 01:19:20 Q-Data: 410101 01:17:21 00 01:19:21 3c89
MSF: 01:19:21 Q-Data: 410101 01:17:22 00 01:19:22 e238
MSF: 01:19:22 Q-Data: 410101 01:17:23 00 01:19:23 5848
MSF: 01:19:23 Q-Data: 410101 01:17:24 00 01:19:24 4f7b
MSF: 01:19:24 Q-Data: 410101 01:17:25 00 01:19:25 f50b
MSF: 01:19:25 Q-Data: 410101 11:17:25 00 09:19:25 750a
MSF: 02:04:02 Q-Data: 410101 02:02:03 00 02:04:03 d9e6
MSF: 02:04:03 Q-Data: 410101 02:02:04 00 02:04:04 ced5
MSF: 02:04:04 Q-Data: 410101 02:02:05 00 02:04:05 74a5
MSF: 02:04:05 Q-Data: 410101 02:02:06 00 02:04:06 aa14
MSF: 02:04:06 Q-Data: 410101 02:02:07 00 02:04:07 1064
MSF: 02:04:07 Q-Data: 410101 02:02:08 00 02:04:08 8472
MSF: 02:04:08 Q-Data: 410101 02:02:09 00 02:04:09 3e02
MSF: 02:04:09 Q-Data: 410101 02:02:10 00 02:04:10 113c
MSF: 02:04:10 Q-Data: 410101 02:12:10 00 02:0c:10 913d
MSF: 02:29:45 Q-Data: 410101 02:27:46 00 02:29:46 f50b
MSF: 02:29:46 Q-Data: 410101 02:27:47 00 02:29:47 4f7b
MSF: 02:29:47 Q-Data: 410101 02:27:48 00 02:29:48 db6d
MSF: 02:29:48 Q-Data: 410101 02:27:49 00 02:29:49 611d
MSF: 02:29:49 Q-Data: 410101 02:27:50 00 02:29:50 4e23
MSF: 02:29:50 Q-Data: 410101 02:27:51 00 02:29:51 f453
MSF: 02:29:51 Q-Data: 410101 02:27:52 00 02:29:52 2ae2
MSF: 02:29:52 Q-Data: 410101 02:27:53 00 02:29:53 9092
MSF: 02:29:53 Q-Data: 410101 02:23:53 00 02:09:53 1093
MSF: 02:30:28 Q-Data: 410101 02:28:29 00 02:30:29 688f
MSF: 02:30:29 Q-Data: 410101 02:28:30 00 02:30:30 47b1
MSF: 02:30:30 Q-Data: 410101 02:28:31 00 02:30:31 fdc1
MSF: 02:30:31 Q-Data: 410101 02:28:32 00 02:30:32 2370
MSF: 02:30:32 Q-Data: 410101 02:28:33 00 02:30:33 9900
MSF: 02:30:33 Q-Data: 410101 02:28:34 00 02:30:34 8e33
MSF: 02:30:34 Q-Data: 410101 02:28:35 00 02:30:35 3443
MSF: 02:30:35 Q-Data: 410101 02:28:36 00 02:30:36 eaf2
MSF: 02:30:36 Q-Data: 410101 0a:28:36 00 12:30:36 6af3
MSF: 02:58:07 Q-Data: 410101 02:56:08 00 02:58:08 b995
MSF: 02:58:08 Q-Data: 410101 02:56:09 00 02:58:09 03e5
MSF: 02:58:09 Q-Data: 410101 02:56:10 00 02:58:10 2cdb
MSF: 02:58:10 Q-Data: 410101 02:56:11 00 02:58:11 96ab
MSF: 02:58:11 Q-Data: 410101 02:56:12 00 02:58:12 481a
MSF: 02:58:12 Q-Data: 410101 02:56:13 00 02:58:13 f26a
MSF: 02:58:13 Q-Data: 410101 02:56:14 00 02:58:14 e559
MSF: 02:58:14 Q-Data: 410101 02:56:15 00 02:58:15 5f29
MSF: 02:58:15 Q-Data: 410101 0a:56:15 00 12:58:15 df28
MSF: 03:05:06 Q-Data: 410101 03:03:07 00 03:05:07 e9a4
MSF: 03:05:07 Q-Data: 410101 03:03:08 00 03:05:08 7db2
MSF: 03:05:08 Q-Data: 410101 03:03:09 00 03:05:09 c7c2
MSF: 03:05:09 Q-Data: 410101 03:03:10 00 03:05:10 e8fc
MSF: 03:05:10 Q-Data: 410101 03:03:11 00 03:05:11 528c
MSF: 03:05:11 Q-Data: 410101 03:03:12 00 03:05:12 8c3d
MSF: 03:05:12 Q-Data: 410101 03:03:13 00 03:05:13 364d
MSF: 03:05:13 Q-Data: 410101 03:03:14 00 03:05:14 217e
MSF: 03:05:14 Q-Data: 410101 13:03:14 00 0b:05:14 a17f
MSF: 03:20:14 Q-Data: 410101 03:18:15 00 03:20:15 bb3b
MSF: 03:20:15 Q-Data: 410101 03:18:16 00 03:20:16 658a
MSF: 03:20:16 Q-Data: 410101 03:18:17 00 03:20:17 dffa
MSF: 03:20:17 Q-Data: 410101 03:18:18 00 03:20:18 4bec
MSF: 03:20:18 Q-Data: 410101 03:18:19 00 03:20:19 f19c
MSF: 03:20:19 Q-Data: 410101 03:18:20 00 03:20:20 f274
MSF: 03:20:20 Q-Data: 410101 03:18:21 00 03:20:21 4804
MSF: 03:20:21 Q-Data: 410101 03:18:22 00 03:20:22 96b5
MSF: 03:20:22 Q-Data: 410101 13:18:22 00 0b:20:22 16b4
MSF: 03:40:69 Q-Data: 410101 03:38:70 00 03:40:70 8391
MSF: 03:40:70 Q-Data: 410101 03:38:71 00 03:40:71 39e1
MSF: 03:40:71 Q-Data: 410101 03:38:72 00 03:40:72 e750
MSF: 03:40:72 Q-Data: 410101 03:38:73 00 03:40:73 5d20
MSF: 03:40:73 Q-Data: 410101 03:38:74 00 03:40:74 4a13
MSF: 03:40:74 Q-Data: 410101 03:39:00 00 03:41:00 9611
MSF: 03:41:00 Q-Data: 410101 03:39:01 00 03:41:01 2c61
MSF: 03:41:01 Q-Data: 410101 03:39:02 00 03:41:02 f2d0
MSF: 03:41:02 Q-Data: 410101 03:39:12 00 03:41:0a 72d1
MSF: 04:02:25 Q-Data: 410101 04:00:26 00 04:02:26 b4a1
MSF: 04:02:26 Q-Data: 410101 04:00:27 00 04:02:27 0ed1
MSF: 04:02:27 Q-Data: 410101 04:00:28 00 04:02:28 9ac7
MSF: 04:02:28 Q-Data: 410101 04:00:29 00 04:02:29 20b7
MSF: 04:02:29 Q-Data: 410101 04:00:30 00 04:02:30 0f89
MSF: 04:02:30 Q-Data: 410101 04:00:31 00 04:02:31 b5f9
MSF: 04:02:31 Q-Data: 410101 04:00:32 00 04:02:32 6b48
MSF: 04:02:32 Q-Data: 410101 04:00:33 00 04:02:33 d138
MSF: 04:02:33 Q-Data: 410101 04:01:33 00 04:82:33 5139

Tracks and Write Offsets:
    DAT:

<rom name="PLAYDISC.bin" size="701147664" crc="f13434e4" md5="26f1da879be8153c931b49684ac9b714" sha1="528a60fec47a8b7a5c36b6a55e698fefe655bf7c" />

    Cuesheet:

FILE "PLAYDISC.bin" BINARY
  TRACK 01 MODE1/2352
    INDEX 01 00:00:00

    Write Offset: -647

CD3

Match: http://redump.org/disc/7864/
Logs: https://drive.google.com/open?id=1llm-l … Dk87aKdVWb

Common Disc Info:
    Title: Diablo II
    Foreign Title (Non-latin): 
    Disc Number / Letter: 3
    Disc Title: Cinematics Disc
    System: IBM PC Compatible
    Media Type: CD-ROM
    Category: Games
    Matching IDs: 7864
    Region: Europe
    Languages: English
    Disc Serial: S0020438

    Ringcode Information:
        Mastering Code (laser branded/etched): S0020438CD3 26 MAY 00    MPO    01 @@ 4
        Mastering SID Code: IFPI L032
        Data-Side Mould SID Code: IFPI 1201
        Label-Side Mould SID Code: (REQUIRED, IF EXISTS)
        Additional Mould: (REQUIRED, IF EXISTS)
        Toolstamp or Mastering Code (engraved/stamped): (REQUIRED, IF EXISTS)
    Barcode: 3 348542 106574
    Error Count: 0
    Comments: PC/Mac Hybrid
    Contents: (OPTIONAL)

Version and Editions:
    Version: 1.00
    Edition/Release: Original

Extras:
    Primary Volume Descriptor (PVD):

0320 : 20 20 20 20 20 20 20 20  20 20 20 20 20 32 30 30                200
0330 : 30 30 35 32 32 30 35 34  32 34 38 30 30 00 32 30   0052205424800.20
0340 : 30 30 30 35 32 32 30 35  34 33 32 38 30 30 00 00   00052205432800..
0350 : 00 00 00 00 00 00 00 00  00 00 00 00 00 00 00 00   ................
0360 : 00 00 00 00 00 00 00 00  00 00 00 00 00 00 00 00   ................
0370 : 00 01 00 00 00 00 00 00  00 00 00 00 00 00 00 00   ................

Copy Protection:
    Copy Protection: 

Tracks and Write Offsets:
    DAT:

<rom name="CINEMATICS.bin" size="509654880" crc="7029a707" md5="97cc46eb410f90b6c1c852188d8908dd" sha1="3eac12eed8ca6febb00cf51abd682eb3dff506ab" />

    Cuesheet:

FILE "CINEMATICS.bin" BINARY
  TRACK 01 MODE1/2352
    INDEX 01 00:00:00

    Write Offset: -12