CD1

Match: http://redump.org/disc/1703/
Logs: https://drive.google.com/open?id=1GX8nJ … jRGt8yl5I-

Common Disc Info:
    Title: Outlaws
    Foreign Title (Non-latin): 
    Disc Number / Letter: 1
    Disc Title: Disc 1
    System: IBM PC Compatible
    Media Type: CD-ROM
    Category: Games
    Matching IDs: 1703
    Region: Europe
    Languages: English
    Disc Serial: 9511830

    Ringcode Information:
        Mastering Code (laser branded/etched): SONOPRESS CD-ROM M S-6175 A
        Mastering SID Code: IFPI L022
        Data-Side Mould SID Code: IFPI 0784
        Label-Side Mould SID Code: (REQUIRED, IF EXISTS)
        Additional Mould: (REQUIRED, IF EXISTS)
        Toolstamp or Mastering Code (engraved/stamped): (REQUIRED, IF EXISTS)
    Barcode: 
    Error Count: 0
    Comments: [T:ISBN] (OPTIONAL)
    Contents: (OPTIONAL)

Version and Editions:
    Version: 1.0
    Edition/Release: Original

Extras:
    Primary Volume Descriptor (PVD):

0320 : 20 20 20 20 20 20 20 20  20 20 20 20 20 31 39 39                199
0330 : 37 30 33 31 38 31 36 32  32 30 35 30 30 00 31 39   7031816220500.19
0340 : 39 37 30 33 31 38 31 36  32 32 30 35 30 30 00 31   97031816220500.1
0350 : 39 39 37 00 33 31 38 31  36 32 32 30 35 30 30 00   997.31816220500.
0360 : 31 39 39 37 00 33 31 38  31 36 32 32 30 35 30 30   1997.31816220500
0370 : 00 01 00 00 00 00 00 00  00 00 00 00 00 00 00 00   ................

Copy Protection:
    Copy Protection: 

Tracks and Write Offsets:
    DAT:

<rom name="OUTLAWS_1 (Track 1).bin" size="379309392" crc="cb98cd46" md5="9739dec6ec388fb22c7e9c428b9cafe0" sha1="2e55c759c12286ab1083fcd9a0ad4a184e27d22d" />
<rom name="OUTLAWS_1 (Track 2).bin" size="35604576" crc="2607a87d" md5="51f53494dca66c108a29eb45b19c7fa8" sha1="491e3bf4d72fbc7810e7d2d63c6ada68a368bff9" />
<rom name="OUTLAWS_1 (Track 3).bin" size="45936912" crc="39cb10cd" md5="f13d9c68b649f3e9fe817f7e9b1d7310" sha1="24e71dd14cd6d0e34a7221f0c9d53502f72a37f7" />
<rom name="OUTLAWS_1 (Track 4).bin" size="40701360" crc="91cc0a45" md5="5edd602f0979d50629c7a54c5a92c56a" sha1="2e1e339e6bab49c6bfc85c24c1f574fe0cdaa85f" />
<rom name="OUTLAWS_1 (Track 5).bin" size="41145888" crc="87249319" md5="161e0a00af6c78eb84d5536233cc9481" sha1="c7359c9939d92aba97230a28666aec3539b7ba53" />
<rom name="OUTLAWS_1 (Track 6).bin" size="50784384" crc="04b338fd" md5="6f4b2cfe8b14ce42784a484ee960f412" sha1="6af5fb52b10f3386774f5059725cd0aaf787e92a" />
<rom name="OUTLAWS_1 (Track 7).bin" size="39518304" crc="08be058d" md5="48fe9bba8ee2a33ca75151e25cfbaac6" sha1="6c0d058b0c7692027e541f347529dc0666a0c7a7" />
<rom name="OUTLAWS_1 (Track 8).bin" size="37928352" crc="d367ec08" md5="0d432b57dfe93ee1ef129fd0f7a67ccc" sha1="04874c5fbcaa696e25e5b7161f664ba86478515c" />

    Cuesheet:

CATALOG 0000000000000
FILE "OUTLAWS_1 (Track 1).bin" BINARY
  TRACK 01 MODE1/2352
    INDEX 01 00:00:00
FILE "OUTLAWS_1 (Track 2).bin" BINARY
  TRACK 02 AUDIO
    INDEX 00 00:00:00
    INDEX 01 00:02:00
FILE "OUTLAWS_1 (Track 3).bin" BINARY
  TRACK 03 AUDIO
    INDEX 01 00:00:00
FILE "OUTLAWS_1 (Track 4).bin" BINARY
  TRACK 04 AUDIO
    INDEX 01 00:00:00
FILE "OUTLAWS_1 (Track 5).bin" BINARY
  TRACK 05 AUDIO
    INDEX 01 00:00:00
FILE "OUTLAWS_1 (Track 6).bin" BINARY
  TRACK 06 AUDIO
    INDEX 01 00:00:00
FILE "OUTLAWS_1 (Track 7).bin" BINARY
  TRACK 07 AUDIO
    INDEX 01 00:00:00
FILE "OUTLAWS_1 (Track 8).bin" BINARY
  TRACK 08 AUDIO
    INDEX 01 00:00:00

    Write Offset: 0

CD 2

Match: http://redump.org/disc/1702/
Logs: https://drive.google.com/open?id=1DDX4U … SKah_wuRWb

Common Disc Info:
    Title: Outlaws
    Foreign Title (Non-latin): 
    Disc Number / Letter: 2
    Disc Title: Disc 2
    System: IBM PC Compatible
    Media Type: CD-ROM
    Category: Games
    Matching IDs: 1702
    Region: Europe
    Languages: English
    Disc Serial: 9511831

    Ringcode Information:
        Mastering Code (laser branded/etched): SONOPRESS CD-ROM M S-6176 B
        Mastering SID Code: IFPI L022
        Data-Side Mould SID Code: IFPI 0789
        Label-Side Mould SID Code: (REQUIRED, IF EXISTS)
        Additional Mould: (REQUIRED, IF EXISTS)
        Toolstamp or Mastering Code (engraved/stamped): (REQUIRED, IF EXISTS)
    Barcode: 
    Error Count: 0
    Comments: [T:ISBN] (OPTIONAL)
    Contents: (OPTIONAL)

Version and Editions:
    Version: 1.0
    Edition/Release: Original

Extras:
    Primary Volume Descriptor (PVD):

0320 : 20 20 20 20 20 20 20 20  20 20 20 20 20 31 39 39                199
0330 : 37 30 33 31 38 31 36 34  35 34 37 30 30 00 31 39   7031816454700.19
0340 : 39 37 30 33 31 38 31 36  34 35 34 37 30 30 00 30   97031816454700.0
0350 : 30 30 30 30 30 30 30 30  30 30 30 30 30 30 30 00   000000000000000.
0360 : 30 30 30 30 30 30 30 30  30 30 30 30 30 30 30 30   0000000000000000
0370 : 00 01 00 00 00 00 00 00  00 00 00 00 00 00 00 00   ................

Copy Protection:
    Copy Protection: 

Tracks and Write Offsets:
    DAT:

<rom name="OUTLAWS_2 (Track 1).bin" size="286619424" crc="bafff5d9" md5="09e3007cf1120591a033c89af0550940" sha1="e5079ea0d1a05ba760a3061c6602c9dff95b0d49" />
<rom name="OUTLAWS_2 (Track 2).bin" size="50610336" crc="63d947fa" md5="1e9a2262f99292c02eece7f106ca66ca" sha1="089f13bd13eff618c9f9428745002a2f262428b4" />
<rom name="OUTLAWS_2 (Track 3).bin" size="59366832" crc="aa330abf" md5="b8b737dd6ba58c3d90d0aaf8eacbee6e" sha1="c365b5fb3453a56bc33d85a4134ad24da35b113e" />
<rom name="OUTLAWS_2 (Track 4).bin" size="36731184" crc="56e7ec0f" md5="63c89a82b74569d2e435c89488584be2" sha1="6dde63b2875d9cf6b7184007e7f102e29775e9ac" />
<rom name="OUTLAWS_2 (Track 5).bin" size="76971552" crc="9c420da1" md5="a7d6f7f1dc82caecdc5faa7986f570ba" sha1="be2cf129a3a290860a2ca1c959d636176cc9d677" />
<rom name="OUTLAWS_2 (Track 6).bin" size="43326192" crc="49d2d6b0" md5="df8238bf825b2054b191fb1baaab69ad" sha1="4ebdf3d6323b82d1faa320c271f2cf75b6212dc9" />
<rom name="OUTLAWS_2 (Track 7).bin" size="55413120" crc="17b51aac" md5="a51e2ac9a56b26eb9492799c245ab95c" sha1="0429e8d9480bfbb580224e8164aab98dc9f0139b" />
<rom name="OUTLAWS_2 (Track 8).bin" size="39457152" crc="c6f591bd" md5="b56b39f9a36830112a76d14f966705ae" sha1="6853198a6b5ccb1426528b6bbff87abc73866919" />
<rom name="OUTLAWS_2 (Track 9).bin" size="25587408" crc="eb1ecd5f" md5="c151bb16f1206d5ce39fb9887c1f18d3" sha1="7508d7a78795a515b65fb95aa40082045751f99d" />

    Cuesheet:

CATALOG 0000000000000
FILE "OUTLAWS_2 (Track 1).bin" BINARY
  TRACK 01 MODE1/2352
    INDEX 01 00:00:00
FILE "OUTLAWS_2 (Track 2).bin" BINARY
  TRACK 02 AUDIO
    INDEX 00 00:00:00
    INDEX 01 00:02:00
FILE "OUTLAWS_2 (Track 3).bin" BINARY
  TRACK 03 AUDIO
    INDEX 01 00:00:00
FILE "OUTLAWS_2 (Track 4).bin" BINARY
  TRACK 04 AUDIO
    INDEX 01 00:00:00
FILE "OUTLAWS_2 (Track 5).bin" BINARY
  TRACK 05 AUDIO
    INDEX 01 00:00:00
FILE "OUTLAWS_2 (Track 6).bin" BINARY
  TRACK 06 AUDIO
    INDEX 01 00:00:00
FILE "OUTLAWS_2 (Track 7).bin" BINARY
  TRACK 07 AUDIO
    INDEX 01 00:00:00
FILE "OUTLAWS_2 (Track 8).bin" BINARY
  TRACK 08 AUDIO
    INDEX 01 00:00:00
FILE "OUTLAWS_2 (Track 9).bin" BINARY
  TRACK 09 AUDIO
    INDEX 01 00:00:00

    Write Offset: 0