Match: http://redump.org/disc/18790/
Logs: https://drive.google.com/open?id=1GX8nJ … jRGt8yl5I-

Common Disc Info:
    Title: Half-Life: Opposing Force
    Foreign Title (Non-latin): 
    Disc Number / Letter: (OPTIONAL)
    Disc Title: (OPTIONAL)
    System: IBM PC Compatible
    Media Type: CD-ROM
    Category: Add-Ons
    Matching IDs: 18790
    Region: Europe
    Languages: English
    Disc Serial: S0015928

    Ringcode Information:
        Mastering Code (laser branded/etched): HALFLIFEEXPANSFE 17 NOV 99    MPO    01 @@ 4    P01
        Mastering SID Code: IFPI L032
        Data-Side Mould SID Code: (REQUIRED, IF EXISTS)
        Label-Side Mould SID Code: (REQUIRED, IF EXISTS)
        Additional Mould: IFPI 121C
        Toolstamp or Mastering Code (engraved/stamped): 01
    Barcode:  3 348542 073258
    Error Count: 780
    Comments: [T:ISBN] (OPTIONAL)
    Contents: (OPTIONAL)

Version and Editions:
    Version: 1.0.1.5
    Edition/Release: Original

Extras:
    Primary Volume Descriptor (PVD):

0320 : 20 20 20 20 20 20 20 20  20 20 20 20 20 31 39 39                199
0330 : 39 31 31 31 32 31 37 34  35 33 35 30 30 00 31 39   9111217453500.19
0340 : 39 39 31 31 31 32 31 37  34 35 33 35 30 30 00 30   99111217453500.0
0350 : 30 30 30 30 30 30 30 30  30 30 30 30 30 30 30 00   000000000000000.
0360 : 30 30 30 30 30 30 30 30  30 30 30 30 30 30 30 30   0000000000000000
0370 : 00 01 00 00 00 00 00 00  00 00 00 00 00 00 00 00   ................

Copy Protection:
    Copy Protection:

H:\: SafeDisc 1.35
H:\00000001.TMP: SafeDisc 1 or greater
H:\OPFOR\gearbox\clcd16.dll: SafeDisc 1
H:\OPFOR\gearbox\clcd32.dll: SafeDisc 1
H:\OPFOR\gearbox\clokspl.exe: SafeDisc 1, CD Check
H:\OPFOR\gearbox\dplayerx.dll: SafeDisc 1.35, SafeDisc 1.35.000
H:\OPFOR\gearbox\dq2249.gbx: CD Check, SafeDisc 1.35.000
H:\OPFOR\gearbox\DQ2249.ICD: SafeDisc 1, SafeDisc 1.35.000
H:\OPFOR\gearbox\drvmgt.dll: SafeDisc 1.1x-1.3x
H:\OPFOR\gearbox\secdrv.sys: SafeDisc 2 or greater

Tracks and Write Offsets:
    DAT:

<rom name="OPFOR_UK (Track 01).bin" size="364465920" crc="ce70572b" md5="91357c203c108ed49c92b502785e1e0e" sha1="8e4fee2e44b7dd5f969583ecf9b65457798762d0" />
<rom name="OPFOR_UK (Track 02).bin" size="3031728" crc="e6adb452" md5="3048651073e577cd5b2061402ef7b8c6" sha1="bd2e83a5f549a6897dd92e86830b4d281df70d7b" />
<rom name="OPFOR_UK (Track 03).bin" size="12557328" crc="66fbbeb0" md5="2e9c81e8921239c150ce198f8cf36ea3" sha1="403973a45c5503bfaa8c0fdc4aa26d9009799016" />
<rom name="OPFOR_UK (Track 04).bin" size="20069616" crc="8675a352" md5="3929221965a278a67dcca05c4e1533c6" sha1="da698d54477e1e793ec7b5c2f5aa3542067e7098" />
<rom name="OPFOR_UK (Track 05).bin" size="3062304" crc="72b073b4" md5="4430138c974df1532f293882a79b850f" sha1="681a4f59861a7ccaa703268f6389827a21f2bb1a" />
<rom name="OPFOR_UK (Track 06).bin" size="11030880" crc="89e01cc4" md5="8b6104d5b8c56d0728bf0d329a247746" sha1="ba0fa6a24e48392fdb1ade87d736ba7e356db564" />
<rom name="OPFOR_UK (Track 07).bin" size="17324832" crc="ac11f1ff" md5="7f2d87de6450ffbe8a59600fd4bb1aa6" sha1="856f128957e68cc4592d1709586c50c3ddc108da" />
<rom name="OPFOR_UK (Track 08).bin" size="14043792" crc="3c7feb22" md5="1334c676b017a25b05e8a37150980a38" sha1="d89ba9e61bb04a398eea92696e66f9b82e6554ea" />
<rom name="OPFOR_UK (Track 09).bin" size="19208784" crc="f0b49b16" md5="31f78e8ac6a9a80baee5012bf027a5ef" sha1="c1887d98ba150e0e4fefb2a2a9b118bf98bf971e" />
<rom name="OPFOR_UK (Track 10).bin" size="22405152" crc="8c9da79d" md5="a40e39e3f437b7e4790779bba2aaef2e" sha1="77e8bade27a300100793e60bfca33dde022a7967" />
<rom name="OPFOR_UK (Track 11).bin" size="14434224" crc="80756e10" md5="34a651967e461c0cbe50054a76da6cdf" sha1="8d57b7c97b3a7baec4c7fe417700a116452631cf" />
<rom name="OPFOR_UK (Track 12).bin" size="13524000" crc="839b9392" md5="e2c6e1c47d145abbcc2eeb7bebc064e3" sha1="412a666b2644b7d2768af8c2e2676c36c5b0f0f9" />
<rom name="OPFOR_UK (Track 13).bin" size="15384432" crc="ee0304c9" md5="ce2c436706aeeb4bfdbbec295aef49cf" sha1="d1f4387f5242849e140c6453787ed9d3275f9406" />
<rom name="OPFOR_UK (Track 14).bin" size="9447984" crc="1a34dccc" md5="4d396d96c73395481b93bc7708705db2" sha1="bf43037bc551f32205f50798120e844520cab99b" />
<rom name="OPFOR_UK (Track 15).bin" size="14970480" crc="e5249f20" md5="bc89b5ba704126f7e9e7ded5fc26f065" sha1="13529cc0584b3c7d738121389b54dac6d374c174" />
<rom name="OPFOR_UK (Track 16).bin" size="15212736" crc="5eb9b153" md5="e57a0bc093a295858c2860ab77108470" sha1="5cf3442b99364e18b0aa283daa8edbd6fdb7a865" />
<rom name="OPFOR_UK (Track 17).bin" size="21076272" crc="c52943f2" md5="cdee59b4f115862a3eaa44d9961d6b52" sha1="cffa35d7c3ddb05dfb9d6d2f7017495d9933bcb5" />
<rom name="OPFOR_UK (Track 18).bin" size="10412304" crc="b67c0bf5" md5="63067c348ef3f4b970e41292838e4581" sha1="23328d2117ef5ed5219c68671193b8e410a40219" />
<rom name="OPFOR_UK (Track 19).bin" size="22002960" crc="3a9eb54e" md5="8428f90bf3cf5434c9f10a2fe119cd0b" sha1="e5c914b8828b97ffbb80b8224ab07a1fe14adda1" />
<rom name="OPFOR_UK (Track 20).bin" size="16840320" crc="fb98b87e" md5="71ceb7d08e23978a66e81fb7fa070a0f" sha1="c263b8ddc43a90c2755352f5308770bcef132abc" />

    Cuesheet:

FILE "OPFOR_UK (Track 01).bin" BINARY
  TRACK 01 MODE1/2352
    INDEX 01 00:00:00
FILE "OPFOR_UK (Track 02).bin" BINARY
  TRACK 02 AUDIO
    INDEX 00 00:00:00
    INDEX 01 00:02:00
FILE "OPFOR_UK (Track 03).bin" BINARY
  TRACK 03 AUDIO
    INDEX 00 00:00:00
    INDEX 01 00:01:74
FILE "OPFOR_UK (Track 04).bin" BINARY
  TRACK 04 AUDIO
    INDEX 00 00:00:00
    INDEX 01 00:01:74
FILE "OPFOR_UK (Track 05).bin" BINARY
  TRACK 05 AUDIO
    INDEX 00 00:00:00
    INDEX 01 00:01:74
FILE "OPFOR_UK (Track 06).bin" BINARY
  TRACK 06 AUDIO
    INDEX 00 00:00:00
    INDEX 01 00:01:74
FILE "OPFOR_UK (Track 07).bin" BINARY
  TRACK 07 AUDIO
    INDEX 00 00:00:00
    INDEX 01 00:01:74
FILE "OPFOR_UK (Track 08).bin" BINARY
  TRACK 08 AUDIO
    INDEX 00 00:00:00
    INDEX 01 00:01:74
FILE "OPFOR_UK (Track 09).bin" BINARY
  TRACK 09 AUDIO
    INDEX 00 00:00:00
    INDEX 01 00:01:74
FILE "OPFOR_UK (Track 10).bin" BINARY
  TRACK 10 AUDIO
    INDEX 00 00:00:00
    INDEX 01 00:01:74
FILE "OPFOR_UK (Track 11).bin" BINARY
  TRACK 11 AUDIO
    INDEX 00 00:00:00
    INDEX 01 00:01:74
FILE "OPFOR_UK (Track 12).bin" BINARY
  TRACK 12 AUDIO
    INDEX 00 00:00:00
    INDEX 01 00:01:74
FILE "OPFOR_UK (Track 13).bin" BINARY
  TRACK 13 AUDIO
    INDEX 00 00:00:00
    INDEX 01 00:01:74
FILE "OPFOR_UK (Track 14).bin" BINARY
  TRACK 14 AUDIO
    INDEX 00 00:00:00
    INDEX 01 00:01:74
FILE "OPFOR_UK (Track 15).bin" BINARY
  TRACK 15 AUDIO
    ISRC JVCAB6112196
    INDEX 00 00:00:00
    INDEX 01 00:01:74
FILE "OPFOR_UK (Track 16).bin" BINARY
  TRACK 16 AUDIO
    INDEX 00 00:00:00
    INDEX 01 00:01:74
FILE "OPFOR_UK (Track 17).bin" BINARY
  TRACK 17 AUDIO
    INDEX 00 00:00:00
    INDEX 01 00:01:74
FILE "OPFOR_UK (Track 18).bin" BINARY
  TRACK 18 AUDIO
    INDEX 00 00:00:00
    INDEX 01 00:01:74
FILE "OPFOR_UK (Track 19).bin" BINARY
  TRACK 19 AUDIO
    INDEX 00 00:00:00
    INDEX 01 00:01:74
FILE "OPFOR_UK (Track 20).bin" BINARY
  TRACK 20 AUDIO
    INDEX 00 00:00:00
    INDEX 01 00:01:74

    Write Offset: -12