CD 1

Match: http://redump.org/disc/34661/
Logs: https://drive.google.com/open?id=1JzE2B … tehYlxcdmt

Common Disc Info:
    Title: Blade Runner
    Foreign Title (Non-latin): 
    Disc Number / Letter: 1
    Disc Title: Disk 1
    System: IBM PC Compatible
    Media Type: CD-ROM
    Category: Games
    Matching IDs: 34661
    Region: Europe
    Languages: English
    Disc Serial: (REQUIRED, IF EXISTS)

    Ringcode Information:
        Mastering Code (laser branded/etched): NIMBUS    CDD18944 BLADERUNNER 1 :
        Mastering SID Code: IFPI L122
        Data-Side Mould SID Code: IFPI 2330
        Label-Side Mould SID Code: (REQUIRED, IF EXISTS)
        Additional Mould: (REQUIRED, IF EXISTS)
        Toolstamp or Mastering Code (engraved/stamped): 1:2
    Barcode: 
    Error Count: 0
    Comments: [T:ISBN] (OPTIONAL)
    Contents: (OPTIONAL)

Version and Editions:
    Version: (REQUIRED, IF EXISTS)
    Edition/Release: Original

Extras:
    Primary Volume Descriptor (PVD):

0320 : 20 20 20 20 20 20 20 20  20 20 20 20 20 30 30 30                000
0330 : 30 30 30 30 30 30 30 30  30 30 30 30 30 00 30 30   0000000000000.00
0340 : 30 30 30 30 30 30 30 30  30 30 30 30 30 30 00 30   00000000000000.0
0350 : 30 30 30 30 30 30 30 30  30 30 30 30 30 30 30 00   000000000000000.
0360 : 30 30 30 30 30 30 30 30  30 30 30 30 30 30 30 30   0000000000000000
0370 : 00 01 00 00 00 00 00 00  00 00 00 00 00 00 00 00   ................

Copy Protection:
    Copy Protection: 

Tracks and Write Offsets:
    DAT:

<rom name="BLADE_1.bin" size="713267520" crc="0cf16a68" md5="22964bda44d418ac3e872632972a318e" sha1="191cb9758e12e73bee384142f996a9c3bff195a4" />

    Cuesheet:

FILE "BLADE_1.bin" BINARY
  TRACK 01 MODE1/2352
    INDEX 01 00:00:00

    Write Offset: -12

CD 2

Match: http://redump.org/disc/34662/
Logs: https://drive.google.com/open?id=1LJHaU … WqK-w9P74X

Common Disc Info:
    Title: Blade Runner
    Foreign Title (Non-latin): 
    Disc Number / Letter: 2
    Disc Title: Disk 2
    System: IBM PC Compatible
    Media Type: CD-ROM
    Category: Games
    Matching IDs: 34662
    Region: Europe
    Languages: English
    Disc Serial: (REQUIRED, IF EXISTS)

    Ringcode Information:
        Mastering Code (laser branded/etched): NIMBUS    CDD18945 BLADERUNNER 2 ·
        Mastering SID Code: IFPI L122
        Data-Side Mould SID Code:  IFPI 2319
        Label-Side Mould SID Code: (REQUIRED, IF EXISTS)
        Additional Mould: (REQUIRED, IF EXISTS)
        Toolstamp or Mastering Code (engraved/stamped): 1:0
    Barcode: 
    Error Count: 0
    Comments: [T:ISBN] (OPTIONAL)
    Contents: (OPTIONAL)

Version and Editions:
    Version: (REQUIRED, IF EXISTS)
    Edition/Release: Original

Extras:
    Primary Volume Descriptor (PVD):

0320 : 20 20 20 20 20 20 20 20  20 20 20 20 20 30 30 30                000
0330 : 30 30 30 30 30 30 30 30  30 30 30 30 30 00 30 30   0000000000000.00
0340 : 30 30 30 30 30 30 30 30  30 30 30 30 30 30 00 30   00000000000000.0
0350 : 30 30 30 30 30 30 30 30  30 30 30 30 30 30 30 00   000000000000000.
0360 : 30 30 30 30 30 30 30 30  30 30 30 30 30 30 30 30   0000000000000000
0370 : 00 01 00 00 00 00 00 00  00 00 00 00 00 00 00 00   ................

Copy Protection:
    Copy Protection: None found

Tracks and Write Offsets:
    DAT:

<rom name="BLADE_2.bin" size="725521440" crc="fbc8ac2d" md5="8f9133b8093f27ff6f1e4f20262be938" sha1="b790c5fadf3648678d38eb1470e317a8a681e5a3" />

    Cuesheet:

FILE "BLADE_2.bin" BINARY
  TRACK 01 MODE1/2352
    INDEX 01 00:00:00

    Write Offset: -12

CD 3

Match: http://redump.org/disc/34663/
Logs: https://drive.google.com/open?id=1ErpN9 … 5pEBJB5ebi

Common Disc Info:
    Title: Blade Runner
    Foreign Title (Non-latin): 
    Disc Number / Letter: 3
    Disc Title: Disk 3
    System: IBM PC Compatible
    Media Type: CD-ROM
    Category: Games
    Matching IDs: 34663
    Region: Europe
    Languages: English
    Disc Serial: (REQUIRED, IF EXISTS)

    Ringcode Information:
        Mastering Code (laser branded/etched): NIMBUS    CDD18946 BLADERUNNER 3 :
        Mastering SID Code: IFPI L122
        Data-Side Mould SID Code: IFPI 2304
        Label-Side Mould SID Code: (REQUIRED, IF EXISTS)
        Additional Mould: (REQUIRED, IF EXISTS)
        Toolstamp or Mastering Code (engraved/stamped): 1:4
    Barcode: 
    Error Count: 0
    Comments: [T:ISBN] (OPTIONAL)
    Contents: (OPTIONAL)

Version and Editions:
    Version: (REQUIRED, IF EXISTS)
    Edition/Release: Original

Extras:
    Primary Volume Descriptor (PVD):

0320 : 20 20 20 20 20 20 20 20  20 20 20 20 20 30 30 30                000
0330 : 30 30 30 30 30 30 30 30  30 30 30 30 30 00 30 30   0000000000000.00
0340 : 30 30 30 30 30 30 30 30  30 30 30 30 30 30 00 30   00000000000000.0
0350 : 30 30 30 30 30 30 30 30  30 30 30 30 30 30 30 00   000000000000000.
0360 : 30 30 30 30 30 30 30 30  30 30 30 30 30 30 30 30   0000000000000000
0370 : 00 01 00 00 00 00 00 00  00 00 00 00 00 00 00 00   ................

Copy Protection:
    Copy Protection: None found

Tracks and Write Offsets:
    DAT:

<rom name="BLADE_3.bin" size="683065488" crc="ff1159e9" md5="d5c21fa724f47aa8eddf2005697e642c" sha1="576d4e3b6d74d8d65567fb1f58c3d0449cb8dab1" />

    Cuesheet:

FILE "BLADE_3.bin" BINARY
  TRACK 01 MODE1/2352
    INDEX 01 00:00:00

    Write Offset: -12

CD 4

Match: http://redump.org/disc/34664/
Logs: https://drive.google.com/open?id=1z_Zxs … DFqEBYzAa0

Common Disc Info:
    Title: Blade Runner
    Foreign Title (Non-latin): 
    Disc Number / Letter: 4
    Disc Title: Disk 4
    System: IBM PC Compatible
    Media Type: CD-ROM
    Category: Games
    Matching IDs: 34664
    Region: Europe
    Languages: English
    Disc Serial: (REQUIRED, IF EXISTS)

    Ringcode Information:
        Mastering Code (laser branded/etched): NIMBUS    CDD18947 BLADERUNNER 4 ·
        Mastering SID Code: IFPI L122
        Data-Side Mould SID Code: IFPI 2322
        Label-Side Mould SID Code: (REQUIRED, IF EXISTS)
        Additional Mould: (REQUIRED, IF EXISTS)
        Toolstamp or Mastering Code (engraved/stamped): 1:0
    Barcode: 
    Error Count: 0
    Comments: [T:ISBN] (OPTIONAL)
    Contents: (OPTIONAL)

Version and Editions:
    Version: (REQUIRED, IF EXISTS)
    Edition/Release: Original

Extras:
    Primary Volume Descriptor (PVD):

0320 : 20 20 20 20 20 20 20 20  20 20 20 20 20 30 30 30                000
0330 : 30 30 30 30 30 30 30 30  30 30 30 30 30 00 30 30   0000000000000.00
0340 : 30 30 30 30 30 30 30 30  30 30 30 30 30 30 00 30   00000000000000.0
0350 : 30 30 30 30 30 30 30 30  30 30 30 30 30 30 30 00   000000000000000.
0360 : 30 30 30 30 30 30 30 30  30 30 30 30 30 30 30 30   0000000000000000
0370 : 00 01 00 00 00 00 00 00  00 00 00 00 00 00 00 00   ................

Copy Protection:
    Copy Protection: None found

Tracks and Write Offsets:
    DAT:

<rom name="BLADE_4.bin" size="667053072" crc="b5d537bb" md5="0d0c8cb02c5a629fe66345e55b51e08e" sha1="9715035cca2dc3f38a4c01cfa6118082432e18ab" />

    Cuesheet:

FILE "BLADE_4.bin" BINARY
  TRACK 01 MODE1/2352
    INDEX 01 00:00:00

    Write Offset: -12