Common Disc Info:
    Title: Chuck Rock
    Foreign Title (Non-latin): (OPTIONAL)
    Disc Number / Letter: (OPTIONAL)
    Disc Title: CHUCKROCK
    System: Sega CD / Mega CD
    Media Type: CD-ROM
    Category: Games
    Region: US
    Languages: English
    Disc Serial: T-06204

    Ringcode Information:
        Mastering Code (laser branded/etched): CDAC-032500<tab>5
        Mastering SID Code: (REQUIRED, IF EXISTS)
        Data-Side Mould SID Code: (REQUIRED, IF EXISTS)
        Label-Side Mould SID Code: (REQUIRED, IF EXISTS)
        Additional Mould: (REQUIRED, IF EXISTS)
        Toolstamp or Mastering Code (engraved/stamped): (REQUIRED, IF EXISTS)
    Barcode: (OPTIONAL)
    EXE/Build Date: 1992-12
    Error Count: 0
    Comments: ID on the disc: CDAC 032500
    Contents: Should probably match http://redump.org/disc/35935/

Version and Editions:
    Version: (REQUIRED, IF EXISTS)
    Edition/Release: Original

Extras:
    Primary Volume Descriptor (PVD):

0320 : 20 20 20 20 20 20 20 20  20 20 20 20 20 31 39 39                199
0330 : 32 30 36 31 30 31 39 30  35 30 30 30 30 00 31 39   2061019050000.19
0340 : 39 32 31 31 30 39 31 36  35 38 30 31 30 30 00 30   92110916580100.0
0350 : 30 30 30 30 30 30 30 30  30 30 30 30 30 30 30 00   000000000000000.
0360 : 31 39 39 32 30 36 31 30  31 39 30 35 30 30 30 30   1992061019050000
0370 : 00 01 00 00 00 00 00 00  00 00 00 00 00 00 00 00   ................

    Header:

0100 : 53 45 47 41 20 47 45 4E  45 53 49 53 20 20 20 20   SEGA GENESIS    
0110 : 28 43 29 54 2D 39 38 20  31 39 39 32 2E 44 45 43   (C)T-98 1992.DEC
0120 : 43 48 55 43 4B 20 52 4F  43 4B 20 20 20 20 20 20   CHUCK ROCK      
0130 : 20 20 20 20 20 20 20 20  20 20 20 20 20 20 20 20                   
0140 : 20 20 20 20 20 20 20 20  20 20 20 20 20 20 20 20                   
0150 : 43 48 55 43 4B 20 52 4F  43 4B 20 20 20 20 20 20   CHUCK ROCK      
0160 : 20 20 20 20 20 20 20 20  20 20 20 20 20 20 20 20                   
0170 : 20 20 20 20 20 20 20 20  20 20 20 20 20 20 20 20                   
0180 : 47 4D 20 54 2D 30 36 32  30 34 20 2D 35 36 20 20   GM T-06204 -56  
0190 : 4A 20 20 20 20 20 20 20  20 20 20 20 20 20 20 20   J               
01A0 : 20 20 20 20 20 20 20 20  20 20 20 20 20 20 20 20                   
01B0 : 20 20 20 20 20 20 20 20  20 20 20 20 20 20 20 20                   
01C0 : 20 20 20 20 20 20 20 20  20 20 20 20 20 20 20 20                   
01D0 : 20 20 20 20 20 20 20 20  20 20 20 20 20 20 20 20                   
01E0 : 20 20 20 20 20 20 20 20  20 20 20 20 20 20 20 20                   
01F0 : 55 20 20 20 20 20 20 20  20 20 20 20 20 20 20 20   U               

Tracks and Write Offsets:
    DAT:

<rom name="CHUCKROCK (Track 01).bin" size="12625536" crc="a2d666a8" md5="cd8aaeff0b7cb1de361c4c39d425763f" sha1="f0fc8bba5f404d0984f52a652dc9d541e0f20afa" />
<rom name="CHUCKROCK (Track 02).bin" size="42394800" crc="fd3e065d" md5="07cc7748add810f84e603345e8b1f56c" sha1="8390d77d5efe0f59f10fd7beabe32aa6b5c77326" />
<rom name="CHUCKROCK (Track 03).bin" size="42582960" crc="83b86646" md5="342db1070df38d4385f8f85b6a56d01d" sha1="125fddf6b335f1b72f6c41f7f848c0631583beae" />
<rom name="CHUCKROCK (Track 04).bin" size="41463408" crc="0d349191" md5="f02a9a3691ab92ace03fa281952e9cfb" sha1="cd57e5c6974cb07d9fd9aa1836e111105735daae" />
<rom name="CHUCKROCK (Track 05).bin" size="44977296" crc="02388c27" md5="9485cb17bf759035a0f4902e511d7518" sha1="4bc57643621acce16ca294f7dd71906244ee9c32" />
<rom name="CHUCKROCK (Track 06).bin" size="42190176" crc="97dc9ea2" md5="378f3b00221d75056b691acb9bfb568e" sha1="7faac5a8f2a6ec1dc4732ea624316a3c227ce7ae" />
<rom name="CHUCKROCK (Track 07).bin" size="19206432" crc="1b0111db" md5="d6d7b800ee715af9bdf7be1c7f57ee87" sha1="bac44756a5f0d1d77ac43108ba0ceadb7fdbb3bd" />
<rom name="CHUCKROCK (Track 08).bin" size="40132176" crc="0f8a5764" md5="b045b37fc4d6b487f45edf6a7ca59011" sha1="eae39fdd2e9688ff1ad6af208856741aeb250579" />
<rom name="CHUCKROCK (Track 09).bin" size="18413808" crc="bd002115" md5="0c154be0f5264d55f274c3c2c7b36f5a" sha1="55b66d4f2ddf6b32c6b1f3f51eb3046ddce38120" />
<rom name="CHUCKROCK (Track 10).bin" size="1434720" crc="7d8e8ef3" md5="646ba08f5af4fe256f1322a3521f33ee" sha1="baab80434cd74f499effef01460e6a73e27950d7" />
<rom name="CHUCKROCK (Track 11).bin" size="20718768" crc="cbe311c0" md5="9c3b1481589bf832a52ea932904d2920" sha1="66e0823a20c951e83a5077368396c1ef99e66c7e" />

    Cuesheet:

CATALOG 0000000000000
FILE "CHUCKROCK (Track 01).bin" BINARY
  TRACK 01 MODE1/2352
    INDEX 01 00:00:00
FILE "CHUCKROCK (Track 02).bin" BINARY
  TRACK 02 AUDIO
    INDEX 00 00:00:00
    INDEX 01 00:02:00
FILE "CHUCKROCK (Track 03).bin" BINARY
  TRACK 03 AUDIO
    INDEX 00 00:00:00
    INDEX 01 00:02:00
FILE "CHUCKROCK (Track 04).bin" BINARY
  TRACK 04 AUDIO
    INDEX 00 00:00:00
    INDEX 01 00:02:00
FILE "CHUCKROCK (Track 05).bin" BINARY
  TRACK 05 AUDIO
    INDEX 00 00:00:00
    INDEX 01 00:02:00
FILE "CHUCKROCK (Track 06).bin" BINARY
  TRACK 06 AUDIO
    INDEX 00 00:00:00
    INDEX 01 00:02:00
FILE "CHUCKROCK (Track 07).bin" BINARY
  TRACK 07 AUDIO
    INDEX 00 00:00:00
    INDEX 01 00:02:00
FILE "CHUCKROCK (Track 08).bin" BINARY
  TRACK 08 AUDIO
    INDEX 00 00:00:00
    INDEX 01 00:02:00
FILE "CHUCKROCK (Track 09).bin" BINARY
  TRACK 09 AUDIO
    INDEX 00 00:00:00
    INDEX 01 00:02:00
FILE "CHUCKROCK (Track 10).bin" BINARY
  TRACK 10 AUDIO
    INDEX 00 00:00:00
    INDEX 01 00:02:00
FILE "CHUCKROCK (Track 11).bin" BINARY
  TRACK 11 AUDIO
    INDEX 00 00:00:00
    INDEX 01 00:02:00

    Write Offset: 0

Note:
Should probably match http://redump.org/disc/35935/
https://www.dropbox.com/s/24f51bxqciuzf … CK.7z?dl=0