Common Disc Info:
    Title: Batman Returns
    Foreign Title (Non-latin): (OPTIONAL)
    Disc Number / Letter: (OPTIONAL)
    Disc Title: BATMAN_RETURNS
    System: Sega CD / Mega CD
    Media Type: CD-ROM
    Category: Games
    Region: Europe
    Languages: English
    Disc Serial: MK-4401

    Ringcode Information:
        Mastering Code (laser branded/etched): MK-4401P-00084<tab>3
        Mastering SID Code: (REQUIRED, IF EXISTS)
        Data-Side Mould SID Code: (REQUIRED, IF EXISTS)
        Label-Side Mould SID Code: SMJ
        Additional Mould: (REQUIRED, IF EXISTS)
        Toolstamp or Mastering Code (engraved/stamped): (REQUIRED, IF EXISTS)
    Barcode: (OPTIONAL)
    EXE/Build Date: 1993-04
    Error Count: 0
    Comments: IDs on the disc: 4401 and under it: 670-3532-50
    Contents: Should probably match http://redump.org/disc/8168/

Version and Editions:
    Version: (REQUIRED, IF EXISTS)
    Edition/Release: Original

Extras:
    Primary Volume Descriptor (PVD):

0320 : 20 20 20 20 20 20 20 20  20 20 20 20 20 31 39 39                199
0330 : 33 30 34 32 32 31 33 33  38 32 34 30 30 00 31 39   3042213382400.19
0340 : 39 33 30 35 32 32 31 32  35 36 35 31 30 30 00 30   93052212565100.0
0350 : 30 30 30 30 30 30 30 30  30 30 30 30 30 30 30 00   000000000000000.
0360 : 30 30 30 30 30 30 30 30  30 30 30 30 30 30 30 30   0000000000000000
0370 : 00 01 00 00 00 00 00 00  00 00 00 00 00 00 00 00   ................

    Header:

0100 : 53 45 47 41 20 4D 45 47  41 20 44 52 49 56 45 20   SEGA MEGA DRIVE 
0110 : 28 43 29 53 45 47 41 20  31 39 39 33 2E 41 50 52   (C)SEGA 1993.APR
0120 : 42 41 54 4D 41 4E 20 52  45 54 55 52 4E 53 20 20   BATMAN RETURNS  
0130 : 20 20 20 20 20 20 20 20  20 20 20 20 20 20 20 20                   
0140 : 20 20 20 20 20 20 20 20  20 20 20 20 20 20 20 20                   
0150 : 42 41 54 4D 41 4E 20 52  45 54 55 52 4E 53 20 20   BATMAN RETURNS  
0160 : 20 20 20 20 20 20 20 20  20 20 20 20 20 20 20 20                   
0170 : 20 20 20 20 20 20 20 20  20 20 20 20 20 20 20 20                   
0180 : 47 4D 20 4D 4B 2D 34 34  30 31 20 2D 30 30 20 20   GM MK-4401 -00  
0190 : 4A 20 20 20 20 20 20 20  20 20 20 20 20 20 20 20   J               
01A0 : 20 20 20 20 20 20 20 20  20 20 20 20 20 20 20 20                   
01B0 : 20 20 20 20 20 20 20 20  20 20 20 20 20 20 20 20                   
01C0 : 20 20 20 20 20 20 20 20  20 20 20 20 20 20 20 20                   
01D0 : 20 20 20 20 20 20 20 20  20 20 20 20 20 20 20 20                   
01E0 : 20 20 20 20 20 20 20 20  20 20 20 20 20 20 20 20                   
01F0 : 45 20 20 20 20 20 20 20  20 20 20 20 20 20 20 20   E               

Tracks and Write Offsets:
    DAT:

<rom name="BATMAN_RETURNS (Track 01).bin" size="20363616" crc="58e9e43b" md5="ae37f4385d1efb1f2436647c2b0f4ff8" sha1="79ce96567d7cb999aaff26719491011db68e95ce" />
<rom name="BATMAN_RETURNS (Track 02).bin" size="1176000" crc="b2b1400e" md5="15b6d9c789e3f9253f89e5a81344d542" sha1="8cf893250d22cd6dd6136041d29a7ab28283f2ae" />
<rom name="BATMAN_RETURNS (Track 03).bin" size="31076976" crc="f0d4c228" md5="3895e3aa8d30eb9b0d5b085e08bcd9fd" sha1="ad73b921152d0491a6761cf1e4fd26be33a0cd14" />
<rom name="BATMAN_RETURNS (Track 04).bin" size="26572896" crc="5a893734" md5="20f3c219357286d5d4894cccf64a9d1e" sha1="1839762b3e9781590d3c57a25dac868a3c1187ce" />
<rom name="BATMAN_RETURNS (Track 05).bin" size="26808096" crc="e1b3b761" md5="c56aa6f5e21081b370baa98954f46c54" sha1="3011d7f6853f73fdca64e999336db48e848f2e54" />
<rom name="BATMAN_RETURNS (Track 06).bin" size="15412656" crc="b4fbddbe" md5="249b3c2bb58cd03984c79b0bedd68cd6" sha1="11988e9c6a6c075963bac38f1a4c73e05546e212" />
<rom name="BATMAN_RETURNS (Track 07).bin" size="30670080" crc="b1f4dcbf" md5="dfb608d3ff5a4966789fdc00a4a0ad12" sha1="232646b51f9a90f2d2a65f0d4e934d4abc97222b" />
<rom name="BATMAN_RETURNS (Track 08).bin" size="18103344" crc="d99c589a" md5="15c421327ed3490822bfcd1e39e58279" sha1="699d6181bd3ae48851c5eec8800497f5464573a5" />
<rom name="BATMAN_RETURNS (Track 09).bin" size="30888816" crc="b88fdc64" md5="2903fdb488cde993e13f66c711d871bc" sha1="f9f2d01923fb7b930a5328227a36c9cbfc970bfa" />
<rom name="BATMAN_RETURNS (Track 10).bin" size="27548976" crc="d9a8eb5e" md5="b770d9f772cdcb007146725e09b46ef6" sha1="640a690bd1c6ac31aef219a69b4767e8cd3895d7" />
<rom name="BATMAN_RETURNS (Track 11).bin" size="21617232" crc="62bd0753" md5="7059bc73109b6e25bf34d9f54fc46e1a" sha1="be78618ee416c8eb97758f44b655333374eb9629" />
<rom name="BATMAN_RETURNS (Track 12).bin" size="35402304" crc="8e9b2eee" md5="09d42a4627dff01482afd964008abc45" sha1="ac3b4927e217783d758b96cb26663bf3d44b83e0" />
<rom name="BATMAN_RETURNS (Track 13).bin" size="30884112" crc="91d01210" md5="fe23be3be908fb6fb696034d4856c3ec" sha1="fa6834e88b99581f68b17bc785520d5a1fb48ed3" />
<rom name="BATMAN_RETURNS (Track 14).bin" size="19500432" crc="3ce123ea" md5="99e1a51cd58cb81613ad991a7c03c36e" sha1="461863b87d40c98204f683f32b5f2c4313ee77c7" />
<rom name="BATMAN_RETURNS (Track 15).bin" size="22296960" crc="d3e24685" md5="68fd938ad9bda37ae4b4e16dcfb4c0ec" sha1="092eee8cc5a75f5e91ce4af9f41a2ac99f26ea74" />
<rom name="BATMAN_RETURNS (Track 16).bin" size="24853584" crc="46469e04" md5="1589b05c67a11c07c1f8faa2a7eb75e9" sha1="685effb212213337583844774c65c97d9490681c" />
<rom name="BATMAN_RETURNS (Track 17).bin" size="33591264" crc="c7b13020" md5="b586672cacae26a5abd609bf79939780" sha1="d17b23994b340b6e755a13086c5f9c4179fe1380" />
<rom name="BATMAN_RETURNS (Track 18).bin" size="13413456" crc="8355a771" md5="ffc7b80ce23b78fdcd7d9102daf911d7" sha1="73265b9358c5380d1dd499312896892aeceb191a" />
<rom name="BATMAN_RETURNS (Track 19).bin" size="29870400" crc="a559a6d8" md5="7df3eb9f32549ee39e83b3e42769117d" sha1="b4f780fa35576991560c6c233a4b8e32199d3220" />
<rom name="BATMAN_RETURNS (Track 20).bin" size="35658672" crc="4178c70f" md5="9830bd1882ed1e315c88ccd41a5506bc" sha1="803f9e6ec3aab5ef3165827ee58be7d7a365102b" />
<rom name="BATMAN_RETURNS (Track 21).bin" size="31427424" crc="e659cab5" md5="2a7c7d53b6314f4887c1fc1ea7bc5f7c" sha1="06d41065b6f4527fcb01aaadeba2f5de4514c660" />

    Cuesheet:

FILE "BATMAN_RETURNS (Track 01).bin" BINARY
  TRACK 01 MODE1/2352
    INDEX 01 00:00:00
FILE "BATMAN_RETURNS (Track 02).bin" BINARY
  TRACK 02 AUDIO
    INDEX 00 00:00:00
    INDEX 01 00:02:00
FILE "BATMAN_RETURNS (Track 03).bin" BINARY
  TRACK 03 AUDIO
    INDEX 00 00:00:00
    INDEX 01 00:02:00
FILE "BATMAN_RETURNS (Track 04).bin" BINARY
  TRACK 04 AUDIO
    INDEX 00 00:00:00
    INDEX 01 00:02:00
FILE "BATMAN_RETURNS (Track 05).bin" BINARY
  TRACK 05 AUDIO
    INDEX 00 00:00:00
    INDEX 01 00:02:00
FILE "BATMAN_RETURNS (Track 06).bin" BINARY
  TRACK 06 AUDIO
    INDEX 00 00:00:00
    INDEX 01 00:02:00
FILE "BATMAN_RETURNS (Track 07).bin" BINARY
  TRACK 07 AUDIO
    INDEX 00 00:00:00
    INDEX 01 00:02:00
FILE "BATMAN_RETURNS (Track 08).bin" BINARY
  TRACK 08 AUDIO
    INDEX 00 00:00:00
    INDEX 01 00:02:00
FILE "BATMAN_RETURNS (Track 09).bin" BINARY
  TRACK 09 AUDIO
    INDEX 00 00:00:00
    INDEX 01 00:02:00
FILE "BATMAN_RETURNS (Track 10).bin" BINARY
  TRACK 10 AUDIO
    INDEX 00 00:00:00
    INDEX 01 00:02:00
FILE "BATMAN_RETURNS (Track 11).bin" BINARY
  TRACK 11 AUDIO
    INDEX 00 00:00:00
    INDEX 01 00:02:00
FILE "BATMAN_RETURNS (Track 12).bin" BINARY
  TRACK 12 AUDIO
    INDEX 00 00:00:00
    INDEX 01 00:02:00
FILE "BATMAN_RETURNS (Track 13).bin" BINARY
  TRACK 13 AUDIO
    INDEX 00 00:00:00
    INDEX 01 00:02:00
FILE "BATMAN_RETURNS (Track 14).bin" BINARY
  TRACK 14 AUDIO
    INDEX 00 00:00:00
    INDEX 01 00:02:00
FILE "BATMAN_RETURNS (Track 15).bin" BINARY
  TRACK 15 AUDIO
    INDEX 00 00:00:00
    INDEX 01 00:02:00
FILE "BATMAN_RETURNS (Track 16).bin" BINARY
  TRACK 16 AUDIO
    INDEX 00 00:00:00
    INDEX 01 00:02:00
FILE "BATMAN_RETURNS (Track 17).bin" BINARY
  TRACK 17 AUDIO
    INDEX 00 00:00:00
    INDEX 01 00:02:00
FILE "BATMAN_RETURNS (Track 18).bin" BINARY
  TRACK 18 AUDIO
    INDEX 00 00:00:00
    INDEX 01 00:02:00
FILE "BATMAN_RETURNS (Track 19).bin" BINARY
  TRACK 19 AUDIO
    INDEX 00 00:00:00
    INDEX 01 00:02:00
FILE "BATMAN_RETURNS (Track 20).bin" BINARY
  TRACK 20 AUDIO
    INDEX 00 00:00:00
    INDEX 01 00:02:00
FILE "BATMAN_RETURNS (Track 21).bin" BINARY
  TRACK 21 AUDIO
    INDEX 00 00:00:00
    INDEX 01 00:02:00

    Write Offset: 19

Note:
Should probably match http://redump.org/disc/8168/
https://www.dropbox.com/s/je0i5yw325uvj … NS.7z?dl=0