1 (edited by Parotaku 2020-05-17 10:45:58)

Common Disc Info:
    Title: Prince of Persia
    Foreign Title (Non-latin): (OPTIONAL)
    Disc Number / Letter: (OPTIONAL)
    Disc Title: MEGADRIVE_GAME_SPECIAL
    System: Sega CD / Mega CD
    Media Type: CD-ROM
    Category: Games
    Region: Europe
    Languages: English
    Disc Serial: MK-4652

    Ringcode Information:
        Mastering Code (laser branded/etched): MK-4652P-00043-R2M<tab>V
        Mastering SID Code: (REQUIRED, IF EXISTS)
        Data-Side Mould SID Code: (REQUIRED, IF EXISTS)
        Label-Side Mould SID Code: (REQUIRED, IF EXISTS)
        Additional Mould: (REQUIRED, IF EXISTS)
        Toolstamp or Mastering Code (engraved/stamped): 1 2
    Barcode: (OPTIONAL)
    EXE/Build Date: 1992-00
    Error Count: 0
    Comments: IDs on the disc: 4652 and under it: 670-2982-50
    Contents: Should probably match http://redump.org/disc/4101/

Version and Editions:
    Version: (REQUIRED, IF EXISTS)
    Edition/Release: Original

Extras:
    Primary Volume Descriptor (PVD):

0320 : 20 20 20 20 20 20 20 20  20 20 20 20 20 30 30 30                000
0330 : 30 30 30 30 30 30 30 30  30 30 30 30 30 00 31 39   0000000000000.19
0340 : 39 32 31 31 31 36 31 39  30 33 35 33 30 30 00 30   92111619035300.0
0350 : 30 30 30 30 30 30 30 30  30 30 30 30 30 30 30 00   000000000000000.
0360 : 30 30 30 30 30 30 30 30  30 30 30 30 30 30 30 30   0000000000000000
0370 : 00 01 00 00 00 00 00 00  00 00 00 00 00 00 00 00   ................

    Header:

0100 : 53 45 47 41 20 4D 45 47  41 20 44 52 49 56 45 20   SEGA MEGA DRIVE 
0110 : 28 43 29 53 45 47 41 20  31 39 39 32 2E 41 75 67   (C)SEGA 1992.Aug
0120 : 50 72 69 6E 63 65 20 6F  66 20 50 65 72 73 69 61   Prince of Persia
0130 : 20 20 20 20 20 20 20 20  20 20 20 20 20 20 20 20                   
0140 : 20 20 20 20 20 20 20 20  20 20 20 20 20 20 20 20                   
0150 : 50 72 69 6E 63 65 20 6F  66 20 50 65 72 73 69 61   Prince of Persia
0160 : 20 20 20 20 20 20 20 20  20 20 20 20 20 20 20 20                   
0170 : 20 20 20 20 20 20 20 20  20 20 20 20 20 20 20 20                   
0180 : 47 4D 20 4D 4B 2D 34 36  35 32 2D 30 30 20 00 00   GM MK-4652-00 ..
0190 : 4A 20 20 20 20 20 20 20  20 20 20 20 20 20 20 20   J               
01A0 : 20 20 20 20 20 20 20 20  20 20 20 20 20 20 20 20                   
01B0 : 20 20 20 20 20 20 20 20  20 20 20 20 20 20 20 20                   
01C0 : 20 20 20 20 20 20 20 20  20 20 20 20 20 20 20 20                   
01D0 : 20 20 20 20 20 20 20 20  20 20 20 20 20 20 20 20                   
01E0 : 20 20 20 20 20 20 20 20  20 20 20 20 20 20 20 20                   
01F0 : 4A 20 20 20 20 20 20 20  20 20 20 20 20 20 20 20   J               

Tracks and Write Offsets:
    DAT:

<rom name="MEGADRIVE_GAME_SPECIAL (Track 01).bin" size="2641296" crc="ad500b93" md5="0e933e9cb40bb5ba5a3b08862f25c452" sha1="59af7d2fd1c3b219c7c539064c29058715086c58" />
<rom name="MEGADRIVE_GAME_SPECIAL (Track 02).bin" size="33708864" crc="49811689" md5="fab949b02b32083a0634631f7386229c" sha1="af3f22f7fc73a81edac2786a51b1fc5ae022b89a" />
<rom name="MEGADRIVE_GAME_SPECIAL (Track 03).bin" size="33765312" crc="4b5b8516" md5="52d00771d32717ab7100e12954a2ba85" sha1="822f5bd42df88a4b660e4f5c077403d3aa1f3935" />
<rom name="MEGADRIVE_GAME_SPECIAL (Track 04).bin" size="19359312" crc="98ddfbb6" md5="9c51593d3f28b121f078d58eb0a8ef31" sha1="9d6d738e32eaa8cbe6d15bc5691bf47153b29e57" />
<rom name="MEGADRIVE_GAME_SPECIAL (Track 05).bin" size="12609072" crc="9be52ed5" md5="45ce72a7595e8fcf06075df8b748af60" sha1="babfbb5fc7e26fff647bcc95f1f33cea79a83088" />
<rom name="MEGADRIVE_GAME_SPECIAL (Track 06).bin" size="1622880" crc="a2030259" md5="c0b93646495aac6b9b071c7fe063ce25" sha1="fb11c2a4143e96ee6d234e785a25ede9bece313c" />
<rom name="MEGADRIVE_GAME_SPECIAL (Track 07).bin" size="1891008" crc="3379ec4c" md5="bac95d8d1d038f0860b4240fc31a2d5b" sha1="f203eb5fee5c9bfc119dfe51eea75fbedc69a133" />
<rom name="MEGADRIVE_GAME_SPECIAL (Track 08).bin" size="1505280" crc="fe313f82" md5="8cde3015d2975fc042facdeff91808f7" sha1="2618fbc6514ee27b99e06383149542b6663b1d50" />
<rom name="MEGADRIVE_GAME_SPECIAL (Track 09).bin" size="2041536" crc="89a40265" md5="8b0885d20281e4b4ab517825021aa5d3" sha1="9799412d6eebe2ab790eb28f070869c9fb805037" />
<rom name="MEGADRIVE_GAME_SPECIAL (Track 10).bin" size="1818096" crc="7cb12741" md5="98d031fef8da744fe50ba74d465e9d6d" sha1="67a72185a10d97658ac3975771ccaf3fbd282718" />
<rom name="MEGADRIVE_GAME_SPECIAL (Track 11).bin" size="1916880" crc="32038cb2" md5="ffd0a5f7ab83736341a1a9fa13c80a99" sha1="0c371e3faa764c1a44ebb1984c1f70e6d7a3a0b2" />
<rom name="MEGADRIVE_GAME_SPECIAL (Track 12).bin" size="28191072" crc="6605a4a4" md5="3ea37af46574e7210b8a1f5cde72c36e" sha1="7fbc896852d8bda12a4b6043174f8877125bef80" />
<rom name="MEGADRIVE_GAME_SPECIAL (Track 13).bin" size="13512240" crc="25d76664" md5="47609704d34f1545c2a8dba34b3eaf85" sha1="ffbd4416a7e9d96c1de2664ae61907fd9fb2150f" />
<rom name="MEGADRIVE_GAME_SPECIAL (Track 14).bin" size="25062912" crc="647e40d4" md5="7cef04ce3a728ce71cffac44f7d713b5" sha1="08a8effd190e13988436fdb3c277c777757e3dcb" />
<rom name="MEGADRIVE_GAME_SPECIAL (Track 15).bin" size="9678480" crc="3df89603" md5="4c12afda18e5e208e9e83faff8bfa916" sha1="1ba3ba3706a2c39e2e92d222ed09a9f79ea8e5b5" />
<rom name="MEGADRIVE_GAME_SPECIAL (Track 16).bin" size="22228752" crc="ea48bba7" md5="442a92d56451b31abc67233880ab2f94" sha1="4c951bf92ef571b8f8388e54b8f832b5af5c7298" />
<rom name="MEGADRIVE_GAME_SPECIAL (Track 17).bin" size="35773920" crc="49a82a06" md5="c87aae3d7f369a9b09ccb9f2b6a2036c" sha1="782155789c0371e00303aaf373f93ccd7e8ab3d1" />
<rom name="MEGADRIVE_GAME_SPECIAL (Track 18).bin" size="12517344" crc="fd1b4f9e" md5="05be1e40e714ef81bccb558028029e48" sha1="0f8afc9728308520db029771da48021022249f15" />
<rom name="MEGADRIVE_GAME_SPECIAL (Track 19).bin" size="27222048" crc="27c0dce6" md5="d4d2faa854b7517b295ff247529d6839" sha1="86e28916904b829c6b4a48bed5a88206ac963040" />
<rom name="MEGADRIVE_GAME_SPECIAL (Track 20).bin" size="49363776" crc="e8637c55" md5="1c716c9b1ab63d7c9f3b00d734743479" sha1="10929048b712d29a2658f1503933dea846d60199" />
<rom name="MEGADRIVE_GAME_SPECIAL (Track 21).bin" size="1982736" crc="8fc1e18b" md5="3e718560a7ea340f76cc4fbd157c3f81" sha1="e5296a785e9fdb732b0498d0c184cd5f1a26468a" />
<rom name="MEGADRIVE_GAME_SPECIAL (Track 22).bin" size="2053296" crc="a3631fde" md5="2743a412eea57fbaef23b6672a8aa106" sha1="d02722a0fb45cda22bb8acf34d0120364074a7ce" />
<rom name="MEGADRIVE_GAME_SPECIAL (Track 23).bin" size="2062704" crc="10b1faa4" md5="26dc52370094e5f43187339117c5bfea" sha1="07e2243d4d0d93b2e20ef96af48ffe4ece069401" />
<rom name="MEGADRIVE_GAME_SPECIAL (Track 24).bin" size="1662864" crc="9f2dc7d7" md5="89000d813531149e76ed40eb89ffdc4b" sha1="7df648fb3fb39885b10f1c971390a26315ef50b2" />
<rom name="MEGADRIVE_GAME_SPECIAL (Track 25).bin" size="1660512" crc="7088a5d5" md5="bfb7b82a785ed6cd28f32a573e1e6c89" sha1="34c526024879bf4107d974a7b9f8e90908a0ed32" />

    Cuesheet:

CATALOG 0000000000000
FILE "MEGADRIVE_GAME_SPECIAL (Track 01).bin" BINARY
  TRACK 01 MODE1/2352
    INDEX 01 00:00:00
FILE "MEGADRIVE_GAME_SPECIAL (Track 02).bin" BINARY
  TRACK 02 AUDIO
    INDEX 00 00:00:00
    INDEX 01 00:02:00
FILE "MEGADRIVE_GAME_SPECIAL (Track 03).bin" BINARY
  TRACK 03 AUDIO
    INDEX 00 00:00:00
    INDEX 01 00:01:74
FILE "MEGADRIVE_GAME_SPECIAL (Track 04).bin" BINARY
  TRACK 04 AUDIO
    INDEX 00 00:00:00
    INDEX 01 00:01:74
FILE "MEGADRIVE_GAME_SPECIAL (Track 05).bin" BINARY
  TRACK 05 AUDIO
    INDEX 00 00:00:00
    INDEX 01 00:01:74
FILE "MEGADRIVE_GAME_SPECIAL (Track 06).bin" BINARY
  TRACK 06 AUDIO
    INDEX 00 00:00:00
    INDEX 01 00:01:74
FILE "MEGADRIVE_GAME_SPECIAL (Track 07).bin" BINARY
  TRACK 07 AUDIO
    INDEX 00 00:00:00
    INDEX 01 00:01:74
FILE "MEGADRIVE_GAME_SPECIAL (Track 08).bin" BINARY
  TRACK 08 AUDIO
    INDEX 00 00:00:00
    INDEX 01 00:01:74
FILE "MEGADRIVE_GAME_SPECIAL (Track 09).bin" BINARY
  TRACK 09 AUDIO
    INDEX 00 00:00:00
    INDEX 01 00:01:74
FILE "MEGADRIVE_GAME_SPECIAL (Track 10).bin" BINARY
  TRACK 10 AUDIO
    INDEX 00 00:00:00
    INDEX 01 00:01:74
FILE "MEGADRIVE_GAME_SPECIAL (Track 11).bin" BINARY
  TRACK 11 AUDIO
    INDEX 00 00:00:00
    INDEX 01 00:01:74
FILE "MEGADRIVE_GAME_SPECIAL (Track 12).bin" BINARY
  TRACK 12 AUDIO
    INDEX 00 00:00:00
    INDEX 01 00:01:74
FILE "MEGADRIVE_GAME_SPECIAL (Track 13).bin" BINARY
  TRACK 13 AUDIO
    INDEX 00 00:00:00
    INDEX 01 00:01:74
FILE "MEGADRIVE_GAME_SPECIAL (Track 14).bin" BINARY
  TRACK 14 AUDIO
    INDEX 00 00:00:00
    INDEX 01 00:01:74
FILE "MEGADRIVE_GAME_SPECIAL (Track 15).bin" BINARY
  TRACK 15 AUDIO
    INDEX 00 00:00:00
    INDEX 01 00:01:74
FILE "MEGADRIVE_GAME_SPECIAL (Track 16).bin" BINARY
  TRACK 16 AUDIO
    INDEX 00 00:00:00
    INDEX 01 00:01:74
FILE "MEGADRIVE_GAME_SPECIAL (Track 17).bin" BINARY
  TRACK 17 AUDIO
    INDEX 00 00:00:00
    INDEX 01 00:01:74
FILE "MEGADRIVE_GAME_SPECIAL (Track 18).bin" BINARY
  TRACK 18 AUDIO
    INDEX 00 00:00:00
    INDEX 01 00:01:74
FILE "MEGADRIVE_GAME_SPECIAL (Track 19).bin" BINARY
  TRACK 19 AUDIO
    INDEX 00 00:00:00
    INDEX 01 00:01:74
FILE "MEGADRIVE_GAME_SPECIAL (Track 20).bin" BINARY
  TRACK 20 AUDIO
    INDEX 00 00:00:00
    INDEX 01 00:01:74
FILE "MEGADRIVE_GAME_SPECIAL (Track 21).bin" BINARY
  TRACK 21 AUDIO
    INDEX 00 00:00:00
    INDEX 01 00:01:74
FILE "MEGADRIVE_GAME_SPECIAL (Track 22).bin" BINARY
  TRACK 22 AUDIO
    INDEX 00 00:00:00
    INDEX 01 00:01:74
FILE "MEGADRIVE_GAME_SPECIAL (Track 23).bin" BINARY
  TRACK 23 AUDIO
    INDEX 00 00:00:00
    INDEX 01 00:01:74
FILE "MEGADRIVE_GAME_SPECIAL (Track 24).bin" BINARY
  TRACK 24 AUDIO
    INDEX 00 00:00:00
    INDEX 01 00:01:74
FILE "MEGADRIVE_GAME_SPECIAL (Track 25).bin" BINARY
  TRACK 25 AUDIO
    INDEX 00 00:00:00
    INDEX 01 00:01:74

    Write Offset: 1597

Note:
Should probably match http://redump.org/disc/4101/
https://www.dropbox.com/s/jskqyqnl4ml0k … AL.7z?dl=0