XS Games Release
CD 1

Match: http://redump.org/disc/45758/
Logs: https://drive.google.com/open?id=1Fb_z1 … K0lvmnbp41

Common Disc Info:
    Title: Sanitarium
    Foreign Title (Non-latin): 
    Disc Number / Letter: 1
    Disc Title: DISC 1
    System: IBM PC Compatible
    Media Type: CD-ROM
    Category: Games
    Matching IDs: 45758
    Region: USA
    Languages: English
    Disc Serial: (REQUIRED, IF EXISTS)

    Ringcode Information:
        Mastering Code (laser branded/etched): 2126311 R1F
        Mastering SID Code: IFPI L240
        Data-Side Mould SID Code: IFPI 4121
        Label-Side Mould SID Code: (REQUIRED, IF EXISTS)
        Additional Mould: (REQUIRED, IF EXISTS)
        Toolstamp or Mastering Code (engraved/stamped): 12
    Barcode: 7 10425 21263 5
    Error Count: 0
    Comments: [T:ISBN] (OPTIONAL)
    Contents: (OPTIONAL)

Version and Editions:
    Version: 1.00.000
    Edition/Release: Rerelease

Extras:
    Primary Volume Descriptor (PVD):

0320 : 20 20 20 20 20 20 20 20  20 20 20 20 20 32 30 30                200
0330 : 33 30 37 31 35 30 31 30  35 30 30 30 30 F0 32 30   3071501050000.20
0340 : 30 33 30 37 31 35 30 31  30 35 30 30 30 30 F0 30   03071501050000.0
0350 : 30 30 30 30 30 30 30 30  30 30 30 30 30 30 30 00   000000000000000.
0360 : 30 30 30 30 30 30 30 30  30 30 30 30 30 30 30 30   0000000000000000
0370 : 00 01 00 00 00 00 00 00  00 00 00 00 00 00 00 00   ................

Copy Protection:
    Copy Protection: 

Tracks and Write Offsets:
    DAT:

<rom name="SANITARIUM1.bin" size="601745088" crc="172c50ae" md5="96675d1376f89c2dd4794e66737e1cef" sha1="859bad76d425b90296f4e4894ad20466b1b08dd9" />

    Cuesheet:

FILE "SANITARIUM1.bin" BINARY
  TRACK 01 MODE1/2352
    INDEX 01 00:00:00

    Write Offset: -12

XS Games Release
CD 2

Match: http://redump.org/disc/45760/
Logs: https://drive.google.com/open?id=1P3glr … srYk5T2LCD

Common Disc Info:
    Title: Sanitarium
    Foreign Title (Non-latin): 
    Disc Number / Letter: 2
    Disc Title: DISC 2
    System: IBM PC Compatible
    Media Type: CD-ROM
    Category: Games
    Matching IDs: 45760
    Region: USA
    Languages: English
    Disc Serial: (REQUIRED, IF EXISTS)

    Ringcode Information:
        Mastering Code (laser branded/etched): 2126312 R6N
        Mastering SID Code: IFPI L250
        Data-Side Mould SID Code: IFPI 4158
        Label-Side Mould SID Code: (REQUIRED, IF EXISTS)
        Additional Mould: (REQUIRED, IF EXISTS)
        Toolstamp or Mastering Code (engraved/stamped): 11
    Barcode: 7 10425 21263 5
    Error Count: 0
    Comments: [T:ISBN] (OPTIONAL)
    Contents: (OPTIONAL)

Version and Editions:
    Version: 1.00.000
    Edition/Release: Rerelease

Extras:
    Primary Volume Descriptor (PVD):

0320 : 20 20 20 20 20 20 20 20  20 20 20 20 20 32 30 30                200
0330 : 33 30 37 31 34 31 38 32  36 30 30 30 30 F0 32 30   3071418260000.20
0340 : 30 33 30 37 31 34 31 38  32 36 30 30 30 30 F0 30   03071418260000.0
0350 : 30 30 30 30 30 30 30 30  30 30 30 30 30 30 30 00   000000000000000.
0360 : 30 30 30 30 30 30 30 30  30 30 30 30 30 30 30 30   0000000000000000
0370 : 00 01 00 00 00 00 00 00  00 00 00 00 00 00 00 00   ................

Copy Protection:
    Copy Protection: None found

Tracks and Write Offsets:
    DAT:

<rom name="SANITARIUM2.bin" size="778208592" crc="bcf4c5c2" md5="40c85c3bec57d0b25e9e53af8de6b7cd" sha1="00d7050ce9046ae1523cb01cacf0e4a61527030d" />

    Cuesheet:

FILE "SANITARIUM2.bin" BINARY
  TRACK 01 MODE1/2352
    INDEX 01 00:00:00

    Write Offset: -12

XS Games Release
CD 3

Match: http://redump.org/disc/45759/
Logs: https://drive.google.com/open?id=1X8A_l … igAl4ZbvWO

Common Disc Info:
    Title: Sanitarium
    Foreign Title (Non-latin): 
    Disc Number / Letter: 3
    Disc Title: DISC 3
    System: IBM PC Compatible
    Media Type: CD-ROM
    Category: Games
    Matching IDs: 45759
    Region: USA
    Languages: English
    Disc Serial: (REQUIRED, IF EXISTS)

    Ringcode Information:
        Mastering Code (laser branded/etched): 2126313 P7N
        Mastering SID Code: IFPI L250
        Data-Side Mould SID Code: IFPI 4121
        Label-Side Mould SID Code: (REQUIRED, IF EXISTS)
        Additional Mould: (REQUIRED, IF EXISTS)
        Toolstamp or Mastering Code (engraved/stamped): 11
    Barcode: 7 10425 21263 5
    Error Count: 0
    Comments: [T:ISBN] (OPTIONAL)
    Contents: (OPTIONAL)

Version and Editions:
    Version: 1.00.000
    Edition/Release: Rerelease

Extras:
    Primary Volume Descriptor (PVD):

0320 : 20 20 20 20 20 20 20 20  20 20 20 20 20 32 30 30                200
0330 : 33 30 37 31 34 32 33 30  37 30 30 30 30 F0 32 30   3071423070000.20
0340 : 30 33 30 37 31 34 32 33  30 37 30 30 30 30 F0 30   03071423070000.0
0350 : 30 30 30 30 30 30 30 30  30 30 30 30 30 30 30 00   000000000000000.
0360 : 30 30 30 30 30 30 30 30  30 30 30 30 30 30 30 30   0000000000000000
0370 : 00 01 00 00 00 00 00 00  00 00 00 00 00 00 00 00   ................

Copy Protection:
    Copy Protection:

H:\Data\RES.016: SafeDisc 1
H:\Data\SCN.016: SafeDisc 1
H:\Data\Music\MUS.016: SafeDisc 1

Tracks and Write Offsets:
    DAT:

<rom name="SANITARIUM3.bin" size="735856128" crc="1f8ba903" md5="fe59499da78000c5ebe514e54bcdd012" sha1="5b007443f4d550cd824781016e517bd48fbcdcff" />

    Cuesheet:

FILE "SANITARIUM3.bin" BINARY
  TRACK 01 MODE1/2352
    INDEX 01 00:00:00

    Write Offset: -12