CD 1

Match: http://redump.org/disc/7395/
Logs: https://drive.google.com/open?id=1C0n9N … BEoDgG6E9F

Common Disc Info:
    Title: Sanitarium
    Foreign Title (Non-latin): 
    Disc Number / Letter: 1
    Disc Title: Disc One
    System: IBM PC Compatible
    Media Type: CD-ROM
    Category: Games
    Matching IDs: 7395
    Region: USA, Europe
    Languages: English
    Disc Serial: CD090736

    Ringcode Information:
        Mastering Code (laser branded/etched): CS090736    CD Systems UK    19673
        Mastering SID Code: IFPI LD11
        Data-Side Mould SID Code: (REQUIRED, IF EXISTS)
        Label-Side Mould SID Code: (REQUIRED, IF EXISTS)
        Additional Mould: (REQUIRED, IF EXISTS)
        Toolstamp or Mastering Code (engraved/stamped): (REQUIRED, IF EXISTS)
    Barcode: 
    Error Count: 0
    Comments: [T:ISBN] (OPTIONAL)
    Contents: (OPTIONAL)

Version and Editions:
    Version: 1.01
    Edition/Release: Original

Extras:
    Primary Volume Descriptor (PVD):

0320 : 20 20 20 20 20 20 20 20  20 20 20 20 20 31 39 39                199
0330 : 38 30 36 32 32 31 34 35  34 30 30 30 30 00 31 39   8062214540000.19
0340 : 39 38 30 36 32 32 31 34  35 34 30 30 30 30 00 30   98062214540000.0
0350 : 30 30 30 30 30 30 30 30  30 30 30 30 30 30 30 00   000000000000000.
0360 : 30 30 30 30 30 30 30 30  30 30 30 30 30 30 30 30   0000000000000000
0370 : 00 01 00 00 00 00 00 00  00 00 00 00 00 00 00 00   ................

Copy Protection:
    Copy Protection: 

Tracks and Write Offsets:
    DAT:

<rom name="SANITARIUM1.bin" size="600707856" crc="3391af79" md5="1e79a973cc7d466df9b53a8692befd30" sha1="4e1a8b9ae073122a148bf528a96fcebf7cdcff45" />

    Cuesheet:

FILE "SANITARIUM1.bin" BINARY
  TRACK 01 MODE2/2352
    INDEX 01 00:00:00

    Write Offset: -22

CD 2

Match: http://redump.org/disc/7396/
Logs: https://drive.google.com/open?id=11hUT6 … m5xFtmap1y

Common Disc Info:
    Title: Sanitarium
    Foreign Title (Non-latin): 
    Disc Number / Letter: 2
    Disc Title: Disc Two
    System: IBM PC Compatible
    Media Type: CD-ROM
    Category: Games
    Matching IDs: 7396
    Region: Europe
    Languages: English
    Disc Serial: CS090737

    Ringcode Information:
        Mastering Code (laser branded/etched): SANITARIUM/B-ROM CDSystemsUK
        Mastering SID Code: IFPI L852
        Data-Side Mould SID Code: IFPI 5Q12
        Label-Side Mould SID Code: (REQUIRED, IF EXISTS)
        Additional Mould: (REQUIRED, IF EXISTS)
        Toolstamp or Mastering Code (engraved/stamped): (REQUIRED, IF EXISTS)
    Barcode: 
    Error Count: 0
    Comments: [T:ISBN] (OPTIONAL)
    Contents: (OPTIONAL)

Version and Editions:
    Version: 1.01
    Edition/Release: Original

Extras:
    Primary Volume Descriptor (PVD):

0320 : 20 20 20 20 20 20 20 20  20 20 20 20 20 31 39 39                199
0330 : 38 30 34 31 36 31 34 32  31 35 32 30 30 00 31 39   8041614215200.19
0340 : 39 38 30 34 31 36 31 34  32 31 35 32 30 30 00 30   98041614215200.0
0350 : 30 30 30 30 30 30 30 30  30 30 30 30 30 30 30 00   000000000000000.
0360 : 30 30 30 30 30 30 30 30  30 30 30 30 30 30 30 30   0000000000000000
0370 : 00 01 00 00 00 00 00 00  00 00 00 00 00 00 00 00   ................

Copy Protection:
    Copy Protection: None found

Tracks and Write Offsets:
    DAT:

<rom name="SANITARIUM2.bin" size="777881664" crc="149bd57c" md5="71f3c3d8b62e72027aebe4f540db6b36" sha1="aa00a22a3825985c5ff32528385db65ca7f38b73" />

    Cuesheet:

CATALOG 0000000000000
FILE "SANITARIUM2.bin" BINARY
  TRACK 01 MODE2/2352
    INDEX 01 00:00:00

    Write Offset: 0

CD 3

Match: http://redump.org/disc/7397/
Logs: https://drive.google.com/open?id=1cdRlx … cQJWmr9j-9

Common Disc Info:
    Title: Sanitarium
    Foreign Title (Non-latin): 
    Disc Number / Letter: 3
    Disc Title: Disc Three
    System: IBM PC Compatible
    Media Type: CD-ROM
    Category: Games
    Matching IDs: 7397
    Region: USA, Europe
    Languages: English
    Disc Serial: CS090738

    Ringcode Information:
        Mastering Code (laser branded/etched): SANITARIUM/C-ROM CDSystemsUK
        Mastering SID Code: IFPI L853
        Data-Side Mould SID Code: IFPI 5Q15
        Label-Side Mould SID Code: (REQUIRED, IF EXISTS)
        Additional Mould: (REQUIRED, IF EXISTS)
        Toolstamp or Mastering Code (engraved/stamped): (REQUIRED, IF EXISTS)
    Barcode: 
    Error Count: 0
    Comments: [T:ISBN] (OPTIONAL)
    Contents: (OPTIONAL)

Version and Editions:
    Version: 1.01
    Edition/Release: Original

Extras:
    Primary Volume Descriptor (PVD):

0320 : 20 20 20 20 20 20 20 20  20 20 20 20 20 31 39 39                199
0330 : 38 30 34 31 36 31 35 31  31 33 30 30 30 00 31 39   8041615113000.19
0340 : 39 38 30 34 31 36 31 35  31 31 33 30 30 30 00 30   98041615113000.0
0350 : 30 30 30 30 30 30 30 30  30 30 30 30 30 30 30 00   000000000000000.
0360 : 30 30 30 30 30 30 30 30  30 30 30 30 30 30 30 30   0000000000000000
0370 : 00 01 00 00 00 00 00 00  00 00 00 00 00 00 00 00   ................

Copy Protection:
    Copy Protection:

H:\Data\RES.016: SafeDisc 1
H:\Data\SCN.016: SafeDisc 1
H:\Data\Music\MUS.016: SafeDisc 1

Tracks and Write Offsets:
    DAT:

<rom name="SANITARIUM3.bin" size="735529200" crc="819ebeed" md5="5d939bae2e16b5bc333de572091b6ad4" sha1="797fbe08575a5b9c03e0b225f629a1a531dce437" />

    Cuesheet:

FILE "SANITARIUM3.bin" BINARY
  TRACK 01 MODE2/2352
    INDEX 01 00:00:00

    Write Offset: -12