1 (edited by Rootifera 2020-05-16 16:53:32)

CD 1

Match: http://redump.org/disc/7871/
Logs: https://drive.google.com/open?id=1fwZ8d … iwM8SmG6K4

Common Disc Info:
    Title: Vampire: The Masquerade: Redemption
    Foreign Title (Non-latin): 
    Disc Number / Letter: 1
    Disc Title: Disc 1 Install
    System: IBM PC Compatible
    Media Type: CD-ROM
    Category: Games
    Matching IDs: 7871
    Region: Europe
    Languages: English
    Disc Serial: 1000907.101.UK

    Ringcode Information:
        Mastering Code (laser branded/etched): NIMBUS    CDD38248 1000907.101.UK ·
        Mastering SID Code: IFPI L122
        Data-Side Mould SID Code: IFPI 2337
        Label-Side Mould SID Code: (REQUIRED, IF EXISTS)
        Additional Mould: (REQUIRED, IF EXISTS)
        Toolstamp or Mastering Code (engraved/stamped): 2:1
    Barcode: 
    Error Count: 0
    Comments: [T:ISBN] (OPTIONAL)
    Contents: (OPTIONAL)

Version and Editions:
    Version: (REQUIRED, IF EXISTS)
    Edition/Release: Original

Extras:
    Primary Volume Descriptor (PVD):

0320 : 20 20 20 20 20 20 20 20  20 20 20 20 20 32 30 30                200
0330 : 30 30 36 30 33 31 37 33  38 33 38 30 30 00 32 30   0060317383800.20
0340 : 30 30 30 36 30 33 31 37  33 38 33 38 30 30 00 30   00060317383800.0
0350 : 30 30 30 30 30 30 30 30  30 30 30 30 30 30 30 00   000000000000000.
0360 : 30 30 30 30 30 30 30 30  30 30 30 30 30 30 30 30   0000000000000000
0370 : 00 01 00 00 00 00 00 00  00 00 00 00 00 00 00 00   ................

Copy Protection:
    Copy Protection: H:\Setup\_user1.hdr: CD Check, CD Check, CD Check, CD Check

Tracks and Write Offsets:
    DAT:

<rom name="VAMPIRE_INSTALL.bin" size="711186000" crc="f4fd4eab" md5="d227d07eb713c9a8b2fc428d00a29891" sha1="810b5791ec1119fd1ff555fc897426068b5dd7c6" />

    Cuesheet:

FILE "VAMPIRE_INSTALL.bin" BINARY
  TRACK 01 MODE1/2352
    INDEX 01 00:00:00

    Write Offset: -12

2 (edited by Rootifera 2020-05-16 16:54:34)

CD 2

Match: http://redump.org/disc/7872/
Logs: https://drive.google.com/open?id=1jGveI … DsV6GRzLg7

Common Disc Info:
    Title: Vampire: The Masquerade: Redemption
    Foreign Title (Non-latin): 
    Disc Number / Letter: 2
    Disc Title: Disc 2 Play
    System: IBM PC Compatible
    Media Type: CD-ROM
    Category: Games
    Matching IDs: 7872
    Region: Europe
    Languages: English
    Disc Serial: 1000907.102.UK

    Ringcode Information:
        Mastering Code (laser branded/etched): NIMBUS    CDD38249 1000907.102.UK :
        Mastering SID Code: IFPI L122
        Data-Side Mould SID Code: IFPI 2329
        Label-Side Mould SID Code: (REQUIRED, IF EXISTS)
        Additional Mould: (REQUIRED, IF EXISTS)
        Toolstamp or Mastering Code (engraved/stamped): 1:1
    Barcode: 
    Error Count: 0
    Comments: [T:ISBN] (OPTIONAL)
    Contents: (OPTIONAL)

Version and Editions:
    Version: (REQUIRED, IF EXISTS)
    Edition/Release: Original

Extras:
    Primary Volume Descriptor (PVD):

0320 : 20 20 20 20 20 20 20 20  20 20 20 20 20 32 30 30                200
0330 : 30 30 36 30 33 31 37 35  30 34 30 30 30 00 32 30   0060317504000.20
0340 : 30 30 30 36 30 33 31 37  35 30 34 30 30 30 00 30   00060317504000.0
0350 : 30 30 30 30 30 30 30 30  30 30 30 30 30 30 30 00   000000000000000.
0360 : 30 30 30 30 30 30 30 30  30 30 30 30 30 30 30 30   0000000000000000
0370 : 00 01 00 00 00 00 00 00  00 00 00 00 00 00 00 00   ................

Copy Protection:
    Copy Protection: 

Tracks and Write Offsets:
    DAT:

<rom name="VAMPIRE_PLAY (Track 1).bin" size="721762944" crc="f9b4af5d" md5="ae5235a9224b0726a8b6fd442dc54f9e" sha1="3557f0969c684f16be6234037bd549a9e7c2c568" />
<rom name="VAMPIRE_PLAY (Track 2).bin" size="80619504" crc="387cc8e1" md5="b73bb6a618b18c599e736e4a8370f52b" sha1="a4ae33cc26021ab2f3b08826e9b464cf5d738657" />

    Cuesheet:

FILE "VAMPIRE_PLAY (Track 1).bin" BINARY
  TRACK 01 MODE1/2352
    INDEX 01 00:00:00
FILE "VAMPIRE_PLAY (Track 2).bin" BINARY
  TRACK 02 AUDIO
    INDEX 00 00:00:00
    INDEX 01 00:02:00

    Write Offset: -12